#VERSION:0.83;
#TITLE:You're Never Fully Dressed Without A Smile;
#SUBTITLE:;
#ARTIST:Sia;
#TITLETRANSLIT:;
#SUBTITLETRANSLIT:;
#ARTISTTRANSLIT:;
#GENRE:;
#ORIGIN:;
#CREDIT:;
#BANNER:You're Never Fully Dressed Without A Smile.png;
#BACKGROUND:You're Never Fully Dressed Without A Smile-bg.png;
#PREVIEWVID:;
#JACKET:You're Never Fully Dressed Without A Smile-jacket.png;
#CDIMAGE:;
#DISCIMAGE:;
#LYRICSPATH:;
#CDTITLE:;
#MUSIC:You're Never Fully Dressed Without A Smile.ogg;
#OFFSET:-2.469920;
#SAMPLESTART:23.514999;
#SAMPLELENGTH:15.004001;
#SELECTABLE:YES;
#BPMS:0.000=100.500;
#STOPS:;
#DELAYS:;
#WARPS:;
#TIMESIGNATURES:0.000=4=4;
#TICKCOUNTS:0.000=4;
#COMBOS:0.000=1;
#SPEEDS:0.000=1.000=0.000=0;
#SCROLLS:0.000=1.000;
#FAKES:;
#LABELS:0.000=Song Start;
#BGCHANGES:4.000=You're Never Fully Dressed Without A Smile.avi=1.000=1=0=0=StretchNoLoop==CrossFade==,
99999=-nosongbg-=1.000=0=0=0 // don't automatically add -songbackground-
;
#KEYSOUNDS:;
#ATTACKS:
;

//---------------dance-single - ----------------
#NOTEDATA:;
#CHARTNAME:;
#STEPSTYPE:dance-single;
#DESCRIPTION:;
#CHARTSTYLE:;
#DIFFICULTY:Hard;
#METER:8;
#RADARVALUES:0.415858,0.451228,0.113985,0.271811,0.508549,332.000000,319.000000,13.000000,31.000000,0.000000,0.000000,0.000000,0.000000,0.000000,0.415858,0.451228,0.113985,0.271811,0.508549,332.000000,319.000000,13.000000,31.000000,0.000000,0.000000,0.000000,0.000000,0.000000;
#CREDIT:;
#NOTES:
// measure 0
0000
0000
0000
0000
,  // measure 1
1000
1000
0001
0001
,  // measure 2
0100
0100
0010
1000
,  // measure 3
0001
0001
0010
0100
,  // measure 4
2000
0000
0000
0100
0000
0000
0100
0000
3002
0000
0000
0100
0000
0000
1003
0000
,  // measure 5
0001
0000
0010
0001
1000
0000
0010
1000
,  // measure 6
0100
0000
1000
0100
0010
0000
1000
0010
,  // measure 7
0001
0000
1000
0010
0100
0000
1000
0100
,  // measure 8
0002
0000
0000
0100
0000
0000
0103
0000
2000
0000
0000
0100
0000
0000
3001
0000
,  // measure 9
1000
0000
0000
0100
1000
0000
0001
0000
0100
0000
0000
0100
0001
0000
1000
0001
,  // measure 10
1000
0000
0000
1000
0010
0000
1000
0000
0001
0000
0000
0001
0010
0000
0100
1000
,  // measure 11
0100
0000
0000
1000
0001
0000
0100
0000
0010
0000
0000
0010
1000
0000
0001
0100
,  // measure 12
0001
0000
0000
0001
0010
0000
0001
0000
1000
0000
0010
1000
0000
0010
0100
0001
,  // measure 13
0100
0000
0000
0010
1000
0000
0001
0000
0010
0000
0000
0010
0001
0000
1000
0001
,  // measure 14
1000
0000
0000
1000
0010
0000
0100
0000
0001
0000
0000
0001
0010
0000
0100
1000
,  // measure 15
0100
0000
0000
1000
0001
0000
0100
0000
0010
0000
0000
0010
1000
0000
0001
0100
,  // measure 16
0001
0000
0000
0001
0010
0000
0100
0000
1000
0000
0001
1000
0000
0100
1000
0100
,  // measure 17
0010
0000
0001
0001
1000
0000
0001
0001
,  // measure 18
0010
0000
0000
0000
0001
0000
0001
0000
1000
0000
0000
0010
0000
0100
0000
0002
,  // measure 19
0000
0013
0000
0100
1000
0000
0001
0000
0100
0000
0000
0001
1000
0000
0100
0000
,  // measure 20
0020
0000
0000
0001
0000
0000
0001
0000
0230
0000
0000
0010
0000
0000
1300
0000
,  // measure 21
0001
0000
1000
1000
0010
0000
1000
1000
,  // measure 22
0001
0000
0000
0000
1000
0000
1000
0000
0100
0000
0000
0010
0000
0100
0000
2000
,  // measure 23
0000
3010
0000
0100
0001
0000
1000
0000
0100
0000
0000
1000
0001
0000
0100
0000
,  // measure 24
0020
0000
0000
0030
,  // measure 25
1001
0000
0000
1000
0100
0000
1000
0000
1010
0000
0000
0010
0100
0000
0001
0100
,  // measure 26
0001
0000
0000
0001
1000
0000
0001
0000
0011
0000
0000
0010
0100
0000
1000
0100
,  // measure 27
1000
0001
0000
1000
0000
0100
0000
0010
0000
1000
0000
0010
0000
0001
0000
2000
,  // measure 28
0000
0000
0000
3010
1000
0000
0001
0000
1001
0000
1000
0100
0000
1000
0001
0100
,  // measure 29
0010
0000
0000
0010
1000
0000
0001
0000
0101
0000
0000
0100
0010
0000
1000
0010
,  // measure 30
1000
0000
0000
1000
0001
0000
1000
0000
1100
0000
0000
0100
0010
0000
0001
1000
,  // measure 31
0001
0010
0000
0001
0000
0100
0000
1000
0000
0100
0000
0010
0000
1000
0000
0002
,  // measure 32
0000
0000
0000
0013
0001
0000
1000
0000
1001
0000
0001
0100
0000
0001
1000
0100
,  // measure 33
0020
0000
0000
0031
0010
0000
0100
0000
1200
0000
0000
1300
0010
0000
0100
0001
,  // measure 34
0200
0000
0000
0301
0100
0000
0010
0000
2010
0000
0000
3010
0100
0000
0001
1000
,  // measure 35
0001
0010
0000
0001
0000
1000
0000
0010
0000
0001
0000
0010
0000
0100
0000
0002
,  // measure 36
0000
0000
0000
0013
0001
0000
1000
0000
1001
0000
0001
0100
0000
0001
1000
0100
,  // measure 37
0020
0000
0000
0031
0010
0000
0100
0000
1200
0000
0000
1300
0010
0000
0100
0001
,  // measure 38
0200
0000
0000
0301
1000
0000
0001
0000
0012
0000
0000
1003
0001
0000
0100
0001
,  // measure 39
0100
0010
0000
1000
0000
0001
0000
0010
0000
1000
0000
0010
0000
0001
0000
2000
,  // measure 40
0000
0000
0000
3010
1000
0000
0001
0000
1001
0000
1000
0100
0000
1000
0001
1000
,  // measure 41
0020
0000
0000
0200
0030
0000
2300
0000
,  // measure 42
3200
0000
0000
0002
0300
0000
0023
0000
,  // measure 43
0230
0000
0000
0000
,  // measure 44
2300
0000
0000
3002
0000
0200
0303
0000
;

//---------------dance-double - ----------------
#NOTEDATA:;
#CHARTNAME:;
#STEPSTYPE:dance-double;
#DESCRIPTION:;
#CHARTSTYLE:;
#DIFFICULTY:Hard;
#METER:7;
#RADARVALUES:0.378280,0.411990,0.140289,0.149057,0.495397,302.000000,286.000000,16.000000,17.000000,0.000000,0.000000,0.000000,0.000000,0.000000,0.378280,0.411990,0.140289,0.149057,0.495397,302.000000,286.000000,16.000000,17.000000,0.000000,0.000000,0.000000,0.000000,0.000000;
#CREDIT:;
#NOTES:
00000000
00000000
00000000
00000000
,
00010000
00010000
00001000
00001000
,
00100000
00000000
00100000
00000000
00010000
00000000
10000000
00100000
,
00010000
00000000
10000000
00000000
01000000
00000000
00100000
00010000
,
00002000
00000000
00000000
00010000
00000000
00000000
00100000
00000000
00023000
00000000
00000000
00000010
00000000
00000000
00031000
00000000
,
00010000
00010000
00001000
00001000
,
00000100
00000000
00000010
00000000
00001000
00000000
00000001
00000010
,
00001000
00000000
00000001
00000000
00000100
00000000
00000010
00001000
,
00020000
00000000
00000000
00001000
00000000
00000000
00000010
00000000
00032000
00000000
00000000
00100000
00000000
00000000
00013000
00000000
,
00001000
00000000
00000000
00100000
00000000
00000000
00010000
00000000
01000000
00000000
00000000
00100000
00000000
00000000
10000000
00100000
,
01000000
00000000
00000000
10000000
00000000
00000000
01000000
00000000
00010000
00000000
00000000
00100000
00000000
00000000
01000000
10000000
,
01000000
00000000
00000000
00010000
00000000
00000000
00001000
00000000
00000010
00000000
00000000
00001000
00000000
00000000
00100000
00010000
,
00100000
00000000
00000000
00001000
00000000
00000000
00010000
00000000
00000010
00000000
00001000
00000010
00000000
00000010
00010000
00001000
,
00010000
00000000
00000000
00000010
00000000
00000000
00001000
00000000
00000001
00000000
00000000
00000010
00000000
00000000
00000100
00010000
,
00001000
00000000
00000000
00000010
00000000
00000000
00000100
00000000
00001000
00000000
00000000
00000001
00000000
00000000
00000100
00000001
,
00000100
00000000
00000000
00001000
00000000
00000000
00010000
00000000
00100000
00000000
00000000
00010000
00000000
00000000
00000010
00001000
,
00000010
00000000
00000000
00010000
00000000
00000000
00001000
00000000
00100000
00000000
00010000
00100000
00000000
00100000
00001000
00010000
,
00001000
00000000
00010000
00001000
00100000
00000000
00010000
01000000
,
00100000
00000000
00000000
00000000
00010000
00000000
00001000
00000000
00000100
00000000
00000000
00000001
00000000
00001000
00000000
00000010
,
00000000
00001000
00000000
00000001
00000010
00000000
00000100
00000000
00010000
00000000
00000000
00000100
00001000
00000000
00000100
00000000
,
00000020
00000000
00000000
00000001
00000000
00000000
00000130
00000000
00000110
00000000
00000000
00001100
00000000
00000000
00010000
00000000
,
00011000
00000000
00001000
00010000
00000010
00000000
00001000
00000100
,
00000010
00000000
00000000
00000000
00001000
00000000
00010000
00000000
01000000
00000000
00000000
10000000
00000000
00010000
00000000
00100000
,
00000000
00010000
00000000
10000000
00100000
00000000
01000000
00000000
10000000
00000000
00000000
01000000
00010000
00000000
10000000
00000000
,
00002000
00000000
00000000
00003000
,
00011000
00000000
00000000
00000010
00000000
00000000
00001000
00000000
00000100
00000000
00000000
00000010
00000000
00000000
00000001
00000010
,
00000100
00000000
00000000
00000001
00000000
00000000
00000100
00000000
00001000
00000000
00000000
00000010
00000000
00000000
00000100
00000001
,
00000100
00000000
00000000
00001000
00000000
00000000
00010000
00000000
00100000
00000000
00000000
00010000
00000000
00000000
00000010
00001000
,
00000010
00000000
00000000
00010000
00000000
00000000
00001000
00000000
00100000
00000000
00010000
00100000
00000000
00100000
00001000
00010000
,
00001000
00000000
00000000
00100000
00000000
00000000
00010000
00000000
10000000
00000000
00000000
00100000
00000000
00000000
01000000
00001000
,
00010000
00000000
00000000
00001000
00000000
00000000
00100000
00000000
01000000
00000000
00000000
10000000
00000000
00000000
00100000
10000000
,
00100000
00000000
00000000
00010000
00000000
00000000
00001000
00000000
00000010
00000000
00000000
00001000
00000000
00000000
00100000
00010000
,
00100000
00000000
00000000
00001000
00000000
00000000
00010000
00000000
00000010
00000000
00001000
00000010
00000000
00000010
00010000
00001000
,
00010000
00000000
00000000
00010100
00000000
00000000
00011000
00000000
00000000
00000000
00000000
01001000
00000000
00000000
00001000
00010000
,
00001000
00000000
00000000
00011000
00000000
00000000
00010010
00000000
00000000
00000000
00000000
00011000
00000000
00000000
00001000
00100000
,
00001000
00010000
00000000
00000100
00000000
00000010
00000000
00001000
00000000
00000010
00000000
00000100
00000000
00010000
00000000
00002000
,
00100000
00000000
00000000
00010000
00000000
00000000
01000000
00000000
00013000
00000000
00001000
01000000
00000000
01000000
00001000
00010000
,
00001000
00000000
00000000
01001000
00000000
00000000
00011000
00000000
00000000
00000000
00000000
00010100
00000000
00000000
00010000
00001000
,
00010000
00000000
00000000
00011000
00000000
00000000
00101000
00000000
00000000
00000000
00000000
00011000
00000000
00000000
00010000
00000010
,
00010000
00001000
00000000
01000000
00000000
00100000
00000000
00010000
00000000
00100000
00000000
01000000
00000000
00001000
00000000
00020000
,
00000010
00000000
00000000
00001000
00000000
00000000
00000100
00000000
00031000
00000000
00010000
00000100
00000000
00000100
00010000
00001000
,
00200000
00000000
00000000
02000000
00300000
00000000
03020000
00000000
,
02030000
00000000
00000000
20000000
03000000
00000000
30200000
00000000
,
10300000
00010000
00000000
01000000
00000000
00001000
00000000
00010000
00000000
00000100
00000000
00001000
00000000
00000001
00000000
00000000
,
00000020
00000000
00000000
00000230
00000000
00020000
00030300
00000000
;

//---------------dance-single - ----------------
#NOTEDATA:;
#CHARTNAME:;
#STEPSTYPE:dance-single;
#DESCRIPTION:;
#CHARTSTYLE:;
#DIFFICULTY:Medium;
#METER:6;
#RADARVALUES:0.314398,0.313897,0.008768,0.149057,0.271811,251.000000,250.000000,1.000000,17.000000,0.000000,0.000000,0.000000,0.000000,0.000000,0.314398,0.313897,0.008768,0.149057,0.271811,251.000000,250.000000,1.000000,17.000000,0.000000,0.000000,0.000000,0.000000,0.000000;
#CREDIT:;
#NOTES:
0000
0000
0000
0000
,
0001
0001
1000
1000
,
0010
0010
0100
0001
,
1000
1000
0100
0010
,
0002
0000
0000
0010
0003
0000
0001
0000
2000
0000
0000
0010
3000
0000
1000
0000
,
0001
0000
0010
0001
0100
0000
0001
0100
,
0010
0000
1000
0010
0100
0000
1000
0100
,
0001
0000
0010
0000
0100
0000
0001
0100
,
2000
0000
0000
0010
3000
0000
1000
0000
0002
0000
0000
0010
0003
0000
0001
0000
,
1000
0000
0010
0000
0100
0001
0010
0100
,
1000
0000
0001
0000
0100
0010
0100
0001
,
1000
0000
0100
0000
0010
0001
0010
0100
,
1000
0000
0000
0010
0000
0000
0010
0000
0100
0000
0000
0001
0000
1000
0100
1000
,
0001
0000
0010
0000
0100
1000
0100
0010
,
0001
0000
1000
0000
0010
1000
0100
0010
,
0001
0000
0100
0000
0010
1000
0010
0100
,
0001
0000
0000
0010
0000
0000
0010
0000
0100
0000
0000
1000
0000
0001
0100
0001
,
1000
0000
0010
1000
0001
0000
1000
0001
,
0010
0000
0001
0010
0100
0000
0001
0100
,
1000
0000
0010
0000
0100
0000
1000
0100
,
0002
0000
0000
0103
0000
0000
0001
0000
2000
0000
0000
0100
3000
0000
1000
0000
,
0001
0000
0010
0001
1000
0000
0001
1000
,
0010
0000
0100
0010
0100
0000
1000
0100
,
0001
0000
0010
0000
0100
0000
1000
0100
,
0020
0000
0000
0030
,
1001
0000
0000
0001
0000
0000
0100
0000
0000
0000
0000
0001
0000
0000
1000
0001
,
1000
0000
0000
1000
0000
0000
0100
0000
0000
0000
0000
1000
0000
0000
0001
1000
,
0001
0000
0000
0010
0000
0000
0010
0000
0000
0000
0000
0100
0000
0000
1000
0100
,
1000
0000
0000
0010
0000
0000
0010
0000
0100
0000
0000
0001
0000
1000
0100
1000
,
0001
0000
0000
0010
0000
0000
0100
0000
0000
0000
0000
1000
0000
0000
0001
1000
,
0001
0000
0000
0001
0000
0000
0100
0000
0000
0000
0000
0001
0000
0000
1000
0001
,
1000
0000
0000
0010
0000
0000
0010
0000
0000
0000
0000
0100
0000
0000
0001
0100
,
0001
0000
0000
0010
0000
0000
0010
0000
0100
0000
0000
1000
0000
0001
1000
0001
,
0010
0000
0000
0001
0000
0000
1000
0000
0010
0000
0000
1000
0000
0000
0001
0000
,
0010
0000
0000
0100
0000
0000
1000
0000
0001
0000
0000
1000
0000
0000
0100
1000
,
0100
0000
0000
0010
0000
0000
0001
0000
1000
0000
0000
0001
0000
0000
0010
0000
,
0100
0000
0000
1000
0000
0000
0001
0000
0100
0000
0000
0010
0000
1000
0001
1000
,
0010
0000
0000
0100
0000
0000
0001
0000
1000
0000
0000
0001
0000
0000
0100
0000
,
0010
0000
0000
1000
0000
0000
0001
0000
0010
0000
0000
0001
0000
0000
1000
0100
,
1000
0000
0000
0001
0000
0000
0001
0000
0100
0000
0000
0010
0000
0000
0010
0000
,
1000
0000
0000
1000
0000
0000
0100
0000
0010
0000
0000
0010
0000
0001
1000
0001
,
0020
0000
0000
0200
0030
0000
0302
0000
,
0203
0000
0000
2000
0300
0000
3020
0000
,
0230
0000
0000
0000
,
0302
0000
0000
2003
0000
0200
3300
0000
;

//---------------dance-single - ----------------
#NOTEDATA:;
#CHARTNAME:;
#STEPSTYPE:dance-single;
#DESCRIPTION:;
#CHARTSTYLE:;
#DIFFICULTY:Easy;
#METER:4;
#RADARVALUES:0.207929,0.235423,0.043840,0.412100,0.000000,166.000000,161.000000,5.000000,47.000000,0.000000,0.000000,0.000000,0.000000,0.000000,0.207929,0.235423,0.043840,0.412100,0.000000,166.000000,161.000000,5.000000,47.000000,0.000000,0.000000,0.000000,0.000000,0.000000;
#CREDIT:;
#NOTES:
0000
0000
0000
0000
,
1000
0000
0001
1000
,
0100
0000
1000
0001
,
0100
0010
1000
0001
,
0020
0000
0000
0000
0200
0000
0000
0330
,
0001
0000
1000
0001
,
0100
0000
0010
1000
,
0001
0010
0100
1000
,
0002
0000
2000
3003
,
1000
0000
0010
0000
1000
0010
0100
0000
,
0001
0000
0010
0000
0001
0010
0100
0000
,
1000
0000
0001
0000
1000
0001
0100
0000
,
0020
0000
0000
0230
0000
0002
0303
0000
,
0001
0000
1000
0000
0001
0010
0100
0000
,
1000
0000
0001
0000
1000
0010
0100
0000
,
0001
0000
0100
0000
0001
1000
0100
0000
,
0020
0000
0000
0230
0000
2000
3300
0000
,
0001
0000
1000
0001
,
0100
0000
0001
0010
,
1000
0010
0001
1000
,
0020
0000
0000
0000
0200
0000
0000
0330
,
1000
0000
0001
1000
,
0100
0000
1000
0010
,
0001
0010
0100
0001
,
0020
0000
0000
0030
,
1001
0000
1000
0000
0100
1000
0010
0000
,
1000
0000
0001
0000
0010
0001
0100
0000
,
1000
0000
0100
0000
0001
1000
0001
0000
,
0020
0000
0000
0230
0000
2000
3300
0000
,
1001
0000
0001
0000
0100
0001
0010
0000
,
0001
0000
0100
0000
0010
1000
0100
0000
,
0001
0000
0100
0000
1000
0001
0100
0000
,
0020
0000
0000
2030
0000
0002
3003
0000
,
0012
0000
0000
1000
2003
0000
3020
0000
,
0230
0000
0000
0001
0302
0000
2003
0000
,
3001
0000
0010
0000
1000
0100
0001
0000
,
0020
0000
0000
0230
0000
2000
3300
0000
,
2010
0000
0000
0001
3002
0000
0023
0000
,
0230
0000
0000
1000
2300
0000
3002
0000
,
1003
0000
0010
0000
0001
0100
1000
0000
,
0020
0000
0000
0230
0000
0002
0303
0000
,
2001
0000
3200
0320
,
0032
0000
2003
3002
,
0203
0000
0000
0000
,
0320
0000
0000
2030
0000
0002
3003
0000
;

//---------------dance-single - ----------------
#NOTEDATA:;
#CHARTNAME:;
#STEPSTYPE:dance-single;
#DESCRIPTION:;
#CHARTSTYLE:;
#DIFFICULTY:Beginner;
#METER:1;
#RADARVALUES:0.062629,0.071898,0.000000,0.008768,0.000000,50.000000,50.000000,0.000000,1.000000,0.000000,0.000000,0.000000,0.000000,0.000000,0.062629,0.071898,0.000000,0.008768,0.000000,50.000000,50.000000,0.000000,1.000000,0.000000,0.000000,0.000000,0.000000,0.000000;
#CREDIT:;
#NOTES:
0000
0000
0000
0000
,
0001
0000
0000
0000
,
1000
0000
0000
0000
,
0010
0000
0000
0000
,
0100
0000
0100
0000
,
0100
0000
0000
0000
,
1000
0000
0000
0000
,
0001
0000
0000
0000
,
0100
0000
0100
0000
,
0100
0000
0000
0000
,
0010
0000
0000
0000
,
0001
0000
1000
0000
,
0001
0000
0000
0000
,
0100
0000
0000
0000
,
0010
0000
0000
0000
,
1000
0000
0001
0000
,
1000
0000
0000
0000
,
0100
0000
0000
0000
,
0010
0000
0000
0000
,
0001
0000
0000
0000
,
1000
0000
1000
0000
,
1000
0000
0000
0000
,
0010
0000
0000
0000
,
0100
0000
0000
0000
,
0002
0000
0003
0000
,
0001
0000
0000
0000
,
1000
0000
0000
0000
,
0100
0000
0010
0000
,
0100
0000
0000
0000
,
1000
0000
0000
0000
,
0001
0000
0000
0000
,
0100
0000
0010
0000
,
0100
0000
0000
0000
,
0001
0000
0000
0000
,
1000
0000
0000
0000
,
0001
0000
0100
0000
,
0001
0000
0000
0000
,
0010
0000
0000
0000
,
0001
0000
0000
0000
,
1000
0000
0100
0000
,
1000
0000
0000
0000
,
0010
0000
0000
0000
;

//---------------dance-double - ----------------
#NOTEDATA:;
#CHARTNAME:;
#STEPSTYPE:dance-double;
#DESCRIPTION:;
#CHARTSTYLE:;
#DIFFICULTY:Medium;
#METER:5;
#RADARVALUES:0.271811,0.313897,0.140289,0.280579,0.105217,217.000000,201.000000,16.000000,32.000000,0.000000,0.000000,0.000000,0.000000,0.000000,0.271811,0.313897,0.140289,0.280579,0.105217,217.000000,201.000000,16.000000,32.000000,0.000000,0.000000,0.000000,0.000000,0.000000;
#CREDIT:;
#NOTES:
00000000
00000000
00000000
00000000
,
00001000
00001000
00010000
00010000
,
00000100
00001000
00000001
00000100
,
00001000
00000000
00000100
00000010
00010000
00000000
00001000
00000010
,
00000200
00000000
00000000
00000000
00020000
00000000
00000000
00030300
,
00010000
00010000
00001000
00001000
,
01000000
00000000
00010000
00000000
10000000
00000000
01000000
00010000
,
00001000
00000000
00100000
00010000
01000000
00000000
00010000
01000000
,
00002000
00000000
00020000
00033000
,
00011000
00000000
00000100
00000000
00001000
00000010
00000100
00001000
,
00010000
00000000
00001000
00000000
00100000
00010000
00100000
01000000
,
00010000
00000000
00001000
00000000
00010000
01000000
10000000
00010000
,
02000000
00000000
00000000
03200000
00000000
20000000
30300000
00000000
,
10010000
00000000
10000000
00000000
00100000
00010000
00001000
01000000
,
00000100
00000000
00010000
00000000
00000010
00001000
00000010
00000100
,
00001000
00000000
00010000
00000000
00001000
00000100
00000001
00001000
,
00000200
00000000
00000000
00020300
00000000
00002000
00033000
00000000
,
00010000
00000000
00000000
00001000
00000000
00000000
00100000
00000000
00010000
00000000
00000000
00010000
00000000
00000000
01000000
00000000
,
00001000
00000000
00000000
00010000
00000000
00000000
00001000
00000000
00000100
00000000
00000000
00000100
00000000
00000000
00000010
00000000
,
00001000
00000000
00000001
00000000
00000010
00000000
00001000
00010000
,
00200000
10000000
01000000
00310000
,
00001000
00000000
00000000
00010000
00000000
00000000
00000010
00000000
00001000
00000000
00000000
00001000
00000000
00000000
00000100
00000000
,
00010000
00000000
00000000
00001000
00000000
00000000
00010000
00000000
01000000
00000000
00000000
01000000
00000000
00000000
00100000
00000000
,
00010000
00000000
10000000
00000000
00100000
00000000
01000000
00001000
,
00020000
00000000
00000000
00030000
,
00010100
00000000
00000000
00010000
00000000
00000000
00001000
00000000
00000000
00000000
00000000
00001000
00000000
00000000
01000000
00000000
,
01010000
00000000
00000000
00001000
00000000
00000000
00010000
00000000
00000000
00000000
00000000
00001000
00000000
00000000
00100000
00000000
,
00010000
00000000
10000000
01000000
00010000
00000000
00001000
00000100
,
00000020
00000000
00000000
00002030
00000000
00000002
00003003
00000000
,
00001001
00000000
00000000
00001000
00000000
00000000
00000100
00000000
00000000
00000000
00000000
00010000
00000000
00000000
00000100
00000000
,
00001100
00000000
00000000
00010000
00000000
00000000
00001000
00000000
00000000
00000000
00000000
00010000
00000000
00000000
00000010
00000000
,
00001000
00000000
00000001
00000100
00001000
00010000
00001000
00100000
,
00020000
00000000
00000000
20030000
00000000
02000000
33000000
00000000
,
10010000
00000000
00000000
00010000
00000000
00000000
01010000
00000000
00000000
00000000
00000000
01000000
00000000
00000000
01001000
00000000
,
00001000
00000000
00000000
00010000
00000000
00000000
00010100
00000000
00000000
00000000
00000000
00000100
00000000
00000000
00001100
00000000
,
00001000
00000000
00000001
00000100
00001000
00010000
00001000
00000100
,
00000020
00000000
00000000
00000230
00000000
00000002
00000303
00000000
,
00001001
00000000
00000000
00001000
00000000
00000000
00001100
00000000
00000000
00000000
00000000
00000100
00000000
00000000
00010100
00000000
,
00010000
00000000
00000000
00001000
00000000
00000000
01001000
00000000
00000000
00000000
00000000
01000000
00000000
00000000
01010000
00000000
,
00010000
00000000
10000000
01000000
00010000
00001000
00000100
00001000
,
00020000
00000000
00000000
00032000
00000000
00200000
00303000
00000000
,
00000020
00000000
00000000
00020000
00000000
00000000
00030030
00000000
,
00200000
00000000
00000000
00002000
00000000
00000000
00303000
00000000
,
00000200
00000000
00000000
00000000
,
02000300
00000000
00000000
03002000
00000000
00020000
00033000
00000000
;

//---------------dance-double - ----------------
#NOTEDATA:;
#CHARTNAME:;
#STEPSTYPE:dance-double;
#DESCRIPTION:;
#CHARTSTYLE:;
#DIFFICULTY:Easy;
#METER:3;
#RADARVALUES:0.146552,0.150811,0.026304,0.070145,0.000000,117.000000,114.000000,3.000000,8.000000,0.000000,0.000000,0.000000,0.000000,0.000000,0.146552,0.150811,0.026304,0.070145,0.000000,117.000000,114.000000,3.000000,8.000000,0.000000,0.000000,0.000000,0.000000,0.000000;
#CREDIT:;
#NOTES:
00000000
00000000
00000000
00000000
,
00010000
00000000
00001000
00010000
,
00000010
00000000
00010000
00001000
,
00100000
00010000
01000000
00001000
,
00020000
00000000
00030000
00000000
,
00001000
00000000
00010000
00001000
,
00100000
00000000
00001000
00010000
,
00000010
00001000
00000001
00000010
,
00000200
00000000
00020300
00000000
,
00031000
00000000
00010000
00001000
,
00100000
00000000
00010000
10000000
,
00100000
00000000
01000000
00010000
,
00100000
00000000
00001000
00000000
,
00010000
00000000
00001000
00010000
,
00000010
00000000
00001000
00000001
,
00000010
00000000
00000100
00001000
,
00000100
00000000
00010000
00000000
,
00001000
00000000
00100000
00001000
,
00100000
00000000
00001000
00010000
,
00000010
00001000
00000001
00000100
,
00002000
00000000
00003000
00000000
,
00010000
00000000
00001000
00010000
,
00000010
00000000
00010000
00001000
,
00100000
00010000
10000000
01000000
,
00010000
00000000
00000000
00000000
,
00011000
00000000
00001000
00010000
,
00000010
00001000
00000001
00000000
,
00000010
00000100
00001000
00010000
,
00100000
00000000
00001000
00010000
,
00000010
00000000
00010000
00001000
,
00100000
00010000
10000000
00000000
,
00100000
01000000
00010000
00001000
,
00000010
00000000
00001000
00000100
,
00010000
00000000
00001000
00100000
,
00000010
00000000
00010000
00001000
,
01000000
00000000
00000100
00010000
,
00002000
00000000
00003000
00000000
,
00011000
00000000
00010000
00000010
,
00100000
00000000
00001000
00010000
,
00000100
00000000
01000000
00001000
,
00020000
00000000
00030000
00000000
,
00022000
00000000
00000000
00000000
,
00000000
00000000
00000000
00000000
,
00033000
00000000
00000000
00000000
;
