#TITLE:You're Gonna Go Far, Kid;
#SUBTITLE:;
#ARTIST:The Offspring;
#TITLETRANSLIT:;
#SUBTITLETRANSLIT:;
#ARTISTTRANSLIT:;
#GENRE:;
#CREDIT:;
#BANNER:You're Gonna Go Far, Kid.png;
#BACKGROUND:You're Gonna Go Far, Kid-bg.png;
#LYRICSPATH:;
#CDTITLE:;
#MUSIC:You're Gonna Go Far Kid.ogg;
#OFFSET:-0.207429;
#SAMPLESTART:86.592537;
#SAMPLELENGTH:15.580022;
#SELECTABLE:YES;
#DISPLAYBPM:126.000000:252.000000;
#BPMS:0.000000=125.999992
,35.000000=252.800018
,67.000000=126.400009
,97.000000=252.399994
,233.000000=125.999992
,263.000000=252.800018
,391.000000=126.400009
;
#STOPS:95.000000=0.237000,
95.500000=0.237000,
96.000000=0.475000,
261.000000=0.238000,
261.500000=0.238000,
262.000000=0.476000
;
#BGCHANGES:;
#KEYSOUNDS:;
#ATTACKS:;

//---------------dance-single - ----------------
#NOTES:
     dance-single:
     :
     Beginner:
     2:
     0.114043,0.282256,0.114043,0.000000,0.000000,98.000000,84.000000,14.000000,0.000000,0.000000,0.000000,0.114043,0.282256,0.114043,0.000000,0.000000,98.000000,84.000000,14.000000,0.000000,0.000000,0.000000:
0000
0000
0000
0000
,
0000
0000
0000
0000
,
0000
0000
0000
0000
,
0000
0000
0000
0000
,
0000
0000
0000
1000
,
0000
0000
0000
0001
,
0000
0000
0000
0010
,
0000
0000
0000
0100
,
0000
0000
0000
1000
,
0000
0000
0000
0001
,
0000
0000
0000
1000
,
0000
0000
0000
0000
,
0000
0000
0000
0010
,
0000
0000
0000
0000
,
0000
0000
0000
1001
,
0000
0000
0100
0000
,
0000
0000
0000
0100
,
0000
0000
0000
0001
,
0000
0000
0000
1000
,
0000
0000
0000
0010
,
0000
0000
0000
0100
,
0000
0100
0000
0001
,
0000
1000
0000
0010
,
0000
0000
1000
0000
,
0000
0010
0000
0000
,
0000
1000
0000
0000
,
0000
0100
0000
0000
,
0000
0000
0000
0000
,
0000
1001
0000
0000
,
0000
0000
0000
0000
,
0000
1001
0000
0000
,
0000
0000
0000
0000
,
0010
0000
0000
0000
,
0000
0100
0000
0000
,
0000
1000
0000
0000
,
0000
0010
0000
0000
,
0000
0100
0000
0000
,
0000
0000
0000
0000
,
0000
0110
0000
0000
,
0000
1000
0000
0000
,
0000
0001
0000
0000
,
0000
0000
0000
0000
,
0000
0010
0000
0000
,
0000
0000
0000
0000
,
0000
1000
0000
0000
,
0000
0000
0000
0000
,
0000
0001
0000
0000
,
0000
0000
0000
0000
,
0000
1000
0000
0000
,
0000
0000
0000
0000
,
0000
0100
0000
0000
,
0000
0000
0000
0000
,
0000
0010
0000
0000
,
0010
0000
0000
0000
,
0000
1000
0000
0000
,
0000
1000
0000
0000
,
0000
0001
0000
0000
,
0000
1000
0000
0000
,
0000
1001
0000
1000
,
0000
0001
0000
0000
,
0000
0010
0000
0000
,
0000
0100
0000
0000
,
0000
1001
0000
1001
,
0000
0010
0000
0010
,
0000
1000
0000
1000
,
0000
0000
0000
0100
,
0000
0000
0000
0010
,
0000
0000
0000
1000
,
0000
0000
0000
0000
,
0000
0000
0000
1001
,
0000
0000
0000
0000
,
0000
0000
0000
1001
,
0000
0000
0000
0000
,
0000
0000
0000
0010
,
0000
0000
0010
0000
,
0000
0000
0000
1000
,
0000
0000
1000
0000
,
0000
0000
0000
0001
,
0000
0000
0000
0001
,
0000
0000
0000
0110
,
0000
0000
0110
0000
,
0000
0000
0010
0000
,
0000
0000
0000
0010
,
0000
0000
1000
0000
,
0000
0000
1000
0000
,
0000
0000
0000
0001
,
0000
0000
0000
0001
,
0000
0000
0100
0000
,
0000
0000
0100
0000
,
0000
0000
0010
0000
,
0000
0000
0010
0000
,
0000
0000
0100
0000
,
0000
0000
0000
0000
,
0000
0000
1001
0000
,
0000
0000
0000
0000
,
0000
0000
1001
0000
,
0000
0000
0100
0000
,
0000
0000
0000
0010
,
0000
0000
0000
0000
,
1001
0000
0000
0000
;

//---------------dance-single - ----------------
#NOTES:
     dance-single:
     :
     Hard:
     9:
     0.564395,0.805427,0.586505,0.236231,0.032584,485.000000,413.000000,72.000000,29.000000,0.000000,0.000000,0.564395,0.805427,0.586505,0.236231,0.032584,485.000000,413.000000,72.000000,29.000000,0.000000,0.000000:
0000
0000
0000
0000
,
0000
0000
0000
0000
,
0000
0000
0000
0000
,
0000
0000
0000
0000
,
0000
0000
0000
0000
0000
0000
0010
0010
,
0100
0000
0001
0000
0001
0000
0100
0100
,
0010
0000
1000
0000
1000
0000
0010
0010
,
0100
0100
0001
0000
0010
0000
0100
1000
,
0010
0100
0001
0000
1001
0000
1000
0000
,
0100
0001
0100
1000
,
2000
0000
3001
0100
,
0100
0010
0010
1000
,
1000
0100
0001
1000
,
0010
0001
0100
0010
,
1000
0010
1000
0100
,
0000
0010
0001
0010
0001
0000
1000
0100
,
1000
0000
0100
0000
0010
0000
0001
0000
0010
0000
0001
0000
1000
0001
1000
0001
,
1000
0100
0002
0000
0203
0000
2300
0000
,
3010
0000
0000
0000
0100
0000
0000
0000
1001
0000
0000
0000
0001
1000
0001
1000
,
0001
0100
2000
0000
3200
0000
0302
0000
,
0013
0000
0000
0000
0100
0000
0000
0000
1001
0000
0000
0000
0010
0100
0010
0100
,
0010
1000
0002
0000
0203
0000
0320
0000
,
1030
0000
0001
0000
0100
0000
0010
0000
1000
0000
0000
0000
0100
0010
0100
0010
,
0100
0000
0000
0000
0000
0000
0000
0000
1000
0000
0000
0000
0000
0000
0000
0000
0001
0000
0000
0000
0000
0000
0000
0000
0000
0000
0000
0000
0000
0000
0000
0000
0101
0000
0000
0000
0000
0000
0000
0000
0000
0000
0000
0000
0000
0000
0000
0000
2020
3030
0000
0000
0000
0000
0000
0000
0220
0330
0000
0000
0000
0000
0000
0000
,
2002
3003
0000
0000
0000
0000
0000
0000
0000
0000
0000
0000
0000
0000
0000
0000
0011
0000
0000
0000
0000
0000
0000
0000
0000
0000
0000
0000
0000
0000
0000
0000
0010
0000
0000
0000
0000
0000
0000
0000
0000
0000
0000
0000
0000
0000
0000
0000
0001
0000
0000
0000
0000
0000
0000
0000
0000
0000
0000
0000
0000
0000
0000
0000
,
0100
0110
0010
1000
,
0100
1100
1000
0100
,
0001
0100
1000
1001
,
0000
0011
0001
0100
,
0010
1010
0000
1001
,
0000
1010
1000
0100
,
0010
0000
0001
1000
0001
0000
0100
0010
,
0100
1010
0010
1000
,
0100
0110
0010
0001
,
0100
0101
0001
0100
,
1000
0100
0001
1001
,
0000
1010
1000
0100
,
0010
0011
0000
1001
,
0000
0010
0100
0000
,
0000
0000
1000
0010
1000
0000
0001
0010
,
0001
0000
1001
0000
1000
0100
1000
0100
,
1000
0100
0000
0000
0010
0001
0010
0001
,
0010
0001
0000
0000
1001
0000
0000
0000
,
1100
1000
0010
0100
,
0001
0000
0011
0001
,
0100
0010
1000
0200
,
0000
0310
0001
0100
,
1000
0100
0001
0020
,
0000
0000
0130
1000
0100
0000
0010
0001
,
0010
0000
0001
0100
0010
0000
1000
0100
,
0010
0001
1000
0000
1001
0000
0000
0000
,
1100
0000
0010
0001
,
0100
0020
0000
1000
,
0230
0000
0001
0320
,
0000
1000
1000
1000
,
2030
0001
0001
0001
,
3002
0100
0100
0100
,
0103
0010
1000
0100
0010
0001
0100
0000
,
0000
0000
1001
0000
0001
0100
0110
0000
,
0000
1000
0001
0100
1000
0100
0001
0000
,
0000
0001
1000
0100
0001
0100
1000
0000
,
0010
0010
1000
0001
0010
0001
0100
0000
,
0110
0000
1001
0000
1000
0100
0110
0000
,
0000
0001
1000
0100
0001
0100
1000
0000
,
0010
1000
0001
0100
1000
0100
0001
0000
,
0110
0000
0000
0000
0000
0000
0000
0000
0000
0000
0000
0000
0000
0000
0000
0000
0022
0033
0000
0000
0000
0000
0000
0000
0220
0330
0000
0000
0000
0000
0000
0000
2002
3003
0000
0000
0000
0000
0000
0000
0000
0000
0000
0000
0000
0000
0000
0000
1010
0000
0000
0000
0000
0000
0000
0000
0000
0000
0000
0000
0000
0000
0000
0000
,
0010
1000
0100
0110
,
0010
0001
0100
0101
,
0001
0100
1000
0100
,
0001
1001
0000
1010
,
1000
0100
0010
0011
,
0000
1001
0000
0011
,
0001
0000
0100
0000
0010
0000
1000
0001
,
1000
0000
0100
0010
0100
0000
0011
0000
,
0010
0001
0100
0110
,
0010
1000
0100
1100
,
1000
0100
0001
0100
,
1000
1001
0000
0011
,
0001
0100
0010
1010
,
0000
1001
0000
0010
,
0100
0000
0000
0000
0001
0000
1000
0010
,
1000
0010
0100
0001
0100
0001
0010
0000
,
0011
0000
1001
0000
,
1100
0000
0110
0000
,
0011
0000
1001
0000
,
1100
0010
0001
0100
,
1000
0100
0001
0110
,
0000
0100
1000
0010
,
0001
0000
0010
0000
1000
0000
0100
1000
,
0001
1000
0100
0010
0001
0100
0010
0000
,
1010
0000
1001
0000
,
0101
0000
0110
0000
,
1010
0000
1001
0000
,
0101
0010
1000
0100
,
0001
0100
1000
0110
,
0000
0100
0001
0010
,
0110
0000
0000
0000
1000
0000
0001
0100
,
0001
0000
1000
0100
1000
0000
1001
0000
,
0001
0100
0001
0100
0010
1000
1001
1001
;

//---------------dance-single - ----------------
#NOTES:
     dance-single:
     :
     Medium:
     7:
     0.315363,0.483256,0.203648,0.439879,0.000000,271.000000,246.000000,25.000000,54.000000,0.000000,0.000000,0.315363,0.483256,0.203648,0.439879,0.000000,271.000000,246.000000,25.000000,54.000000,0.000000,0.000000:
0000
0000
0000
0000
,
0000
0000
0000
0000
,
0000
0000
0000
0000
,
0000
0000
0000
0000
,
0000
0000
0000
0000
0000
0000
1000
1000
,
0000
0000
1000
0000
0100
0000
0001
0001
,
0010
0000
1000
0000
0000
0000
0100
0100
,
0001
0000
0010
0000
0010
0000
1000
1000
,
0100
0001
1001
0010
,
0100
0001
0000
1000
,
0010
0100
0001
0000
,
0000
0010
0100
1000
,
0000
0001
0010
0100
,
0000
1000
0010
0100
,
1000
0010
1000
0200
,
0000
0010
0000
0010
,
0000
0010
0000
2300
,
0000
3020
0230
0302
,
0003
0010
0000
0002
,
0000
0203
0320
2030
,
3010
1000
0000
0020
,
0000
2030
3200
0320
,
1030
1000
0000
2000
,
0000
0000
0002
0000
3003
0000
0100
0100
,
0100
0002
0000
2003
,
0000
3020
0000
0000
,
1030
0010
1000
0100
,
0000
0100
0000
0110
,
0000
0001
0100
1000
,
0000
1001
0000
1000
,
0100
0001
0000
1000
,
0010
0001
0000
0010
,
0000
2000
0000
3020
,
0000
0230
0000
0301
,
0100
0020
0000
1000
,
0000
1030
0001
1001
,
0000
1000
0100
1000
,
0000
0001
0001
0001
,
0000
1000
0100
0000
,
0000
1100
0000
0101
,
0000
2002
0000
0000
,
0003
0020
3000
0000
,
0000
0200
0000
0000
,
0330
1000
0100
0010
,
0001
0000
0001
0100
,
0010
1000
0100
0200
,
0000
0300
0101
0000
,
0000
1100
0000
1001
,
0000
2200
0000
0000
,
3300
0202
0000
0000
,
0000
0303
2002
3003
,
1000
0010
1000
0000
,
0000
0001
0100
0001
,
0000
0100
0001
0010
,
0000
0000
2000
0000
,
0000
0000
3000
0000
,
0000
0002
0000
0000
,
0000
0200
0000
0000
,
0303
0000
0010
0000
1000
0100
0100
0000
,
0000
0010
0001
0100
,
0000
1000
0100
0010
,
0000
0000
1000
0000
0010
0001
0001
0000
,
0000
0000
0001
0000
0010
1000
1000
0000
,
0001
1000
0010
0100
,
0000
0001
0010
0100
,
1001
0000
0010
0010
0010
0000
2000
0000
,
0000
3002
0000
0203
,
0000
0301
0100
0001
,
0000
0010
0000
1000
,
0000
0000
0001
0010
,
1000
0000
0001
1001
,
0000
1000
0100
0001
,
0000
0100
0010
1000
,
0000
0100
0010
0200
,
0000
0320
0000
2030
,
0000
3100
0010
0002
,
0000
0100
0000
0103
,
0000
1001
0000
0001
,
1000
0100
0000
1000
,
0010
0001
0000
0010
,
0100
0000
0101
0000
,
1100
0000
1001
0002
,
0000
0203
0000
0320
,
0000
0230
0000
2300
,
0000
3000
0100
0010
,
0000
1001
0000
1000
,
0010
0100
0000
0001
,
0100
0010
0000
0001
,
0010
0001
0100
0110
,
0000
0100
0001
0020
,
0000
2030
0000
3200
,
0000
0300
0001
0100
,
0020
0100
0000
0130
,
0000
0000
1000
0100
,
0001
0000
0000
1000
,
0010
0001
0000
1000
,
1001
0000
0000
0101
,
0000
1100
0000
2002
,
0000
0000
0000
0000
0000
0003
0100
3100
;

//---------------dance-single - ----------------
#NOTES:
     dance-single:
     :
     Easy:
     3:
     0.210630,0.322578,0.285107,0.105897,0.000000,181.000000,146.000000,35.000000,13.000000,0.000000,0.000000,0.210630,0.322578,0.285107,0.105897,0.000000,181.000000,146.000000,35.000000,13.000000,0.000000,0.000000:
// measure 0
0000
0000
0000
0000
,  // measure 1
0000
0000
0000
0000
,  // measure 2
0000
0000
0000
0000
,  // measure 3
0000
0000
0000
0000
,  // measure 4
0000
0000
0000
0100
,  // measure 5
0100
0000
0000
0010
,  // measure 6
0010
0000
0000
0001
,  // measure 7
0000
0001
0000
1000
,  // measure 8
0000
1000
0000
1001
,  // measure 9
0000
0100
0000
1001
,  // measure 10
0000
0000
0000
1000
,  // measure 11
0000
0001
0000
1000
,  // measure 12
0000
0000
0000
0100
,  // measure 13
0000
0010
0000
1000
,  // measure 14
0000
0000
0000
2002
,  // measure 15
0000
0000
0000
0000
,  // measure 16
0000
3003
0000
0100
,  // measure 17
0000
0010
1000
0200
,  // measure 18
0000
0300
0000
0001
,  // measure 19
0000
0010
0100
0002
,  // measure 20
0000
0003
0000
0010
,  // measure 21
0000
1000
0010
0200
,  // measure 22
0000
0300
0000
0020
,  // measure 23
0000
0200
0330
0000
,  // measure 24
0000
0010
0000
0100
,  // measure 25
0000
0001
0000
0000
,  // measure 26
0000
0100
0000
0100
,  // measure 27
0000
0000
0000
0000
,  // measure 28
0000
0110
0000
0100
,  // measure 29
0000
0110
0000
0000
,  // measure 30
0000
1001
0000
0010
,  // measure 31
0000
1001
0000
0000
,  // measure 32
0000
0010
0000
1000
,  // measure 33
0000
0010
0000
0000
,  // measure 34
0000
0100
0000
0100
,  // measure 35
0000
0010
0000
0000
,  // measure 36
0000
0011
0000
0010
,  // measure 37
0000
0011
0000
0000
,  // measure 38
0000
0110
0000
0000
,  // measure 39
0000
0100
0000
0100
,  // measure 40
0000
2002
0000
0000
,  // measure 41
0000
0000
0000
0000
,  // measure 42
3003
0000
0010
0000
,  // measure 43
1000
0000
0010
0000
,  // measure 44
0000
1000
0000
0100
,  // measure 45
0000
0010
0000
0000
,  // measure 46
0000
0001
0000
0010
,  // measure 47
0000
0000
0100
0000
,  // measure 48
0000
1000
0000
0000
,  // measure 49
0000
0001
0000
0000
,  // measure 50
0000
0100
0000
0010
,  // measure 51
0000
1000
0000
0000
,  // measure 52
0000
0010
0000
0000
,  // measure 53
0000
0010
0000
0000
,  // measure 54
0000
1001
0000
0000
,  // measure 55
0000
0010
0000
0000
,  // measure 56
0000
1001
0000
0000
,  // measure 57
0000
2002
0000
0000
,  // measure 58
3003
1000
1000
0100
,  // measure 59
0000
0001
1000
0001
,  // measure 60
0000
0010
0010
0100
,  // measure 61
0000
0001
0010
1000
,  // measure 62
0000
1001
0000
1001
,  // measure 63
0000
0010
0100
0001
,  // measure 64
0000
0010
0100
1000
,  // measure 65
0000
0000
0000
0100
,  // measure 66
0000
0010
0000
1000
,  // measure 67
0000
0000
0000
1000
,  // measure 68
0000
0010
0000
0000
,  // measure 69
0010
0000
0000
1100
,  // measure 70
0000
0100
0000
1100
,  // measure 71
0000
0000
0000
0101
,  // measure 72
0000
0100
0000
0101
,  // measure 73
0000
0000
0000
0100
,  // measure 74
0000
0001
0000
0010
,  // measure 75
0000
0000
0000
1000
,  // measure 76
0000
0100
0000
0100
,  // measure 77
0000
0000
0000
1001
,  // measure 78
0000
1000
0000
1001
,  // measure 79
0000
0000
0000
0110
,  // measure 80
0000
0000
0000
0010
,  // measure 81
0000
1000
0000
1000
,  // measure 82
0000
0010
0000
1000
,  // measure 83
0000
0000
0100
0000
,  // measure 84
0001
0000
0100
0000
,  // measure 85
0000
0000
0000
1001
,  // measure 86
0000
1001
0000
1001
,  // measure 87
0000
0000
0000
1100
,  // measure 88
0000
1100
0000
1100
,  // measure 89
0000
0000
0000
0010
,  // measure 90
0000
0100
0000
0001
,  // measure 91
0000
1000
0000
0010
,  // measure 92
0000
1000
0000
1000
,  // measure 93
0000
0000
0000
0011
,  // measure 94
0000
0011
0000
0011
,  // measure 95
0000
0000
0000
0100
,  // measure 96
0000
0000
0000
1100
,  // measure 97
0000
0101
0000
2002
,  // measure 98
0000
0000
0000
0000
,  // measure 99
3003
0000
0000
0000
;

//---------------dance-double - ----------------
#NOTES:
     dance-double:
     :
     Hard:
     9:
     0.551594,0.805427,0.415441,0.219940,0.032584,474.000000,423.000000,51.000000,27.000000,0.000000,0.000000,0.551594,0.805427,0.415441,0.219940,0.032584,474.000000,423.000000,51.000000,27.000000,0.000000,0.000000:
00000000
00000000
00000000
00000000
,
00000000
00000000
00000000
00000000
,
00000000
00000000
00000000
00000000
,
00000000
00000000
00000000
00000000
,
00000000
00000000
00000000
00000000
00000000
00000000
00100000
00100000
,
00010000
00000000
00001000
00000000
00000010
00000000
00000010
00000010
,
00001000
00000000
00010000
00000000
00100000
00000000
10000000
01000000
,
00010000
00001000
00000100
00000000
00000000
00000001
00000010
00001000
,
00010000
01000000
10000000
00000000
00000000
00010000
10000000
00000000
,
01000000
00010000
00001000
00000100
,
00000002
00000000
00001003
00000001
,
00000100
00001000
00010000
00100000
,
10000000
00010000
10000000
00100000
,
00010000
00001000
00100000
00010000
,
00001000
00000100
00000001
00000100
,
00001000
00000010
00001000
00000010
00010000
00000000
00001000
01000000
,
00001000
00000000
01000000
00000000
00010000
00000000
01000000
00000000
00010000
00000000
00000000
00000000
10000000
00010000
10000000
00010000
,
10000000
01000000
00020000
00000000
00032000
00000000
00003200
00000000
,
00000301
00000000
00000000
00000000
00000010
00000000
00000000
00000000
00001001
00000000
00000000
00000000
00000001
00001000
00000001
00001000
,
00000001
00000100
00002000
00000000
00023000
00000000
02030000
00000000
,
13000000
00000000
00000000
00000000
00100000
00000000
00000000
00000000
10010000
00000000
00000000
00000000
10000000
00010000
10000000
00010000
,
10000000
00100000
00020000
00000000
00032000
00000000
00003020
00000000
,
00000031
00000000
00000000
00000000
00000100
00000000
00000000
00000000
00001001
00000000
00000000
00000000
00000001
00001000
00000001
00001000
,
00000001
00000000
00000000
00000000
00000000
00000000
00000000
00000000
00000010
00000000
00000000
00000000
00000000
00000000
00000000
00000000
00001000
00000000
00000000
00000000
00000000
00000000
00000000
00000000
00000000
00000000
00000000
00000000
00000000
00000000
00000000
00000000
00011000
00000000
00000000
00000000
00000000
00000000
00000000
00000000
00000000
00000000
00000000
00000000
00000000
00000000
00000000
00000000
00220000
00330000
00000000
00000000
00000000
00000000
00000000
00000000
20200000
30300000
00000000
00000000
00000000
00000000
00000000
00000000
,
20020000
30030000
00000000
00000000
00000000
00000000
00000000
00000000
00000000
00000000
00000000
00000000
00000000
00000000
00000000
00000000
10100000
00000000
00000000
00000000
00000000
00000000
00000000
00000000
00000000
00000000
00000000
00000000
00000000
00000000
00000000
00000000
00100000
00000000
00000000
00000000
00000000
00000000
00000000
00000000
00000000
00000000
00000000
00000000
00000000
00000000
00000000
00000000
10000000
00000000
00000000
00000000
00000000
00000000
00000000
00000000
00000000
00000000
00000000
00000000
00000000
00000000
00000000
00000000
,
01000000
00010000
00001000
00000010
,
00000001
00000100
00010000
00000100
,
00000010
00001000
00010000
01000000
,
00100000
10000000
01000000
00001000
,
00000100
00000010
00000000
00001001
,
00001000
00000001
00000100
00010000
,
01000000
00000000
00100000
10000000
00100000
00000000
01000000
00010000
,
01000000
10100000
10000000
01000000
,
00010000
00011000
00001000
00100000
,
00010000
00011000
00001000
00000010
,
00000100
00000101
00000010
00000001
,
00001000
00000001
00000100
00001000
,
01000000
00100000
00000000
10010000
,
00010000
10000000
01000000
00001000
,
00000100
00000000
00000010
00000001
00000010
00000000
00000100
00001000
,
00000100
00000000
00010000
00000000
00001000
00100000
00001000
00100000
,
00001000
00010000
00000000
00000000
01000000
10000000
01000000
10000000
,
01000000
10000000
00000000
00000000
10010000
00000000
00000000
00000000
,
10000000
01000000
00001000
00000100
,
00001000
00000000
00000001
00000100
,
00000001
00000010
00001000
00010000
,
00000000
00110000
00100000
10000000
,
01000000
00010000
00001000
00000010
,
00000001
00000000
00000100
00000010
00000100
00000000
00000001
00001000
,
00000001
00000000
00000100
00001000
00000100
00000000
00001000
00010000
,
00001000
00000000
00010000
00100000
00010000
00000000
00100000
00000000
,
10000000
01000000
00010000
00001000
,
00100000
00020000
00000000
10000000
,
02030000
00000000
00010000
03002000
,
00000000
00000010
00000010
00000010
,
00003020
00000001
00000001
00000001
,
00000032
00000100
00000100
00000103
,
00000100
00000010
00001000
00000100
00010000
00001000
00100000
00000000
,
00000000
00000000
10010000
00000000
00010000
01000000
01100000
00000000
,
00000000
10000000
00010000
01000000
10000000
01000000
00010000
00000000
,
00000000
00001000
00000100
00000010
00000001
00000100
00000010
00000000
,
00001000
00010000
01000000
00100000
10000000
01000000
00010000
00000000
,
00011000
00000000
00001001
00000000
00001000
00000100
00000110
00000000
,
00000000
00000001
00001000
00000100
00000001
00000100
00001000
00000000
,
00000000
00010000
01000000
00100000
10000000
01000000
00100000
00000000
,
00011000
00000000
00000000
00000000
00000000
00000000
00000000
00000000
00000000
00000000
00000000
00000000
00000000
00000000
00000000
00000000
00000000
00000000
00000000
00000000
00000000
00000000
00000000
00000000
00000000
00000000
00000000
00000000
00000000
00000000
00000000
00000000
00000000
00000000
00000000
00000000
00000000
00000000
00000000
00000000
00000000
00000000
00000000
00000000
00000000
00000000
00000000
00000000
00002020
00000000
00000000
00003030
00000000
00000000
00000000
00000000
00000000
00000000
00000000
00000000
00000000
00000000
00000000
00000000
00000000
00000000
00000000
00000000
00000000
00000000
00000000
00000000
00000022
00000033
00000000
00000000
00000000
00000000
00000000
00000000
00000000
00000000
00000000
00000000
00000000
00000000
00000000
00000000
00000000
00000000
00000000
00000000
00000000
00000000
00000000
00000000
00002002
00000000
00000000
00003003
00000000
00000000
00000000
00000000
00000000
00000000
00000000
00000000
00000000
00000000
00000000
00000000
00000000
00000000
00000000
00000000
00000000
00000000
00000000
00000000
00000000
00000000
00000000
00000000
00000000
00000000
00000000
00000000
00000000
00000000
00000000
00000000
00000000
00000000
00000000
00000000
00000000
00000000
00000000
00000000
00000000
00000000
00000000
00000000
00000011
00000000
00000000
00000000
00000000
00000000
00000000
00000000
00000000
00000000
00000000
00000000
00000000
00000000
00000000
00000000
00000000
00000000
00000000
00000000
00000000
00000000
00000000
00000000
00000000
00000000
00000000
00000000
00000000
00000000
00000000
00000000
00000000
00000000
00000000
00000000
00000000
00000000
00000000
00000000
00000000
00000000
00000000
00000000
00000000
00000000
00000000
00000000
,
00000010
00000001
00000100
00001000
,
00010000
00100000
10000000
01000000
,
00001000
01000000
00100000
00010000
,
00001000
00000100
00000010
00000001
,
00000100
00010000
01000000
00100000
,
00000000
10010000
00010000
10000000
,
01000000
00000000
00001000
00000000
00000100
00000000
00000010
00000001
,
00000010
00000000
00000100
00001000
00000100
00000000
00000011
00000000
,
00000001
00000100
00001000
00011000
,
00010000
00000010
00001000
00011000
,
00010000
00100000
01000000
11000000
,
00100000
10000000
00010000
10000000
,
01000000
00001000
00000100
00000010
,
00000000
00001001
00001000
00000001
,
00000100
00000000
00010000
00000000
01000000
00000000
00100000
10000000
,
00100000
10000000
00010000
00100000
00010000
00100000
00001000
00000000
,
00011000
00000000
00001010
00000000
,
00000011
00000000
00000101
00000000
,
00001100
00000000
00011000
00000000
,
01010000
00100000
10000000
00010000
,
00001000
00000010
00000001
00000010
,
00000000
00001100
00000010
00000001
,
00001000
00000000
00010000
00000000
00100000
00000000
00010000
01000000
,
00010000
01000000
00100000
00000000
10000000
00000000
01000000
00000000
,
00011000
00000000
00110000
00000000
,
10100000
00000000
11000000
00000000
,
01010000
00000000
00011000
00000000
,
00001100
00000010
00000001
00001000
,
00010000
00100000
10000000
00100000
,
00000000
01010000
00100000
10000000
,
00010000
00000000
00001000
00000000
00000010
00000000
00001000
00000100
,
00001000
00000000
00000001
00000100
00000001
00000000
00001001
00000000
,
00001000
00000010
00000100
00001000
00010000
01000000
01100000
01100000
;

//---------------dance-double - ----------------
#NOTES:
     dance-double:
     :
     Medium:
     7:
     0.352601,0.442985,0.138480,0.203648,0.000000,303.000000,286.000000,17.000000,25.000000,0.000000,0.000000,0.352601,0.442985,0.138480,0.203648,0.000000,303.000000,286.000000,17.000000,25.000000,0.000000,0.000000:
00000000
00000000
00000000
00000000
,
00000000
00000000
00000000
00000000
,
00000000
00000000
00000000
00000000
,
00000000
00000000
00000000
00000000
,
00000000
00000000
00000000
00000000
00000000
00000000
00001000
00001000
,
00000000
00000000
00010000
00000000
01000000
00000000
10000000
10000000
,
00100000
00000000
00010000
00000000
00001000
00000000
00000100
00000100
,
00000001
00000010
00000000
00001000
,
00010000
00011000
00000000
00100000
,
10000000
00010000
00000000
01000000
,
00010000
00001000
00000010
00001000
,
00000001
00000100
00001000
00010000
,
00000000
00000000
00100000
10000000
,
01000000
00010000
00001000
00000010
,
00000000
00000001
00000001
00001000
,
00000001
00000100
00001000
00010000
,
00100000
10000000
00010000
20000000
,
00000000
30020000
01000000
10000000
,
00000000
00032000
00000000
00003002
,
00000000
00002003
00000100
00000001
,
00000000
00023000
00000000
20030000
,
00000000
30020000
00100000
10000000
,
00000000
00032000
00000000
00003002
,
00000000
00000000
00002000
00000000
00003003
00000000
00000100
00000100
,
00000100
00010000
00001000
00000100
,
00000000
00001000
00010000
01000000
,
00000000
00010000
00001000
00000100
,
00000001
00001000
00000000
00001001
,
00000000
00000001
00000100
00001000
,
00010000
00001000
00000000
00011000
,
00000000
00010000
00100000
10000000
,
00100000
00010000
00000000
00011000
,
00000000
00001000
00010000
01000000
,
00000000
00010000
00001000
00000100
,
00000000
00001000
00010000
01000000
,
10000000
00010000
00000000
10010000
,
00000000
10000000
01000000
00010000
,
00001000
00010000
00000000
00011000
,
00000000
00001000
00000010
00000000
,
00000000
00000002
00000000
00002003
,
00000000
00003100
00001000
00000001
,
00000000
00000100
00001000
00010000
,
00000000
00001000
00020000
00030000
,
00100000
10000000
00100000
01000000
,
00200000
00300000
00010000
00001000
,
00000010
00000001
00000010
00000100
,
00000000
00001000
00000100
00001000
,
00000000
00010000
00001000
00010000
,
00000000
00100000
00010000
00100000
,
00000000
00010000
01000000
00010000
,
00000000
10000000
01000000
10000000
,
11000000
00000000
01000000
00010000
,
00000000
00002000
00000000
00000000
,
00003020
00000000
00000000
00000032
,
00000000
00002003
00000000
00000000
,
00000000
00000000
00003000
00000000
,
00000000
00020000
00000000
00000000
,
00000000
20000000
00000000
30030000
,
00000000
10010000
01000000
10010000
,
00000000
01000000
00001000
00010000
,
00000000
00000100
00010000
00001000
,
00000010
00000001
00000100
00001000
,
00000000
00001001
00000100
00001001
,
00000000
00000100
00010000
00001000
,
00000000
01000000
00001000
00010000
,
00100000
00000000
01000000
01000000
01000000
00000000
00001000
00000000
,
00010000
01000000
00000000
00010000
,
00001000
00000100
00000000
00001000
,
00010000
01000000
10000000
00010000
,
00000000
10010000
00000000
10000000
,
01000000
00010000
00001000
00010000
,
00000000
00011000
00000000
00001000
,
00000010
00000001
00000010
00001000
,
00000000
00011000
00000000
00010000
,
00001000
00000100
00000000
00001000
,
00010000
01000000
00000000
00010000
,
00001000
00000100
00000001
00001000
,
00000000
00001001
00000000
00000001
,
00000100
00001000
00010000
00001000
,
00000000
00011000
00000000
00010000
,
00100000
00000000
00000000
20000000
,
00000000
30020000
00000000
01030000
,
00010000
10000000
01000000
00010000
,
00000000
00001000
00000010
00000001
,
00001000
00000001
00000100
00000010
,
00000000
00001000
00000100
00000010
,
00001000
00010000
00100000
01000000
,
00000000
00010000
01000000
00100000
,
00010000
00001000
00000010
00000100
,
00000000
00001001
00000000
00000100
,
00001000
00000001
00000100
00001000
,
00000000
00010000
00100000
10000000
,
00010000
10000000
01000000
00100000
,
00000000
00010000
01000000
00100000
,
00010000
00001000
00000010
00000100
,
00000000
00001000
00000100
00000010
,
00001000
00000000
00010000
00100000
,
00000000
20000000
00000000
30020000
,
10030000
00000000
01000000
00100000
00001000
00010000
00000100
00000010
;

//---------------dance-double - ----------------
#NOTES:
     dance-double:
     :
     Easy:
     3:
     0.187356,0.281543,0.081459,0.089605,0.000000,161.000000,151.000000,10.000000,11.000000,0.000000,0.000000,0.187356,0.281543,0.081459,0.089605,0.000000,161.000000,151.000000,10.000000,11.000000,0.000000,0.000000:
00000000
00000000
00000000
00000000
,
00000000
00000000
00000000
00000000
,
00000000
00000000
00000000
00000000
,
00000000
00000000
00000000
00000000
,
00000000
00000000
00000000
01000000
,
01000000
00000000
00000000
00010000
,
00010000
00000000
00000000
00001000
,
00001000
00000000
00000000
00000010
,
00000010
00000000
00000000
00001001
,
00000000
00000100
00000000
00001001
,
00000000
00000000
00010000
00000000
,
00001000
00000000
00010000
00000000
,
00000000
00000000
00000000
01000000
,
00000000
00100000
00000000
01000000
,
00000000
00000000
00000000
20020000
,
00000000
00000000
00000000
00000000
,
00000000
30030000
00000000
01000000
,
00000000
00100000
10000000
02000000
,
00000000
03000000
00000000
00010000
,
00000000
00001000
00000010
00000200
,
00000000
00000300
00000000
00001000
,
00000000
00000001
00000010
00002000
,
00000000
00003000
00000000
00020000
,
00000000
00002000
00033000
00000000
,
00000000
00100000
00000000
10000000
,
00000000
00010000
00000000
00000000
,
00000000
01000000
00000000
01000000
,
00000000
00000000
00000000
00100000
,
00000000
00010000
00000000
00001000
,
00000000
00000000
00000000
00011000
,
00000000
00001000
00000000
00000010
,
00000000
00001000
00000000
00000000
,
00000000
00000010
00000000
00000001
,
00000000
00001000
00000000
00000000
,
00000000
00000100
00000000
00000100
,
00000000
00000000
00000000
00000010
,
00000000
00001000
00000000
00010000
,
00000000
00000000
00000000
00011000
,
00000000
00010000
00000000
00000000
,
00000000
00100000
00000000
00100000
,
00000000
20020000
00000000
00000000
,
00000000
00000000
00000000
00000000
,
00000000
30030000
00100000
00000000
,
10000000
00000000
01000000
00000000
,
00010000
00000000
00001000
00000000
,
00000010
00000000
00000001
00000000
,
00001000
00000000
00000200
00000000
,
00000000
00000000
00000300
00000000
,
00000000
00001000
00000000
00000000
,
00000000
00000001
00000000
00000000
,
00000000
00000100
00000000
00000000
,
00000000
00001000
00000000
00000000
,
00000000
00010000
00000000
00000000
,
00000000
00100000
00000000
00000000
,
00000000
10000000
00000000
10000000
,
00000000
10000000
00000000
10000000
,
00000000
20000000
00000000
00000000
,
00000000
00000000
00000000
30000000
,
00000000
00100000
00010000
00100000
,
00000000
00010000
00001000
00010000
,
00000000
00001000
00000010
00001000
,
00000000
00000010
00000001
00000010
,
00000000
00000010
00001000
00000010
,
00000000
00001000
00010000
00001000
,
00000000
00010000
00100000
00010000
,
00000000
00000000
00000000
00100000
,
00000000
10000000
00000000
00010000
,
00000000
00000000
00000000
01000000
,
00000000
01000000
00000000
00000000
,
00000000
00100000
00000000
00010000
,
00000000
00001000
00000000
00000000
,
00000000
00011000
00000000
00001000
,
00000000
00000010
00000000
00001000
,
00000000
00000000
00000000
00000010
,
00000000
00000001
00000000
00001000
,
00000000
00000000
00000000
00000100
,
00000000
00000100
00000000
00000000
,
00000000
00000010
00000000
00001000
,
00000000
00010000
00000000
00000000
,
00000000
00011000
00000000
00010000
,
00000000
00000000
00000000
00100000
,
00000000
10000000
00000000
00010000
,
00000000
00010000
00000000
00010000
,
00000000
00000000
00000000
00001000
,
00000000
00001000
00000000
00001000
,
00000000
00000000
00000000
00000001
,
00000000
00000100
00000000
00001000
,
00000000
00000000
00000000
00010000
,
00000000
01000000
00000000
10000000
,
00000000
00000000
00000000
00010000
,
00000000
00010000
00000000
00010000
,
00000000
00000000
00000000
00001000
,
00000000
00001000
00000000
00001000
,
00000000
00000000
00000000
00000001
,
00000000
00000010
00000000
00001000
,
00000000
00000000
00000000
00011000
,
00000000
00010000
00000000
00000000
,
00000000
00100000
00000000
10000000
,
01000000
00010000
00001000
00011000
;
