#TITLE:Wuv U;
#SUBTITLE:;
#ARTIST:kors k;
#TITLETRANSLIT:;
#SUBTITLETRANSLIT:;
#ARTISTTRANSLIT:;
#GENRE:;
#CREDIT:;
#BANNER:Wuv U.png;
#BACKGROUND:Wuv U-bg.png;
#LYRICSPATH:;
#CDTITLE:;
#MUSIC:Wuv U.ogg;
#OFFSET:-0.720000;
#SAMPLESTART:67.252998;
#SAMPLELENGTH:13.871000;
#SELECTABLE:YES;
#BPMS:0.000000=173.024994
;
#STOPS:
;
#BGCHANGES:-0.500=Wuv U.avi=1.000=1=0=0=StretchNoLoop==CrossFade==,
99999=-nosongbg-=1.000=0=0=0 // don't automatically add -songbackground-
;
#KEYSOUNDS:;
#ATTACKS:;

//---------------dance-single - ----------------
#NOTES:
     dance-single:
     :
     Hard:
     8:
     0.573411,0.624500,0.555111,0.298906,0.000000,376.000000,324.000000,52.000000,28.000000,0.000000,0.000000,0.573411,0.624500,0.555111,0.298906,0.000000,376.000000,324.000000,52.000000,28.000000,0.000000,0.000000:
0000
0000
0000
0000
,
0000
0000
0000
0000
,
0000
0000
0000
0000
,
0000
0000
0000
0000
,
0010
0000
0100
0001
0000
0010
0000
0100
,
1000
0100
1000
0000
0001
0000
1001
0000
,
0001
0010
0100
1000
0100
1000
0010
0100
,
2002
0000
3003
0000
1000
0100
0010
0001
,
0100
0000
0010
0100
1000
0000
1100
0000
,
1000
0100
0010
0001
0010
0000
1001
0000
,
0001
0010
0001
0010
0100
0000
0010
0100
,
0000
0010
0100
1000
1100
0000
0101
0000
,
1001
0000
0001
0010
0100
0000
1100
0000
,
0010
0001
0010
0001
1000
0000
1001
0000
,
0001
0010
0100
1000
0100
0010
0100
0020
,
0000
0100
0000
1000
2000
0000
3030
0000
,
0110
0000
1001
0000
0010
0100
0010
0100
,
0010
1000
1000
0100
0100
0001
0001
0000
,
1000
0010
1000
0000
0100
0010
0010
0000
,
1100
0000
0011
0000
0001
1000
1001
0000
,
0101
0000
1010
0000
1000
0010
1000
0010
,
1000
0100
0100
1000
1000
0100
0100
0000
,
0010
0100
0001
0000
0100
0100
0010
0000
,
0011
1100
2020
3030
,
0101
0001
1001
0000
0010
0100
0010
0100
,
0001
0001
1000
1000
0100
0100
2000
0000
,
3001
0010
0001
1000
0010
1000
1000
0000
,
1010
0101
0210
0301
,
0001
0010
0000
0010
0100
0000
0100
1000
,
0000
1000
0001
0000
0010
0000
1000
0000
,
1000
0100
0010
0001
0010
0100
1000
0010
,
0100
0001
0100
0010
0100
0001
1001
0000
,
0201
0010
0000
0000
,
0302
1000
0000
0000
,
2003
0001
0000
0000
,
3200
0010
0000
0000
,
0320
0000
0031
0002
0000
0003
0100
0010
,
0200
0000
0310
2000
0000
3000
0100
0010
,
0200
0000
0310
2000
0000
3010
0000
0100
,
0100
0100
0220
0330
,
0001
0100
0010
1000
,
1100
0000
0001
0100
1000
0000
0100
0000
,
0001
0000
1000
0000
0100
0000
0010
0001
,
0000
0010
1000
0010
0100
0000
0010
0000
,
1000
0000
0010
0100
0220
0000
0330
0000
,
0010
0000
1000
0001
2002
0000
3003
0000
,
0101
0001
1001
0000
1010
1000
1001
0000
,
0220
0000
0000
0330
,
1001
0000
0001
0010
0100
0000
1000
0001
,
0000
0001
1000
0010
1000
0000
1010
0000
,
0001
0100
0010
1000
0010
0000
1000
0010
,
0100
0001
0100
0010
0011
0000
1100
0000
,
1001
0000
0001
0010
0100
0000
0100
1000
,
0000
0001
0100
0010
1000
0000
1001
0000
,
0001
0100
0010
1000
0001
0010
0100
1000
,
0010
0100
0100
0000
0110
0000
1001
0000
,
1000
0001
1000
0001
0010
0100
0010
0000
,
0001
0010
0100
1000
0100
1000
0100
0000
,
1000
0001
0001
0010
0100
1000
0100
1000
,
1100
0101
0110
1001
,
0001
0100
1000
0100
0001
0100
0101
0000
,
1000
0010
0100
0001
0010
0001
0011
0000
,
0001
0100
0000
0100
1000
0000
0001
0010
,
0000
0100
0001
0100
0101
0000
1010
0000
,
2002
0000
0000
0000
,
3003
0000
0000
0000
;

//---------------dance-single - ----------------
#NOTES:
     dance-single:
     :
     Medium:
     6:
     0.454459,0.520416,0.362957,0.373632,0.000000,298.000000,264.000000,34.000000,35.000000,0.000000,0.000000,0.454459,0.520416,0.362957,0.373632,0.000000,298.000000,264.000000,34.000000,35.000000,0.000000,0.000000:
0000
0000
0000
0000
,
0000
0000
0000
0000
,
0000
0000
0000
0000
,
0000
0000
0000
0000
,
0010
0000
0000
0100
0000
0000
1000
0000
,
0010
0100
0001
0010
,
0100
0000
0000
1000
0000
0010
0100
0000
,
0220
0000
0330
0000
0010
1000
0010
0000
,
0100
0000
1000
0100
0010
0000
1001
0000
,
0001
0000
0100
0001
0100
0000
0101
0000
,
0001
0000
0100
0000
0010
0000
0001
0100
,
0000
0100
0010
0000
0110
0000
1001
0000
,
0010
0000
0100
0001
0100
0000
0101
0000
,
0001
0010
0001
0000
0100
0000
0101
0000
,
1100
0000
0100
0010
0001
0000
0100
0010
,
1000
0001
2002
3003
,
0001
0000
0100
0000
0001
0100
0001
0000
,
1000
0010
1000
0000
0010
1000
0010
0000
,
0001
0000
0100
0000
0010
0010
0100
0000
,
0110
0110
1001
1001
,
0001
0000
0100
0000
0100
1000
0010
0000
,
0100
0001
0100
0000
0001
0010
0100
0000
,
1000
0001
0010
0000
0110
0000
1002
0000
,
0100
0010
2000
3003
,
0010
0010
0010
0000
1000
0000
0100
0000
,
0010
0001
0010
0000
0001
0100
0010
0000
,
0010
0000
0001
0000
0100
0010
0010
0000
,
1010
0101
0220
0330
,
0001
0100
0000
1000
0010
0000
0001
0100
,
0000
0010
1000
0000
0110
0000
1001
0000
,
1000
0100
0010
0000
0001
0100
0010
0000
,
1000
0100
1000
0100
0010
0001
0010
0000
,
0012
0000
0000
0000
,
2003
0000
0000
0000
,
3020
0000
0000
0000
,
0230
0000
0000
0000
,
0320
0000
0000
2030
0000
0000
0100
0000
,
3200
0000
0000
0320
0000
0000
0032
0000
,
2003
0000
0000
3200
0000
0000
1300
0000
,
0001
0001
2002
3003
,
0001
0010
0200
0300
,
0010
0000
1000
0010
2000
0000
3000
0000
,
0001
0000
0010
0000
0100
0000
0010
0001
,
0000
0010
0001
0000
1000
0000
0001
0000
,
0201
1000
0020
0330
,
1002
0010
0200
0303
,
1000
1000
0001
0001
,
0220
0000
0330
0000
0001
0100
0001
0000
,
1000
0000
0001
0010
1000
0000
1000
0001
,
0000
1000
0001
0010
0100
0000
0010
0000
,
0100
0000
0100
0010
0100
0000
1000
0100
,
0010
0000
0010
0100
0001
0000
1100
0000
,
0101
0000
0001
0100
0010
0000
0010
0001
,
0000
1000
0100
1000
0001
0000
0100
0000
,
0001
0100
0010
1000
0010
0000
1000
0000
,
1000
0001
0202
0303
,
0001
0010
0100
1000
0100
0000
0010
0000
,
1000
0100
0010
0001
0010
0000
0001
0000
,
1000
1000
0010
0010
,
0110
1001
0220
0330
,
0100
1000
0100
0010
0001
0000
0100
0000
,
0100
1000
0100
0010
0010
0000
0010
0000
,
0001
0010
0000
0100
0001
0000
0010
1000
,
0000
1000
0100
0000
1100
0000
0101
0000
,
0220
0000
0000
0000
,
0330
0000
0000
0000
;

//---------------dance-single - ----------------
#NOTES:
     dance-single:
     :
     Easy:
     5:
     0.359907,0.451027,0.480384,0.416333,0.000000,236.000000,191.000000,45.000000,39.000000,0.000000,0.000000,0.359907,0.451027,0.480384,0.416333,0.000000,236.000000,191.000000,45.000000,39.000000,0.000000,0.000000:
0000
0000
0000
0000
,
0000
0000
0000
0000
,
0000
0000
0000
0000
,
0000
0000
0000
0000
,
0110
0000
0000
0110
0000
0000
0000
0000
,
0100
0100
0010
0010
,
0110
0000
0000
1001
0000
0000
0000
0000
,
2002
0003
0001
3001
,
0001
0010
0100
1100
,
1000
0010
0100
0110
,
0010
0100
0010
0001
,
1000
0001
1001
1001
,
0001
0100
0001
0101
,
0001
0010
0100
1100
,
0001
0010
0100
1000
,
2200
0000
0000
3300
,
0202
0303
0100
0001
,
1000
0100
0010
0100
,
1000
1000
0001
0001
,
1000
0010
1000
0100
,
1000
1000
0010
0010
,
1000
0100
0010
0001
,
0100
0100
0001
0001
,
2002
0000
0000
3003
,
1000
1000
1000
0000
0001
0000
0100
0000
,
0010
1000
2200
3300
,
0202
0303
2002
3003
,
0010
0100
2002
3003
,
0001
0000
0000
0001
0000
0000
0010
0000
,
0000
0010
0000
0000
0100
0000
0100
0000
,
0001
0001
0100
0100
,
1000
1000
0220
0330
,
2002
0000
0000
0000
,
0000
0000
0000
0000
,
0000
0000
0000
0000
,
0003
0000
0000
0000
,
3200
1000
0000
0000
,
0320
0001
0000
0000
,
0032
0100
2003
0010
,
3002
0100
0000
0000
,
0103
0100
0200
0000
,
0310
0010
0020
0000
,
0031
0010
0100
1000
,
0100
0010
0220
0330
,
0100
1000
2200
3300
,
0001
0100
0202
0303
,
0100
0100
0010
0010
,
0220
0000
0000
0330
,
0001
1000
0001
1001
,
0100
0010
0100
0110
,
0100
0001
0100
0010
,
1000
0100
0110
1001
,
0010
0100
0010
0110
,
1000
0001
1000
1001
,
0001
1000
0001
1000
,
2002
3003
0110
0110
,
0001
1000
1000
1001
,
1000
0001
0001
1001
,
1000
0100
0010
0001
,
0100
0010
0101
1100
,
0100
0001
1000
1001
,
0100
0010
0100
0110
,
1001
0000
0000
1000
0000
0000
1100
0000
,
0000
0101
0000
0000
1001
0000
0110
0000
,
2002
0000
0000
0000
,
3003
0000
0000
0000
;

//---------------dance-single - ----------------
#NOTES:
     dance-single:
     :
     Beginner:
     2:
     0.183004,0.239125,0.117427,0.000000,0.000000,120.000000,109.000000,11.000000,0.000000,0.000000,0.000000,0.183004,0.239125,0.117427,0.000000,0.000000,120.000000,109.000000,11.000000,0.000000,0.000000,0.000000:
0000
0000
0000
0000
,
0000
0000
0000
0000
,
0000
0000
0000
0000
,
0000
0000
0000
0000
,
1001
0000
1000
0000
,
1000
0000
0010
0000
,
0110
0000
0100
0000
,
1001
0000
1000
0000
,
1000
0000
0001
0000
,
0010
0010
0010
0000
,
0001
0000
0010
0000
,
0100
0000
1000
0000
,
0100
0000
0010
0000
,
0001
0001
0001
0000
,
0100
0000
0010
0000
,
0110
0000
0000
0000
,
1000
0000
0010
0000
,
1000
0000
0001
0000
,
0100
0000
0001
0000
,
0010
0000
0000
0000
,
0001
0000
0100
0000
,
0001
0000
0010
0000
,
0100
0000
0001
0000
,
0100
0100
0100
0001
,
0001
0000
0001
0000
,
0001
0000
0100
0000
,
0010
0000
0010
0000
,
0010
0010
0010
0000
,
1001
0000
0000
0000
,
0000
0000
0000
0000
,
1000
0000
0100
0000
,
0010
0000
0001
0000
,
0011
0000
0000
0000
,
0000
0000
0000
0000
,
0000
0000
0000
0000
,
0000
0000
0000
0000
,
0010
0000
0000
0000
,
0001
0000
0000
0000
,
0100
0000
1000
0000
,
0100
0000
0000
0000
,
1000
0000
1000
0000
,
0010
0000
0010
0000
,
0100
0000
0001
0000
,
1000
0000
0100
0000
,
1100
0000
0000
0000
,
0101
0000
0000
0000
,
0001
0000
1000
0000
,
1001
0000
0000
0000
,
0010
0000
1000
0000
,
0001
0001
0001
0000
,
1000
0000
0100
0000
,
0010
0000
0001
0000
,
0010
0000
0100
0000
,
0010
0010
0010
0000
,
0001
0000
1000
0000
,
0100
0000
0000
0000
,
0001
0000
0010
0000
,
0100
0100
0100
0000
,
0010
0000
1000
0000
,
0010
0010
0010
0000
,
0010
0000
0100
0000
,
0010
0010
0010
0000
,
1001
0000
0000
0000
,
0000
0000
0000
0000
,
0110
0000
0000
0000
;

//---------------dance-double - ----------------
#NOTES:
     dance-double:
     :
     Hard:
     8:
     0.568836,0.589805,0.416333,0.106752,0.053376,373.000000,334.000000,39.000000,10.000000,0.000000,0.000000,0.568836,0.589805,0.416333,0.106752,0.053376,373.000000,334.000000,39.000000,10.000000,0.000000,0.000000:
// measure 0
00000000
00000000
00000000
00000000
,  // measure 1
00000000
00000000
00000000
00000000
,  // measure 2
00000000
00000000
00000000
00000000
,  // measure 3
00000000
00000000
00000000
00000000
,  // measure 4
10000000
00000000
00010000
00000000
01000000
00100000
01000000
00100000
,  // measure 5
00010000
00000000
00001000
00000100
00000001
00000000
00001000
00000000
,  // measure 6
00000001
00000010
00001000
00010000
,  // measure 7
01100000
00000000
00000000
00000000
,  // measure 8
10000000
00000000
00000000
10000000
00010000
00000000
01000000
00000000
00001000
00000000
00010000
00000000
00000100
00000000
00000010
00000000
,  // measure 9
00000000
00000001
00001000
00000000
00000100
00000000
00000010
00000000
00000100
00000000
00000000
00000000
00001001
00000000
00000000
00000000
,  // measure 10
00000001
00000010
00000001
00000010
00001000
00000000
00010000
00000100
,  // measure 11
00010000
00000000
00000000
00010000
00001000
00000000
01000000
00000000
00100000
00000000
00000000
00000000
10010000
00000000
00000000
00000000
,  // measure 12
10000000
00100000
01000000
00001000
00010000
00000000
00010000
00000010
,  // measure 13
00000000
00000010
00001000
00000000
00000001
00000000
00000100
00000000
00000010
00000000
00000000
00000000
00001001
00000000
00000000
00000000
,  // measure 14
00001000
00000001
00000100
00001000
00010000
00001000
00000010
00001000
,  // measure 15
00010000
00100000
10000000
01000000
01000000
00000000
10010000
00000000
,  // measure 16
01100000
00000000
10010000
00000000
01000000
00001000
01000000
00001000
,  // measure 17
00010000
00000100
00010000
00000100
00001000
00000001
00000010
00000000
,  // measure 18
00001000
00010000
00100000
00000000
00010000
00001000
00000010
00000000
,  // measure 19
00011000
01010000
00011000
00001010
,  // measure 20
00011000
00000000
00010100
00000000
00000010
00000001
00000010
00000100
,  // measure 21
00010000
00001000
00010000
01000000
00100000
00010000
10000000
00000000
,  // measure 22
01000000
00010000
00001000
00000000
00000100
00001000
00010000
00000000
,  // measure 23
00011000
00110000
00011000
00001100
,  // measure 24
00000110
00000000
00001001
00000000
00000100
00010000
00000100
00010000
,  // measure 25
00001000
01000000
00001000
01000000
00010000
10000000
00100000
00000000
,  // measure 26
00010000
00001000
00000010
00000000
00001000
00010000
00100000
00000000
,  // measure 27
00011000
00001100
00011000
00110000
,  // measure 28
10000000
01000000
00000000
01000000
00010000
00000000
00010000
00001000
,  // measure 29
00000000
00001000
00000100
00000000
00000010
00000000
00001001
00000000
,  // measure 30
00000010
00000001
00000010
00000100
00001000
00000010
00010000
00001000
,  // measure 31
00000010
00001000
00010000
01000000
10000000
00100000
01000000
00000000
,  // measure 32
10010000
10000000
02000000
00000000
,  // measure 33
03010000
00001000
00000200
00000000
,  // measure 34
00001300
00010000
00200000
00000000
,  // measure 35
00310000
00001000
00000020
00000000
,  // measure 36
00000031
00000000
00001000
00000010
00000000
00001000
00000100
00010000
,  // measure 37
00001000
00000000
00100000
01000000
00000000
10000000
01000000
10000000
,  // measure 38
00100000
00000000
01000000
00010000
00000000
00100000
00001000
00010000
,  // measure 39
00000010
00000010
00000220
00000330
,  // measure 40
00001000
00001000
00000001
00000001
,  // measure 41
00000100
00000100
00001000
00001000
,  // measure 42
00010000
01000000
10000000
00000000
00100000
00000000
01000000
00010000
,  // measure 43
00000000
00010000
00100000
00001000
00010000
00000000
00011000
00000000
,  // measure 44
00000010
00000001
00001000
00000010
00000200
00000000
00000000
00000000
,  // measure 45
00000310
00010000
00001000
00100000
00020000
00000000
00000000
00000000
,  // measure 46
10030000
01000000
00010000
00000000
00001000
00000100
00000001
00000000
,  // measure 47
00001001
00000000
00000000
00000000
,  // measure 48
00000001
00000000
00000000
00000001
00001000
00000000
00000100
00000000
00010000
00000000
00001000
00000000
01000000
00000000
00100000
00000000
,  // measure 49
00000000
10000000
00010000
00000000
01000000
00000000
00100000
00000000
01000000
00000000
00000000
00000000
10010000
00000000
00000000
00000000
,  // measure 50
10000000
00100000
10000000
00100000
00010000
00000000
00001000
01000000
,  // measure 51
00001000
00000000
00000000
00001000
00010000
00000000
00000100
00000000
00000010
00000000
00000000
00000000
00001001
00000000
00000000
00000000
,  // measure 52
00000001
00000010
00000100
00010000
00001000
00000000
00001000
00100000
,  // measure 53
00000000
00100000
00010000
00000000
10000000
00000000
01000000
00000000
00100000
00000000
00000000
00000000
10010000
00000000
00000000
00000000
,  // measure 54
00010000
10000000
01000000
00010000
00001000
00010000
00100000
00010000
,  // measure 55
00011000
00000000
00000010
00000000
00000001
00001000
00000001
00001000
,  // measure 56
00000100
00000010
00001000
00010000
00000100
00000000
00010000
00001000
,  // measure 57
00000000
00001000
00100000
00000000
01000000
00000000
00010000
00000000
00001000
00000000
00000000
00000000
00000010
00000000
00000000
00000000
,  // measure 58
00000100
00010000
00001000
00010000
01000000
00010000
00001000
00100000
,  // measure 59
00110000
11000000
10010000
00010000
,  // measure 60
01000000
00100000
00010000
00001000
01000000
00000000
00001000
00010000
,  // measure 61
00000000
00010000
00000010
00000000
00000100
00000000
00001000
00000000
00010000
00000000
00000000
00000000
00100000
00000000
00000000
00000000
,  // measure 62
10010000
00000000
00000000
01001000
00000000
00000000
00011000
00000000
,  // measure 63
00000000
00000010
00000010
00001000
00000001
00000000
00000100
00000000
,  // measure 64
00002002
00000000
00000000
00000000
,  // measure 65
00003003
00000000
00000000
00000000
;

//---------------dance-double - ----------------
#NOTES:
     dance-double:
     :
     Medium:
     6:
     0.434633,0.520416,0.234855,0.181479,0.000000,285.000000,263.000000,22.000000,17.000000,0.000000,0.000000,0.434633,0.520416,0.234855,0.181479,0.000000,285.000000,263.000000,22.000000,17.000000,0.000000,0.000000:
00000000
00000000
00000000
00000000
,
00000000
00000000
00000000
00000000
,
00000000
00000000
00000000
00000000
,
00000000
00000000
00000000
00000000
,
00000001
00000000
00000000
00000100
00000000
00000000
00000010
00000000
,
00010000
00000000
00000000
00001000
00000000
00000000
01000000
00000000
,
00010000
00010000
10000000
10000000
,
10010000
00000000
00000000
00000000
,
00100000
00000000
10000000
00100000
01000000
00000000
00001000
00000000
,
00010000
00000000
00000100
00000010
00000001
00000000
00001000
00000000
,
00000010
00000000
00010000
00001000
00000100
00000000
00001000
00010000
,
01000000
00100000
00100000
10010000
,
01000000
00000000
10000000
01000000
00100000
00000000
00001000
00000000
,
00010000
00000000
00000010
00000100
00000001
00000000
00001000
00000000
,
00001010
00000000
00000010
00010000
00001000
00000000
00010000
00001000
,
00100000
00010000
20020000
30030000
,
10000000
00000000
01000000
00000000
00010000
00001000
00010000
00000000
,
00000010
00000100
00000010
00000000
00001000
00000000
00001001
00000000
,
00000010
00000001
00000010
00000001
00001000
00000000
00000100
00000000
,
00010000
00000000
00010000
00000000
00001000
01000000
00010000
00000000
,
10000000
00000000
01000000
00000000
00010000
00001000
00010000
00000000
,
00000010
00000100
00000010
00000000
00001000
00000000
00001001
00000000
,
00000010
00000001
00000010
00000001
00001000
00000000
00000100
00000000
,
00010000
00001000
00010000
00011000
,
00100000
00000000
10010000
00000000
10000000
01000000
10000000
01000000
,
00100000
00000000
00001000
00000000
00010000
00000100
00000010
00000000
,
00000001
00000100
00000010
00000000
00000010
00001000
00000001
00000000
,
00001000
00000010
00001000
00000010
00020000
00000000
00000000
00000000
,
00031000
00000100
00000000
00001000
00010000
00000000
01000000
00010000
,
00000000
00001000
00010000
00000000
00011000
00000000
01100000
00000000
,
00010000
01000000
00100000
00000000
10000000
01000000
00100000
00000000
,
00010000
01000000
00010000
01000000
00001000
00010000
00001000
00000000
,
00012000
00000000
00000000
00000000
,
02003000
00000000
00000000
00000000
,
03002000
00000000
00000000
00000000
,
00003200
00000000
00000000
00000000
,
00000301
00000000
00001000
00000010
00000000
00000010
00000000
00000010
,
00010000
00000000
00001000
01000000
00000000
01000000
00000000
01000000
,
00010000
00000000
10000000
00100000
00000000
00100000
00000000
00100000
,
01000000
00000000
20020000
30030000
,
01000000
01000000
00002000
00003000
,
00010000
00010000
00000020
00000030
,
00001000
00000001
00000010
00001000
,
00010000
00100000
10000000
10010000
,
01000000
00000000
00001000
00010000
00001000
00000000
00000000
00000000
,
00000100
00000000
00001000
00010000
00001000
00000000
00000000
00000000
,
00010000
00000100
00010000
00000000
00001000
01000000
00001000
00000000
,
00011000
00000000
00000000
00000000
,
00000010
00000000
00000001
00000010
00000100
00000000
00010000
00000000
,
00001000
00000000
01000000
00100000
10000000
00000000
00010000
00000000
,
00100000
00000000
00001000
00010000
01000000
00000000
00010000
00001000
,
00000100
00000010
00000010
00001001
,
00000100
00000000
00000001
00000100
00000010
00000000
00010000
00000000
,
00001000
00000000
00100000
01000000
10000000
00000000
00010000
00000000
,
00110000
00000000
00100000
00001000
00010000
00000000
00001000
00010000
,
00000010
00001000
00002002
00003003
,
00000001
00000000
00000010
00000100
00000010
00000000
00000100
00010000
,
00000000
00010000
00001000
00010000
00001000
00000000
01000000
00000000
,
00010000
00100000
01000000
10000000
,
01100000
01001000
00022000
00033000
,
00000010
00001000
00000010
00001000
00000001
00000000
00001000
00000100
,
00000000
00000100
00010000
00001000
00010000
00000000
00011000
00000000
,
00100000
00000000
00000000
10000000
00000000
00000000
01000000
00000000
,
00000000
00010000
00000000
00010000
00001000
00000000
00000100
00000000
,
00000220
00000000
00000000
00000000
,
00000330
00000000
00000000
00000000
;

//---------------dance-double - ----------------
#NOTES:
     dance-double:
     :
     Easy:
     4:
     0.280605,0.341607,0.106752,0.106752,0.000000,184.000000,174.000000,10.000000,10.000000,0.000000,0.000000,0.280605,0.341607,0.106752,0.106752,0.000000,184.000000,174.000000,10.000000,10.000000,0.000000,0.000000:
00000000
00000000
00000000
00000000
,
00000000
00000000
00000000
00000000
,
00000000
00000000
00000000
00000000
,
00000000
00000000
00000000
00000000
,
00010000
00000000
00001000
00000000
,
00010000
00000000
00001000
00000000
,
01000000
00000000
01000000
00000000
,
10010000
00000000
00000000
00000000
,
10000000
01000000
00020000
00000000
,
00031000
00000100
00000002
00000000
,
00000013
00000001
00000010
00000100
,
00010000
00000100
00000010
00000000
,
00001000
00010000
00002000
00000000
,
01003000
00100000
02000000
00000000
,
03010000
10000000
01000000
00010000
,
00001000
00000010
00000001
00000000
,
00001000
00000001
00000100
00000100
,
00000010
00000010
00010000
00001000
,
01000000
01000000
00100000
00100000
,
10000000
00010000
10000000
00000000
,
00010000
10000000
01000000
01000000
,
00100000
00100000
00001000
00010000
,
00000100
00000100
00000010
00000010
,
00000001
00001000
00000001
00000000
,
00000000
00001001
00000010
00000010
,
00010000
00010000
00001000
00001000
,
01000000
00100000
10000000
01000000
,
00010000
00010000
00022000
00033000
,
00000010
00000000
00000000
00010000
00000000
00000000
01000000
00000000
,
00000000
00001000
00000000
00000000
00000010
00000000
00000100
00000000
,
00000001
00000001
00001000
00001000
,
00000100
00000100
00010000
00000000
,
00022000
00000000
00000000
00000000
,
00000000
00000000
00000000
00000000
,
00000000
00000000
00000000
00000000
,
00000000
00000000
00000000
00033000
,
00001000
01000000
00000000
01000000
,
00100000
10000000
00000000
10000000
,
01000000
00010000
00000000
00001000
,
00000100
00000000
00000000
00000000
,
00000001
00000000
00000001
00000000
,
00001000
00000000
00001000
00000000
,
00010000
00000000
00010000
00000000
,
10000000
00000000
10000000
00000000
,
00100000
01000000
01001000
00000000
,
00000010
00010000
00010100
00000000
,
00000110
00000000
00001001
00000000
,
00000110
00000000
00000000
00000000
,
00000001
00000100
00002000
00000000
,
00013000
01000000
20000000
00000000
,
30100000
10000000
00100000
01000000
,
00001000
01000000
00100000
00000000
,
00010000
00001000
00010000
00000000
,
00000100
00000010
00000100
00000000
,
00001000
00000001
00000100
00001000
,
00010000
00100000
10000000
00000000
,
00010000
10000000
01000000
01000000
,
00010000
00001000
00000100
00000100
,
00001000
00010000
00000010
00000100
,
00000001
00001000
00000001
00000000
,
00001000
00000001
00000100
00000100
,
00001000
00010000
01000000
01000000
,
10000000
00000000
00000000
00010000
00000000
00000000
00001000
00000000
,
00000000
00000001
00000000
00000000
00000010
00000000
00000100
00000000
,
00000110
00000000
00000000
00000000
;
