#TITLE:Why did you go away;
#SUBTITLE:;
#ARTIST:jun with TAHIRIH;
#TITLETRANSLIT:;
#SUBTITLETRANSLIT:;
#ARTISTTRANSLIT:;
#GENRE:LOVERS EUROBEAT;
#CREDIT:;
#BANNER:Why did you go away.png;
#BACKGROUND:Why did you go away-bg.png;
#LYRICSPATH:;
#CDTITLE:;
#MUSIC:Why Did You Go Away.ogg;
#OFFSET:-0.868980;
#SAMPLESTART:48.847507;
#SAMPLELENGTH:12.000000;
#LASTBEATHINT:297.077881;
#SELECTABLE:YES;
#BPMS:0.000000=160.000000
,224.000000=80.000000
,228.000000=160.000000
;
#STOPS:
;
#BGCHANGES:;
#KEYSOUNDS:;
#ATTACKS:;

//---------------dance-single - ----------------
#NOTES:
     dance-single:
     :
     Hard:
     9:
     0.696599,0.817143,0.440212,0.330159,0.270899,576.000000,524.000000,52.000000,39.000000,0.000000,0.000000,0.696599,0.817143,0.440212,0.330159,0.270899,576.000000,524.000000,52.000000,39.000000,0.000000,0.000000:
0000
0000
0000
0000
,
0000
0000
0000
0000
,
1000
0001
1000
0010
1000
0010
0100
0001
,
0100
0010
1000
0010
0200
0000
0000
0000
,
0310
0000
0010
0100
0010
0200
0000
0301
,
0000
0000
1000
0010
1000
0010
0100
0002
,
0000
0000
1003
0000
0010
0100
0010
1000
,
0000
1100
0000
2001
0000
0000
0000
0000
,
3001
0000
0010
0000
0001
0000
0100
0010
0000
0100
0010
0000
0100
0000
0001
0000
,
1000
0100
0000
1000
0100
0000
0010
0001
0000
0010
0001
0000
0100
0000
0010
0000
,
1000
0000
0001
0000
0100
0000
0010
1000
0000
0010
1000
0000
0100
0000
1000
0000
,
0100
0010
0000
0010
0001
0000
0001
0100
0000
0100
0001
0000
1000
0000
1000
0000
,
0010
0000
0001
0000
0010
0000
1000
0001
0000
1000
0001
0000
1000
0000
0100
0000
,
0010
0001
0000
0010
0001
0000
0010
0100
0000
0010
0100
0000
1000
0000
0001
0000
,
0100
0000
1000
0000
0100
0000
0001
1000
0000
0001
1000
0000
0001
0000
0100
0000
,
1010
0000
0000
0000
0000
0102
0000
0000
,
1003
0100
2000
0010
0000
0001
0000
0100
,
0000
0010
0010
3010
0000
0120
0000
1000
,
1030
0001
0100
0001
1000
0010
0100
0010
,
0000
1000
1000
0001
0000
0021
0000
0000
,
0031
0100
1000
0100
0001
0100
0010
1000
,
0100
0010
0001
0100
0000
0210
0010
0310
,
2000
0000
0100
3200
0000
0000
0302
0000
,
0023
0000
2030
0000
3001
0001
0001
0100
,
0010
1000
0100
1000
0010
0100
0001
0010
,
1000
0010
0001
1000
0020
0100
0130
0000
,
0001
0010
0001
0100
0010
1000
0100
0010
,
0001
0010
0100
1000
0002
1000
1003
0000
,
0010
0100
0010
0100
1000
0100
1000
0100
,
0010
0100
0010
0100
0001
0100
0001
0100
,
0101
0010
1001
0100
,
1010
0000
0000
0101
0000
0000
1001
0000
0000
0000
0210
0000
0000
0000
0000
0000
,
0301
0100
0010
0100
1000
0100
0010
0100
,
0001
0000
0101
0200
0000
0301
1000
0100
,
1000
0010
0100
0010
0001
0010
0100
0010
,
1000
0001
0100
0002
0000
1003
1000
0001
,
1000
0000
1001
0001
0100
0010
1000
0100
,
1000
0000
1001
1000
0100
1000
0010
0100
,
0001
0000
1002
0000
1003
0100
0001
0010
,
0000
0110
0000
1002
0000
1000
1000
1000
,
1003
0000
1100
0100
0010
0001
0011
0001
,
0100
0000
0110
0010
1000
0100
0110
0010
,
0001
0101
1000
2010
,
3010
0100
0010
0100
0001
1000
0001
0001
,
0100
0000
2001
0000
3001
0010
0100
0000
,
1000
0010
0100
0000
0001
0010
0100
1000
,
0020
1030
0200
0301
,
1001
0000
0000
0110
0110
0000
1002
0000
,
1003
0000
0010
0000
1000
0000
0100
0010
0000
0100
0010
0000
0100
0000
0001
0000
,
0100
1000
0000
0100
1000
0000
0001
0010
0000
0001
0010
0000
0100
0000
0010
0000
,
0001
0000
0100
0000
0010
0000
1000
0001
0000
1000
0001
0000
0100
0000
0001
0000
,
1000
0010
0000
0010
0100
0000
0100
0010
0000
0010
1000
0000
0001
0000
0100
0000
,
1000
0000
0100
0000
0001
0000
0010
0100
0000
0010
0100
0000
1000
0000
0001
0000
,
0010
0001
0000
0010
0001
0000
0100
0010
0000
0100
0010
0000
1000
0000
0010
0000
,
0001
0000
0010
0000
1000
0000
0100
0010
0000
0100
0010
0000
0001
0000
1000
0000
,
0002
0000
1000
0000
2003
0000
0001
0000
3001
0000
0100
0010
0100
0000
0010
0000
,
0220
0000
0000
0000
0000
0000
0000
0000
0030
0000
0000
0000
0000
0000
0000
0000
0302
0000
0000
0000
0023
0000
0000
0000
0230
0000
1300
0001
2000
0000
0001
0000
,
3001
0100
1000
0100
0000
0110
0000
1001
,
0000
0000
1010
0000
0000
0000
0210
0000
0000
0000
0310
0100
0020
0000
0000
0000
,
1030
0100
0010
0100
0001
0100
0010
0100
,
1000
0000
0100
0000
1000
0000
0001
0000
1000
0010
1000
0000
0001
0100
0001
0000
,
1000
0000
0100
0010
0100
0000
1000
0000
0010
0000
0100
0000
0010
0000
0001
0000
,
0010
0000
0100
1000
0100
0000
0001
0000
0010
0000
0100
0000
0010
0000
1000
0000
,
0010
0000
0001
1000
0001
0000
0100
0000
0010
0000
1000
0000
0100
0000
0001
0000
,
0000
0110
0000
2001
0000
0001
0001
0001
,
3001
0000
0101
0001
0100
0010
1010
1000
,
0001
0000
1001
0010
1000
0100
1001
0010
,
0001
0100
1010
0000
0010
0100
0110
0101
,
0000
0110
0000
1002
0000
0000
1000
1003
,
0010
1000
0010
0000
0100
0000
0001
0010
0001
0000
0100
0000
0010
1000
0010
0000
,
0100
0010
0100
0000
0001
0000
1000
0100
1000
0000
0010
0000
0100
0001
0100
0000
,
0001
1000
0001
1000
0010
0000
1000
0001
1000
0001
0010
0000
0100
0010
0100
0010
,
0100
0001
0100
1000
0010
0001
0010
1000
,
1010
1010
0110
0101
0000
0110
0000
1002
,
0000
0000
1003
0001
1000
0000
0000
0000
0000
0000
0000
0000
0000
0000
0000
0000
;

//---------------dance-single - ----------------
#NOTES:
     dance-single:
     :
     Beginner:
     2:
     0.232200,0.440000,0.287831,0.135450,0.000000,192.000000,158.000000,34.000000,16.000000,0.000000,0.000000,0.232200,0.440000,0.287831,0.135450,0.000000,192.000000,158.000000,34.000000,16.000000,0.000000,0.000000:
0000
0000
0000
0000
,
0000
0000
0000
0000
,
1000
0000
0001
0000
,
1000
1000
1000
0000
,
0010
0010
0000
0100
,
0000
0010
0000
0100
,
0000
0001
0000
1000
,
1000
1000
1000
0000
,
1001
0000
0100
0000
,
0010
0010
0010
0000
,
0100
0000
1000
0000
,
0001
0001
0001
0000
,
0100
0100
0100
0000
,
0001
0001
0001
0000
,
1000
0000
0010
0000
,
0110
0000
0000
0000
,
2000
0000
3000
0000
,
0002
0000
0003
0000
,
0100
0000
0100
0000
,
0010
0010
0010
0000
,
1000
1000
1000
0000
,
0001
0001
0001
0000
,
1000
0000
0001
0000
,
1001
0000
0100
0100
,
0100
0000
0010
0000
,
0100
0100
0100
0000
,
0001
0000
1000
0000
,
2002
0000
3003
0000
,
1000
1000
0000
0001
,
0000
1000
0000
0001
,
0001
0000
1000
0000
,
2002
0000
3003
0000
,
1000
1000
0000
0010
,
0000
0100
0000
0010
,
0000
1000
0000
0001
,
0000
1000
0000
0100
,
0100
0100
0000
0010
,
0000
0100
0000
1000
,
0000
0001
0000
0100
,
0000
0010
0000
0100
,
0100
0000
0010
0010
,
0010
0000
1000
1000
,
1000
0000
0001
0000
,
1000
1000
1000
1000
,
1000
0000
1001
0000
,
0001
0000
1001
0000
,
0110
0000
1001
0000
,
0220
0000
0330
0000
,
0100
0100
0100
0000
,
0010
0010
0010
0000
,
0100
0000
0010
0000
,
1000
0000
0001
0000
,
1000
1000
1000
0000
,
0001
0001
0001
0000
,
1000
0000
0001
0000
,
0110
0000
0000
0000
,
2002
0000
3003
0000
,
2002
0000
0000
0000
0000
0000
0000
3003
,
0000
0000
0000
0000
,
0110
0000
0000
1000
,
1000
0000
1001
0000
,
0010
0010
0010
0000
,
1000
0000
1001
0000
,
0001
0000
1001
0000
,
1000
0000
1001
0000
,
0110
0000
0110
0110
,
0110
0000
1001
1001
,
1001
0000
0001
0000
,
2002
0000
0000
3003
0000
0000
0000
0000
,
0110
0110
0000
0000
,
0100
0000
0110
0000
,
0010
0000
0110
0000
,
1001
0000
0110
0000
,
2002
0000
0000
0000
0000
0000
0000
3003
,
0000
0110
0000
0000
;

//---------------dance-single - ----------------
#NOTES:
     dance-single:
     :
     Medium:
     6:
     0.524868,0.502857,0.457143,0.482540,0.050794,434.000000,380.000000,54.000000,57.000000,0.000000,0.000000,0.524868,0.502857,0.457143,0.482540,0.050794,434.000000,380.000000,54.000000,57.000000,0.000000,0.000000:
0000
0000
0000
0000
,
0000
0000
0000
0000
,
1000
0000
0001
0000
0100
0010
0100
0000
,
0001
0010
0001
0010
0200
0000
1300
0000
,
0020
0000
0130
0001
0000
1000
0000
0020
,
0000
0000
1030
0000
0100
0010
0001
0020
,
0000
0000
0130
0000
1000
0001
0100
0010
,
0000
0110
0000
2001
0000
0000
0000
0000
,
3001
0010
0001
0000
1000
0100
1000
0000
,
0010
0100
0001
1000
0010
0100
0010
0000
,
1000
0100
1000
0000
0100
0010
0100
0000
,
1000
0100
0010
0001
0100
0001
0100
0000
,
0001
1000
0010
0000
1000
0001
0010
0000
,
0001
0100
0010
1000
0010
0100
0001
0000
,
1000
0001
0100
0000
0001
1000
0100
0000
,
0110
0000
0000
0000
0000
2001
0000
0000
,
3001
0010
0001
0020
0000
0130
0000
2000
,
0000
3010
0100
0010
0000
1002
0000
0000
,
0103
0001
0100
0002
0000
1003
0000
0200
,
0000
0301
0100
1000
0000
1020
0000
0000
,
1030
0001
0100
0020
0000
0130
0000
0002
,
0000
1003
0010
0001
0000
0010
0100
0010
,
0100
0001
0000
0101
0000
1000
0000
1100
,
0000
0010
0000
0110
0000
1002
0000
0000
,
1003
0000
1001
0000
0001
0100
0010
1000
,
0000
1010
0000
0120
0000
0100
0130
0000
,
0001
0010
0001
0000
0011
0000
0001
2000
,
0000
3010
0000
0120
0000
1000
1030
0000
,
0100
0000
1100
0000
1000
0100
0010
0000
,
0001
0000
0101
0000
0001
0100
0010
0000
,
1000
0100
0010
0000
0001
0100
0010
0000
,
0110
0000
0000
0110
0000
0000
1001
0000
0000
0000
2000
0000
0000
0000
0000
0000
,
3001
0010
0001
0010
0000
0110
0000
1200
,
0000
1300
0000
1020
0000
1030
0010
1000
,
0002
0000
0103
0020
0000
2030
0000
3200
,
0000
0320
0000
0032
0000
1003
0100
1000
,
0001
0000
0001
0100
0000
0010
0000
1000
,
0001
0000
1001
0000
1000
0001
0100
0010
,
1000
0000
1001
0000
0001
1000
0010
0100
,
0000
0110
0000
0102
0000
0103
0001
0100
,
0001
0000
0012
0000
0013
0100
1000
0000
,
0010
0000
1020
0000
1030
0100
0010
0000
,
0001
0000
0201
0000
0301
0010
0200
0000
,
1300
0100
1000
0100
0010
0001
1000
0000
,
0001
0000
0021
0000
0130
1000
0001
0000
,
0200
0000
0000
0000
0320
0000
0000
0000
1030
0000
0000
0100
0000
0000
0010
0000
,
0002
0103
2000
3010
,
0210
0000
0000
1300
1100
0000
2001
0000
,
3001
0000
0010
0000
0001
0000
0000
0001
0000
0000
1000
0000
0010
0000
0000
0000
,
0100
0000
0000
0010
0000
0000
1000
0000
0000
0001
0000
0000
1000
0000
0000
0000
,
1000
0000
0100
0000
1000
0000
0000
1000
0000
0000
0100
0000
0010
0000
0000
0000
,
0001
0000
0000
0100
0000
0000
0010
0000
0000
1000
0000
0000
0001
0000
0000
0000
,
1000
0000
0100
0000
1000
0000
0000
0100
0000
0000
0010
0000
0001
0000
0000
0000
,
0100
0000
0000
0001
0000
0000
0010
0000
0000
0100
0000
0000
1000
0000
0000
0000
,
0010
0000
0100
0000
0010
0000
0000
1000
0000
0000
0001
0000
0100
0000
0010
0000
,
2000
0000
3200
0000
0310
1001
0000
0000
,
0110
0000
0000
0000
0020
0000
0000
0030
,
1000
0100
1000
0200
0000
0310
0000
0011
,
0000
0101
0000
2001
0000
3001
1000
0001
,
2000
0000
3010
0200
0000
0302
0000
0023
,
0000
0230
0000
2300
0000
3001
0010
0001
,
1000
0000
1000
0010
0000
0100
0000
0001
,
1000
0000
1001
0000
0001
1000
0010
0100
,
0001
0000
1001
0000
1000
0001
0100
0010
,
0000
0110
0000
2010
0000
3010
1000
0010
,
1000
0000
1100
0200
0000
0310
0001
0100
,
0001
0000
0101
0200
0000
0301
0010
0100
,
1000
0000
0210
0000
0310
1000
0100
0010
,
0000
0110
0000
1002
0000
0000
1003
0100
,
1000
0000
1010
0000
0010
0100
0001
1000
,
0100
0000
0100
0010
0001
0000
0011
0000
,
1200
0000
0000
1300
1020
0000
0130
0000
,
0010
0100
0010
0100
0001
1000
0001
1000
,
0010
0010
0100
0010
0000
0110
0000
1001
,
0000
1000
0001
0000
0000
0000
0000
0000
;

//---------------dance-single - ----------------
#NOTES:
     dance-single:
     :
     Easy:
     4:
     0.347090,0.377143,0.304762,0.262434,0.000000,287.000000,251.000000,36.000000,31.000000,0.000000,0.000000,0.347090,0.377143,0.304762,0.262434,0.000000,287.000000,251.000000,36.000000,31.000000,0.000000,0.000000:
0000
0000
0000
0000
,
0000
0000
0000
0000
,
1000
0001
1000
0001
,
0100
0010
0120
0000
,
0130
0001
1000
1000
,
0100
1000
0001
0001
,
0010
0100
0010
0100
,
1000
0001
2001
0000
,
3001
0001
0100
0100
,
0010
1000
0100
0010
,
0100
0100
1000
1000
,
0001
0010
0100
1000
,
0010
0010
0100
0100
,
0001
1000
0010
0100
,
0010
0010
1000
0001
,
1001
0000
0000
0000
0000
0120
0000
0000
,
0230
0010
0000
0010
,
0000
0000
0310
0000
0000
1002
0000
0000
,
1003
0100
1000
0100
,
0010
0001
0010
0001
,
1000
0001
0100
0010
,
1000
0001
0100
0010
,
1000
0100
0010
0001
,
1001
0000
0001
0001
,
0002
0000
1003
0010
,
0100
0001
2001
0000
,
3001
0100
0010
1000
,
0010
0010
0120
0000
,
0130
0001
0100
0001
,
0010
0100
0010
0100
,
1100
0000
0011
0000
,
1001
0000
0000
1001
0000
0120
0000
0000
,
0130
0010
0100
0001
,
1001
0000
1000
0100
,
0010
0001
0010
0001
,
1000
0001
1002
0000
,
1003
0100
1000
0100
,
0001
0100
0001
0100
,
1000
0000
0100
0000
0001
0000
0100
1000
,
0000
0001
0000
1000
0000
0001
1000
0000
,
2002
3003
0100
0010
,
2002
3003
0010
0100
,
1001
0000
1000
1000
,
0001
0010
0100
1000
,
2020
3030
0101
0000
,
1100
0000
0011
0000
,
1001
0000
0110
0000
,
2002
0000
3003
0000
,
0001
0001
0100
0010
,
1000
1000
0100
0010
,
0001
0001
0010
0100
,
1000
1000
0001
0100
,
0010
0010
0100
0001
,
1000
1000
0100
0010
,
0100
0100
1000
0001
,
1001
0000
0000
0000
0000
0110
0000
0000
,
2002
0000
3003
0000
,
2001
0000
0000
0000
0000
0000
0000
0010
,
0000
0010
0000
0020
0000
0000
3030
0000
,
0100
0010
0100
0010
,
1000
0001
2001
0000
,
3001
0010
0001
0010
,
1000
0010
1000
0010
,
0001
0000
0010
0000
1000
0000
0010
0001
,
0000
1000
0000
0001
0000
1000
0001
0000
,
2002
3003
0100
0010
,
2002
3003
0010
0100
,
1000
0000
0001
0000
1000
0000
1000
0010
,
0000
0010
0000
0020
0000
0000
1030
0000
,
0001
0001
0100
0100
,
0010
0010
1000
1000
,
0002
0013
0200
1300
,
1001
0110
2001
0000
,
3001
0000
0001
1000
0000
1000
0000
1000
,
0000
1001
0000
0000
;

//---------------dance-double - ----------------
#NOTES:
     dance-double:
     :
     Hard:
     9:
     0.638549,0.660000,0.296296,0.270899,0.270899,528.000000,493.000000,35.000000,32.000000,0.000000,0.000000,0.638549,0.660000,0.296296,0.270899,0.270899,528.000000,493.000000,35.000000,32.000000,0.000000,0.000000:
// measure 0
00000000
00000000
00000000
00000000
,  // measure 1
00000000
00000000
00000000
00000000
,  // measure 2
00010000
10000000
00010000
00100000
00010000
00100000
00001000
00010000
,  // measure 3
00001000
00010000
00000100
00000010
00000001
00000100
00000010
00000000
,  // measure 4
00001000
00000001
00001000
00000100
00010000
00001000
01000000
00010000
,  // measure 5
10000000
00000000
00100000
10000000
01000000
00100000
00010000
01000000
,  // measure 6
00001000
00000000
00010000
00001000
00000100
00000001
00001000
00000010
,  // measure 7
00000000
00010010
00000000
00001000
00010000
00100000
10000000
00000000
,  // measure 8
00010000
00000000
10000000
00000000
01000000
00000000
00100000
00001000
00000000
00010000
00001000
00000000
00010000
00000000
00000010
00001000
,  // measure 9
00000001
00001000
00000000
00001000
00000100
00000000
00000100
00000010
00000000
00000010
00000001
00000000
00001000
00000000
00000100
00000000
,  // measure 10
00010000
00000000
00001000
00000000
01000000
00000000
00010000
10000000
00000000
10000000
01000000
00000000
00010000
00000000
00010000
00000000
,  // measure 11
00001000
00010000
00000000
00010000
00000100
00000010
00000000
00000001
00000000
00000001
00000100
00000000
00000010
00000000
00000010
00000000
,  // measure 12
00001000
00000000
00000001
00000000
00000100
00000000
00000010
00010000
00000000
00001000
00010000
00000000
00001000
00000000
00100000
00010000
,  // measure 13
10000000
00010000
00000000
00010000
01000000
00000000
01000000
00100000
00000000
00100000
10000000
00000000
00010000
00000000
01000000
00000000
,  // measure 14
00001000
00000000
00010000
00000000
00000100
00000000
00001000
00000001
00000000
00000001
00000100
00000000
00001000
00000000
00001000
00000000
,  // measure 15
00011000
00000000
00000000
00000000
00000000
02200000
00000000
03300000
,  // measure 16
10000000
00010000
10000000
01000000
00000000
00010000
00000000
00001000
,  // measure 17
00000000
00000100
00000001
00001000
00000000
00000220
00000000
00000330
,  // measure 18
00000001
00001000
00000001
00000100
00000000
00001000
00000000
00010000
,  // measure 19
00000000
01000000
10000000
00010000
00000000
20020000
00000000
30030000
,  // measure 20
10000000
01000000
00010000
00002000
00000000
00203000
00000000
00320000
,  // measure 21
00000000
00031000
00000100
00000010
00000000
00000001
00001000
00000100
,  // measure 22
00000020
00002030
00203000
00302000
,  // measure 23
00003010
00000000
00000000
00000000
00000001
00000010
00000100
00001000
,  // measure 24
00000001
00000000
00000000
00000001
00000100
00000000
00000000
00000100
00001000
00000000
00000000
00001000
00010000
00000000
00000000
00010000
,  // measure 25
01000000
00000000
00000000
01000000
10000000
00000000
00000000
10000000
00010000
00000000
00000000
00000000
01100000
00000000
00000000
00000000
,  // measure 26
00000000
10000000
00010000
00000000
01000000
00100000
00010000
00001000
,  // measure 27
00000000
00000110
00000000
00001000
00000001
00000100
00001000
00010000
,  // measure 28
01000000
00000000
00000000
01000000
10000000
00000000
00000000
10000000
00100000
00000000
00000000
00100000
00010000
00000000
00000000
00010000
,  // measure 29
00001000
00000000
00000000
00001000
00000010
00000000
00000000
00000010
00000001
00000000
00000000
00000001
00001000
00000000
00000000
00001000
,  // measure 30
00000200
00010300
02000000
03010000
,  // measure 31
00011000
00000000
00000000
01001000
00000000
00000000
01010000
00000000
00000000
00000000
20020000
00000000
00000000
00000000
30030000
00000000
,  // measure 32
10000000
01000000
00100000
01000000
00010000
00001000
00000100
00000010
,  // measure 33
00000100
00000001
00000010
00001000
00000010
00000001
00000100
00000010
,  // measure 34
00010000
00001000
00000100
00001000
00010000
00001000
01000000
00010000
,  // measure 35
10000000
01000000
00010000
00001000
00000100
00000001
00001000
00000000
,  // measure 36
00000001
00001000
00000100
00000010
00000100
00010000
00001000
00000010
,  // measure 37
00001000
00010000
00000100
00010000
00001000
00010000
00100000
00010000
,  // measure 38
00001000
00100000
00010000
10000000
01000000
00010000
00001000
00101000
,  // measure 39
00000000
01010000
00000000
10010000
00000000
10000000
01000000
00010000
,  // measure 40
00001000
00000000
00000000
00000011
00000000
00000001
00000100
00001000
,  // measure 41
00010000
00000000
00000000
11000000
00000000
10000000
00100000
00010000
,  // measure 42
00001000
00000100
00001000
00000000
00010000
01000000
00010000
00000000
,  // measure 43
00001000
00000100
00000001
00002000
00000000
00003200
00000000
00010300
,  // measure 44
00002000
00203000
00310000
10000000
,  // measure 45
00010000
00000000
00000000
00000000
00010000
00000000
00000000
00000000
01000000
00000000
00000000
00001000
00000000
00000000
00010000
00000000
,  // measure 46
00000010
00001000
00000001
00000100
00002000
00000000
00023000
00000000
,  // measure 47
01030000
00000000
00000000
01000000
00100000
00000000
10010000
00000000
,  // measure 48
00010000
00000000
10000000
00000000
01000000
00000000
00100000
00001000
00000000
00010000
00001000
00000000
00010000
00000000
00000010
00001000
,  // measure 49
00000001
00001000
00000000
00001000
00000100
00000000
00000100
00000010
00000000
00000010
00000001
00000000
00001000
00000000
00000100
00000000
,  // measure 50
00010000
00000000
00001000
00000000
01000000
00000000
00010000
10000000
00000000
10000000
01000000
00000000
00010000
00000000
00010000
00000000
,  // measure 51
00001000
00010000
00000000
00010000
00000100
00000010
00000000
00000001
00000000
00000001
00000100
00000000
00000010
00000000
00000010
00000000
,  // measure 52
00001000
00000000
00000001
00000000
00000100
00000000
00000010
00010000
00000000
00001000
00010000
00000000
00001000
00000000
00100000
00010000
,  // measure 53
10000000
00010000
00000000
00010000
01000000
00000000
01000000
00100000
00000000
00100000
10000000
00000000
00010000
00000000
01000000
00000000
,  // measure 54
00001000
00000000
00010000
00000000
00000100
00000000
00001000
00000001
00000000
00000001
00000100
00000000
00001000
00000000
00001000
00000000
,  // measure 55
00011000
00000000
00000000
00000000
00000000
02200000
00000000
03300000
,  // measure 56
20000000
00000000
00000000
00000000
00000000
00000000
00000000
00000000
30010000
00100000
00001000
00000000
00020000
00000000
00230000
00000000
,  // measure 57
10300000
01000000
00010000
00001000
00000000
00001010
00000000
00011000
,  // measure 58
00000000
00110000
00000000
00022000
00000000
00033000
00000000
00000000
,  // measure 59
00001000
00010000
01000000
00010000
00001000
00010000
00000100
00001000
,  // measure 60
00000001
00000100
00001000
00010000
01000000
10000000
00010000
00000000
,  // measure 61
10000000
00010000
01000000
00100000
01000000
00001000
00010000
00100000
,  // measure 62
00010000
00001000
01000000
00001000
00010000
00001000
00000010
00001000
,  // measure 63
00010000
00000010
00001000
00000001
00000100
00001000
00010000
00010010
,  // measure 64
00000000
00001100
00000000
00001001
00000000
00000001
00000100
00001000
,  // measure 65
00010000
00000000
00000000
10100000
00000000
10000000
01000000
00010000
,  // measure 66
00001000
00000000
00000000
00000101
00000000
00000001
00000010
00000100
,  // measure 67
00002000
00000000
00013000
00000000
00100000
00010000
10000000
01000000
,  // measure 68
00000000
01010000
00000000
00012000
00000000
00000000
00000100
00003100
,  // measure 69
00000001
00000010
00001000
00010000
00000100
00000010
00000100
00000001
,  // measure 70
00001000
00000010
00000100
00010000
00001000
00100000
00010000
01000000
,  // measure 71
10000000
00010000
00100000
10000000
01000000
00010000
00001000
00000100
,  // measure 72
00000001
00000010
00000100
00001000
00010000
00100000
01000000
10000000
,  // measure 73
11000000
11000000
10000000
10010000
00000000
00110000
00000000
00101000
,  // measure 74
00000000
00000000
00010000
00001000
00010000
00000000
00000000
00000000
00000000
00000000
00000000
00000000
00000000
00000000
00000000
00000000
;

//---------------dance-double - ----------------
#NOTES:
     dance-double:
     :
     Medium:
     7:
     0.476493,0.502857,0.237037,0.304762,0.004233,394.000000,366.000000,28.000000,36.000000,0.000000,0.000000,0.476493,0.502857,0.237037,0.304762,0.004233,394.000000,366.000000,28.000000,36.000000,0.000000,0.000000:
// measure 0
00000000
00000000
00000000
00000000
,  // measure 1
00000000
00000000
00000000
00000000
,  // measure 2
00001000
00000000
00010000
00000000
00000100
00000010
00000100
00000000
,  // measure 3
00001000
00000000
00000001
00000000
00000100
00001000
00010000
00000000
,  // measure 4
00100000
00000000
10000000
00000000
00010000
01000000
00010000
00000000
,  // measure 5
10000000
00000000
01000000
00000000
00100000
00001000
00010000
00000000
,  // measure 6
00000100
00000000
00000010
00000000
00000001
00000010
00000100
00001000
,  // measure 7
00000000
00001100
00000000
00020100
00000000
00000000
00000000
00000000
,  // measure 8
00031000
00000000
00001000
00100000
00010000
00100000
00001000
00000000
,  // measure 9
01000000
00010000
10000000
01000000
00000000
01000000
00010000
00000000
,  // measure 10
00001000
00010000
00000100
00000000
00000010
00000001
00001000
00000000
,  // measure 11
00000001
00000100
00000010
00010000
00001000
00000000
00011000
00000000
,  // measure 12
00001000
00000000
00001000
01000000
00010000
01000000
00001000
00000000
,  // measure 13
00100000
00010000
10000000
00100000
00000000
00100000
00010000
00000000
,  // measure 14
00001000
00010000
00000010
00000000
00000100
00000001
00001000
00000000
,  // measure 15
00001001
00000000
00000000
00000000
00000000
00000220
00000000
00000330
,  // measure 16
00000001
00001000
00000100
00000010
00000000
00000100
00000000
00010000
,  // measure 17
00000000
00001000
00000000
01000000
00000000
20020000
00000000
30030000
,  // measure 18
10000000
00010000
01000000
00100000
00000000
01000000
00000000
00001000
,  // measure 19
00000000
00010000
00010000
00000100
00000000
00000220
00000000
00000330
,  // measure 20
00001000
00000001
00000100
00001000
00000000
00010000
00000000
00000010
,  // measure 21
00000000
00001000
00000100
00010000
00000000
00001000
01000000
00000000
,  // measure 22
00020000
10000000
01000000
10030000
,  // measure 23
10010000
00000000
00000000
00000000
10000000
01000000
00010000
00001000
,  // measure 24
00000100
00000000
00000001
00000000
00001000
00000010
00001000
00000000
,  // measure 25
00000100
00000000
00010000
00000000
00001000
00100000
00010000
00000000
,  // measure 26
10000000
00000000
01000000
00000000
00010000
00001000
00010000
00000000
,  // measure 27
00000010
00000100
00000010
00000000
00001000
00000100
00000010
00000001
,  // measure 28
00001000
00000001
00000001
00001000
,  // measure 29
00001000
00010000
00010000
10000000
,  // measure 30
10010000
00000000
00011000
00000000
,  // measure 31
00001100
00000000
00000000
00000101
00000000
00000000
00000110
00000000
00000000
00000000
00002002
00000000
00000000
00000000
00003003
00000000
,  // measure 32
00001000
00000001
00000100
00001000
00000000
00010000
00000000
00200000
,  // measure 33
00000000
00300000
00000000
10000000
00000000
00010000
10000000
01000000
,  // measure 34
00010000
00000000
00001000
00200000
00000000
00302000
00000000
00023000
,  // measure 35
00000000
00030200
00000000
00000320
00000000
00000031
00001000
00000000
,  // measure 36
00000001
00000000
00001000
00000100
00001000
00000000
00000010
00000000
,  // measure 37
00010000
00001000
00010000
00000000
01000000
00100000
00010000
00000000
,  // measure 38
10000000
01000000
00010000
00000000
00001000
00000100
00000001
00001000
,  // measure 39
00000000
00001100
00000000
00010100
00000000
00010000
00001000
00100000
,  // measure 40
00010000
00000000
00000000
20000000
00000000
30010000
01000000
00001000
,  // measure 41
00010000
00000100
00000000
00002000
00000000
00003001
00000010
00001000
,  // measure 42
00010000
00010000
01000000
01000000
,  // measure 43
10000000
00100000
01000000
00010000
00000000
00100000
00000000
00001000
,  // measure 44
00010000
00000000
00010100
00000000
00000010
00000001
00001000
00000000
,  // measure 45
00000200
00000000
00020300
00000000
00031000
00100000
00010000
10000000
,  // measure 46
00020000
00100000
10000000
01030000
,  // measure 47
10010000
00000000
00000000
01000000
00001000
00000000
00011000
00000000
,  // measure 48
00010000
00000000
00010000
00000010
00001000
00000010
00010000
00000000
,  // measure 49
00000100
00001000
00000001
00000100
00000000
00000100
00001000
00000000
,  // measure 50
00010000
00001000
01000000
00000000
00100000
10000000
00010000
00000000
,  // measure 51
10000000
01000000
00100000
00001000
00010000
00000000
00011000
00000000
,  // measure 52
00010000
00000000
00010000
00000100
00001000
00000100
00010000
00000000
,  // measure 53
00000010
00001000
00000001
00000010
00000000
00000010
00001000
00000000
,  // measure 54
00010000
00001000
00100000
00000000
01000000
10000000
00010000
00000000
,  // measure 55
10010000
00000000
00000000
00000000
00000000
02200000
00000000
03300000
,  // measure 56
10000000
00000000
00000000
00000000
00020000
00000000
00000000
00030000
,  // measure 57
10000000
10000000
00010000
01000000
00000000
00001000
00000000
00010000
,  // measure 58
00000000
00000100
00000000
00000020
00000000
00000030
00000000
00000000
,  // measure 59
00001000
00000000
00010000
00000020
00000000
00020030
00000000
00032000
,  // measure 60
00000000
02003000
00000000
03200000
00000000
10300000
00010000
00000000
,  // measure 61
10000000
00000000
00010000
01000000
00010000
00000000
00100000
00000000
,  // measure 62
00001000
00010000
00001000
00000000
00000100
00000010
00001000
00000000
,  // measure 63
00000001
00000100
00001000
00000000
00010000
01000000
10000000
00010000
,  // measure 64
00000000
01010000
00000000
01001000
00000000
00001000
00010000
00000010
,  // measure 65
00001000
00000000
00000000
00000002
00000000
00001003
00000100
00010000
,  // measure 66
00001000
01000000
00000000
00020000
00000000
10030000
00100000
00010000
,  // measure 67
00001000
00000000
00001000
00000000
00000100
00000001
00001000
00000001
,  // measure 68
00000000
00000011
00000000
00002200
00000000
00000000
00003300
00000000
,  // measure 69
00000001
00000000
00001000
00000010
00001000
00000000
00000100
00000000
,  // measure 70
00010000
00001000
00100000
00010000
10000000
01000000
00010000
00000000
,  // measure 71
00002000
00003100
00000002
00000103
,  // measure 72
00001000
00010000
00001000
00010000
00100000
00010000
00100000
01000000
,  // measure 73
00100000
00100000
10000000
00100000
00000000
01010000
00000000
01001000
,  // measure 74
00000000
00001000
00010000
00000000
00000000
00000000
00000000
00000000
;

//---------------dance-double - ----------------
#NOTES:
     dance-double:
     :
     Easy:
     4:
     0.315646,0.314286,0.160847,0.194709,0.000000,261.000000,242.000000,19.000000,23.000000,0.000000,0.000000,0.315646,0.314286,0.160847,0.194709,0.000000,261.000000,242.000000,19.000000,23.000000,0.000000,0.000000:
00000000
00000000
00000000
00000000
,
00000000
00000000
00000000
00000000
,
00010000
00010000
00001000
00001000
,
00100000
01000000
02200000
03300000
,
00010000
10000000
01000000
01000000
,
00010000
00001000
00010000
00010000
,
00000100
00000010
00000001
00001000
,
00000001
00000100
00002000
00000000
,
00013000
00010000
01000000
01000000
,
10000000
10000000
00100000
00100000
,
00010000
00010000
00001000
00001000
,
00000100
00000000
00000010
00010000
,
00001000
00001000
00000100
00000100
,
00000001
00000001
00000010
00000010
,
00001000
00001000
00010000
00010000
,
01000000
00000000
00000000
00000000
00000000
20020000
00000000
30030000
,
01000000
00000000
01000000
00000000
,
00001000
00010000
00001000
00000000
,
00000100
00000000
00000100
00000000
,
00000001
00000010
00000001
00000010
,
00000001
00000100
00000010
00001000
,
00000100
00010000
00001000
00100000
,
00010000
00010000
10000000
10000000
,
10010000
00000000
00100000
00100000
,
00002000
00000000
00013000
00010000
,
00000010
00001000
00002000
00000000
,
00003001
00000010
00000100
00010000
,
00001000
01000000
00020000
00000000
,
10030000
00100000
10000000
00100000
,
01000000
00001000
01000000
00001000
,
00011000
00000000
00001010
00000000
,
00000022
00000000
00000000
00000033
00000000
00001001
00000000
00000000
,
00001000
00000001
00000100
00000010
,
00010010
00000000
00001000
00001000
,
00100000
00010000
10000000
01000000
,
00010000
00001000
00011000
00000000
,
00000100
00000001
00000010
00001000
,
00010000
00000000
01000000
01000000
,
10000000
00000000
00100000
00010000
,
00001000
00000010
00001000
00010000
,
02000000
00000000
03010000
00001000
,
00000200
00000000
00000301
00000001
,
00001000
00000000
00000100
00010000
,
00001000
00100000
00010000
10000000
,
10010000
00000000
01010000
00000000
,
01001000
00000000
00011000
00000000
,
00010100
00000000
00000010
00000010
,
00002002
00003003
00000220
00000330
,
00001000
00001000
00000100
00000100
,
00000001
00000001
00000010
00000010
,
00001000
00001000
00010000
00010000
,
01000000
00000000
00100000
00001000
,
00010000
00010000
01000000
01000000
,
10000000
10000000
00100000
00100000
,
00010000
00010000
00001000
00001000
,
00000100
00000000
00000000
00000000
00000000
00000210
00000000
00000000
,
00000310
00000000
00000000
00000000
,
00021000
00000000
00000000
00000000
00000000
00000000
00000000
01000000
,
00000000
01000000
00000000
02000000
00000000
00000000
03030000
00000000
,
00100000
00010000
10000000
01000000
,
00010000
00001000
00011000
00000000
,
00000100
00000001
00000010
00001000
,
00010000
00000000
01000000
01000000
,
10000000
00000000
00100000
00010000
,
00001000
00000010
00001000
00010000
,
02000000
00000000
03010000
00001000
,
00000200
00000000
00000301
00000001
,
00001000
00000000
00001000
00000000
00000100
00000000
00000000
00010000
,
00000000
00010000
00000000
00002000
00000000
00000000
00103000
00000000
,
00010000
00010000
01000000
01000000
,
00100000
00100000
10000000
10000000
,
01000000
00010000
00001000
00000100
,
00001000
00010000
00200000
00300000
,
00010000
00000000
00001000
00010000
00000000
00000100
00000000
00010000
,
00000000
00001000
00010000
00000000
00000000
00000000
00000000
00000000
;
