#TITLE:We're so Happy;
#SUBTITLE:;
#ARTIST:Ryu☆;
#TITLETRANSLIT:;
#SUBTITLETRANSLIT:;
#ARTISTTRANSLIT:;
#GENRE:;
#CREDIT:;
#BANNER:We're So Happy.png;
#BACKGROUND:We're So Happy-bg.png;
#LYRICSPATH:;
#CDTITLE:;
#MUSIC:We're So Happy.ogg;
#OFFSET:-0.139700;
#SAMPLESTART:57.221001;
#SAMPLELENGTH:15.000000;
#SELECTABLE:YES;
#BPMS:0.000000=185.000000
,101.000000=92.500000
,117.000000=185.000000
;
#STOPS:36.000000=0.973000,
149.000000=0.973000
;
#BGCHANGES:;
#KEYSOUNDS:;
#ATTACKS:;

//---------------dance-single - ----------------
#NOTES:
     dance-single:
     :
     Hard:
     9:
     0.569228,0.813130,0.328143,0.062503,0.097662,510.000000,468.000000,42.000000,8.000000,0.000000,0.000000,0.569228,0.813130,0.328143,0.062503,0.097662,510.000000,468.000000,42.000000,8.000000,0.000000,0.000000:
0000
0000
0000
0000
,
0000
0000
0000
0000
,
0000
0000
0000
0000
,
0000
0000
0000
0000
,
0000
0000
0000
0000
,
0002
0000
0000
0000
,
0000
0000
0000
0000
,
2000
0000
0000
0000
,
0000
0000
0000
0000
,
3003
0000
0011
0000
0100
0000
1000
0100
,
0010
0000
0001
0100
0010
0000
1000
0100
,
0001
0000
0100
1000
0010
0100
0000
0001
,
1000
0100
0001
0100
1000
0010
0100
0000
,
1001
0000
1010
0000
0100
0000
0001
0100
,
0010
0000
1000
0100
0010
0000
0001
0100
,
1000
0000
0100
0001
0010
0100
0000
1000
,
0001
0100
1000
0000
1100
0000
0101
0000
,
0110
0000
1000
0100
0010
0100
1000
0010
,
0100
0010
1000
0100
0010
0001
0100
0010
,
1000
0000
0001
0100
0010
1000
0001
0010
,
0100
1000
0001
0100
0010
0100
0001
1000
,
0100
0000
0010
0001
0100
0010
0100
0001
,
1000
0100
0010
0001
0000
0100
0000
0100
,
0000
0100
0000
0100
0000
0010
1000
0010
,
0001
0010
2000
0000
0000
0000
0000
0000
,
3000
0000
0000
0000
0001
0000
0000
0100
0000
0100
0000
0100
0000
0001
0000
0010
,
0000
0001
1000
0000
1000
0000
0000
0100
0000
0100
0000
0100
0000
1000
0000
0010
,
0000
1000
0001
0000
0100
0010
1000
0100
0000
0001
0000
0100
0000
1000
0000
0010
,
0100
0001
0010
0000
0100
0010
0001
0100
0000
1000
0000
0100
0000
0001
0000
1000
,
0001
1001
0010
0000
0010
0000
0010
0000
,
0010
0100
0100
0100
,
0100
0001
0001
0001
,
0001
1000
1000
1000
,
1000
0000
0010
1000
0100
0000
0010
0001
,
0100
0000
0010
1000
0100
0000
0010
0001
,
0100
0000
0001
0100
1000
0100
0001
0010
,
1000
0010
0001
0100
1000
0100
0001
0010
,
1000
0000
0000
0000
0000
0000
0000
0000
0010
0000
0000
0000
0000
0000
0000
0000
0002
0003
0000
0000
0000
0000
0000
0000
0000
0000
0000
0000
0000
0000
0000
0000
0011
0000
0000
0000
0000
0000
0000
0000
0000
0000
0000
0000
0000
0000
0000
0000
1010
0000
0000
0000
0000
0000
0000
0000
0000
0000
0000
0000
0000
0000
0000
0000
,
1100
0101
1010
0100
,
0001
0100
0010
0000
1000
0100
0010
0000
,
0001
0100
1000
0000
0100
0001
0010
0100
,
0000
1000
0001
0100
1000
0100
0001
0010
,
0100
1001
0011
0100
,
1000
0100
0010
0000
0001
0100
0010
0000
,
1000
0100
0001
0000
0100
1000
0010
0100
,
0000
0001
1000
0100
0001
0000
0101
0000
,
1100
0000
0110
0000
0001
0100
0010
0100
,
0001
0010
0100
0010
0001
0100
0010
1000
,
0100
0010
0001
0000
1000
0100
0010
0001
,
1000
0010
0100
0001
1000
0100
0010
0100
,
1000
0001
0100
0000
0001
0100
1000
0000
,
0100
0000
0100
0000
1000
0100
0001
0000
,
0010
0000
0010
0000
0100
1000
0010
0100
,
0001
0010
0100
0000
1010
0000
0011
0000
,
0101
0000
1100
0000
1000
0010
0001
0000
,
1000
0000
0100
0000
0010
1000
0100
0010
,
0001
0100
0100
0000
0001
0010
1000
0000
,
0001
0000
0100
0000
0010
0001
0100
0010
,
1000
0100
0100
0000
0010
0001
0100
1000
,
0100
0001
1000
0100
0001
0100
1000
0010
,
0100
0001
1000
0100
0001
0100
1000
0001
,
0100
1000
0100
0001
0010
0100
1000
0010
,
0100
0001
0010
0000
2002
0000
0000
0000
,
0000
0000
0000
0000
,
0000
0000
0000
0000
,
0000
0000
0000
0000
,
3003
0000
1001
0100
,
0100
0100
1001
0010
,
0010
0010
0011
0100
,
1010
0100
0011
1010
,
1100
0101
1001
0000
,
0110
0000
0000
0000
0001
0100
1000
0100
,
0001
0000
1001
0000
1000
0100
0010
0001
,
0100
1000
0100
0001
0010
0100
1000
0010
,
0100
0001
1000
0000
0001
0100
0010
1000
,
0100
0001
1000
0010
0001
0100
0010
1000
,
0001
0100
1000
0100
0001
0000
0010
0000
,
0100
1000
0010
0000
0100
0000
0001
0000
,
0010
0001
0100
0000
1000
0100
0001
0000
,
0010
0100
0010
0000
0110
0000
1001
0000
,
0101
0000
1010
0000
0001
0100
0010
1000
,
0100
0001
0100
1000
0010
0100
0001
0010
,
0100
1000
0001
0000
1000
0100
0010
0001
,
0100
1000
0001
0010
1000
0100
0010
0001
,
1000
0100
0001
0100
1000
0000
0100
0000
,
0010
0000
0001
0000
1000
0100
0010
0100
,
0001
0100
1000
0010
0001
1000
0100
0001
,
0010
1000
0010
0001
0101
0000
1100
0000
,
1010
0011
2002
0000
,
0000
0000
0000
0000
,
0000
0000
3003
0000
;

//---------------dance-single - ----------------
#NOTES:
     dance-single:
     :
     Challenge:
     10:
     0.796919,1.166665,0.398459,0.062503,0.687538,714.000000,663.000000,51.000000,8.000000,0.000000,0.000000,0.796919,1.166665,0.398459,0.062503,0.687538,714.000000,663.000000,51.000000,8.000000,0.000000,0.000000:
// measure 0
0000
0000
0000
0000
,  // measure 1
0000
0000
0000
0000
,  // measure 2
0000
0000
0000
0000
,  // measure 3
0000
0000
0000
0000
,  // measure 4
0000
0000
0000
0000
,  // measure 5
2000
0000
0000
0000
,  // measure 6
0000
0000
0000
0000
,  // measure 7
0002
0000
0000
0000
,  // measure 8
0000
0000
0000
0000
,  // measure 9
3003
0000
1000
0100
0001
0000
1000
0010
,  // measure 10
0001
0000
0010
0100
1000
0001
0100
0010
,  // measure 11
1000
0000
0001
0100
1000
0000
0001
0010
,  // measure 12
1000
0000
0001
0100
0010
1000
0110
0000
,  // measure 13
1001
0000
0010
0001
0100
0000
0010
1000
,  // measure 14
0100
0000
1000
0010
0100
0001
0100
1000
,  // measure 15
0001
0010
1000
0100
0001
1000
0010
0001
,  // measure 16
0100
0100
0010
1000
1100
0000
0101
0000
,  // measure 17
1001
0000
0000
0000
0010
0000
1000
0000
0100
0000
0010
0000
0001
0100
0001
0100
,  // measure 18
0001
0010
1000
0010
0001
0100
0010
1000
,  // measure 19
0100
0010
0100
0000
1000
0000
0010
0000
0001
0000
0010
0000
1000
0001
1000
0001
,  // measure 20
1000
0000
0001
1000
0010
0000
1000
0001
0010
0000
0001
1000
0100
0000
1000
0001
,  // measure 21
0100
1000
0100
0001
0010
1000
0010
0001
,  // measure 22
0100
1000
0100
0001
0000
0101
0000
1010
,  // measure 23
0000
0110
0000
1001
0000
0001
0100
0100
,  // measure 24
0010
1000
0010
1000
0200
0000
0000
0000
0000
0000
0000
0000
0000
0000
0000
0000
,  // measure 25
0300
0000
0000
0000
1001
0100
0010
0001
0000
0100
0000
1000
0000
0100
0000
0001
,  // measure 26
0000
0010
0001
0000
1001
0100
0010
1000
0000
0100
0000
0001
0000
0100
0000
1000
,  // measure 27
0000
0010
1000
0100
0010
0001
0100
0010
1000
0001
0000
0100
0000
0010
0000
1000
,  // measure 28
0000
0001
0100
0010
1000
0010
1000
0001
0010
0001
0010
0100
1000
0100
1000
0010
,  // measure 29
0100
0010
0100
0001
1000
0000
0100
0000
1000
0100
0000
1000
0000
0001
0100
0000
,  // measure 30
0101
0000
0000
0000
0001
0000
0100
0000
0001
0100
0000
0001
0000
1000
0100
0000
,  // measure 31
1100
0000
0000
0000
0010
0000
0001
0000
0100
0010
0000
1000
0000
0001
0010
0000
,  // measure 32
0011
0000
1001
0000
0010
0000
1000
0000
0100
0010
0000
0001
0000
1000
0010
0000
,  // measure 33
1010
0000
0001
0100
1000
0100
0001
0010
,  // measure 34
1000
0010
0001
0001
0100
0100
0010
0010
,  // measure 35
1000
0000
1000
0000
0001
0010
0001
0010
0100
1000
0100
1000
0001
0100
0001
0100
,  // measure 36
0010
1000
0010
1000
0001
0010
0100
1000
0010
0100
0001
0010
0100
1000
0010
0100
,  // measure 37
0001
0000
0000
0000
0010
0000
0000
0000
0100
0000
0000
0000
1000
0000
0000
0000
0002
0003
0000
0000
0000
0000
0000
0000
0000
0000
0000
0000
0000
0000
0000
0000
1100
0000
0000
0000
0000
0000
0000
0000
0000
0000
0000
0000
0000
0000
0000
0000
0101
0000
0000
0000
0000
0000
0000
0000
0000
0000
0000
0000
0000
0000
0000
0000
,  // measure 38
0011
0000
0000
0000
1010
0000
0000
0000
1000
0000
0100
0000
0010
0000
0001
0100
,  // measure 39
0001
0100
0010
0100
0001
0000
1000
0000
0100
0000
0010
0000
0001
0000
0100
0010
,  // measure 40
1000
0000
0100
0000
0010
0001
1000
0000
0001
0000
0100
0000
0010
0000
1000
0100
,  // measure 41
1000
0100
0010
0100
1000
0000
0001
0000
0100
0000
0010
0000
1000
0000
0100
0010
,  // measure 42
0001
0000
0100
0000
1001
0000
0000
0000
0010
0000
1000
0000
0001
0000
1000
0100
,  // measure 43
0010
0000
0100
0000
0001
0000
1000
0000
0010
0000
0001
0000
0010
0000
0100
1000
,  // measure 44
0001
0000
0100
0000
0001
1000
0100
0000
0010
0000
0001
0100
0001
0000
1000
0100
,  // measure 45
1000
0000
0001
0100
0001
0000
1000
0100
1000
0000
0010
0000
0001
0000
1000
0000
,  // measure 46
0100
0000
0001
0000
1001
0000
0000
0000
0001
0000
0100
0000
0010
0000
1000
0100
,  // measure 47
1000
0100
0010
0100
1000
0000
0001
0000
0100
0000
0010
0000
1000
0000
0100
0010
,  // measure 48
0001
0000
0100
0000
0010
1000
0001
0000
1000
0000
0100
0000
0010
0000
0001
0100
,  // measure 49
0001
0100
0010
0100
0001
0000
1000
0000
0100
0000
0010
0000
0001
0000
0100
0010
,  // measure 50
1000
0000
0100
0000
1001
0000
0000
0000
0010
0000
0001
0000
1000
0000
0001
0100
,  // measure 51
0010
0000
0100
0000
1000
0000
0001
0000
0010
0000
1000
0000
0010
0000
0001
1000
,  // measure 52
0010
0000
1000
0001
0010
0000
0100
1000
0010
0000
0100
0001
0010
0000
0100
1000
,  // measure 53
0001
0000
0100
0001
1000
0000
0001
0000
0010
0100
0010
0000
0110
0000
0000
0000
,  // measure 54
1001
0000
0000
0000
1010
0000
0000
0000
0100
0000
0001
1000
0000
0100
0010
0100
,  // measure 55
0000
1000
0001
0000
0010
0000
0100
0000
1000
0000
0010
0100
0000
0001
0000
1000
,  // measure 56
0000
0010
0000
0100
0001
0010
0100
1000
0010
0000
1000
0001
0000
0100
0010
1000
,  // measure 57
0000
1000
0100
0000
0010
0000
0001
0000
1000
0000
0010
0100
0000
0001
0000
1000
,  // measure 58
0000
0100
0010
0001
0010
0000
0000
0000
0100
0000
1000
0001
0000
0100
0010
0100
,  // measure 59
0000
0001
1000
0000
0010
0000
0100
0000
0001
0000
0010
0100
0000
1000
0000
0001
,  // measure 60
0000
0010
0000
0100
1000
0010
0100
0001
0010
0000
0010
0000
0000
0000
0000
0000
,  // measure 61
0100
0000
0100
0000
0000
0000
0000
0000
1000
0010
1000
0010
0000
0100
0000
0001
,  // measure 62
0010
0100
1000
0010
0100
0000
0000
0000
2002
0000
0000
0000
0000
0000
0000
0000
,  // measure 63
0000
0000
0000
0000
,  // measure 64
0000
0000
0000
0000
,  // measure 65
0000
0000
0000
0000
,  // measure 66
3003
0000
1001
0100
,  // measure 67
0100
0100
1001
0010
,  // measure 68
0010
0000
0010
0000
1010
1000
0100
0000
,  // measure 69
0011
0001
0100
0000
1010
0000
0011
0000
,  // measure 70
0101
0000
1100
0000
0110
0110
0000
0000
,  // measure 71
0001
1000
0001
0000
0011
0000
0000
0000
1000
0010
0100
0010
1000
0010
0100
0010
,  // measure 72
1000
0000
0000
0000
1001
0000
0000
0000
0001
0000
0100
0000
0010
0000
1000
0100
,  // measure 73
1000
0100
0010
0100
1000
0000
0001
0000
0100
0000
0010
0000
1000
0000
0100
0010
,  // measure 74
0001
0000
0100
0000
0010
1000
0001
0000
1000
0000
0100
0000
0010
0000
0001
0100
,  // measure 75
0001
0100
0010
0100
0001
0000
1000
0000
0100
0000
0010
0000
0001
0000
0100
0010
,  // measure 76
1000
0000
0100
0000
1001
0000
0000
0000
0010
0000
0001
0000
1000
0000
0001
0100
,  // measure 77
0010
0000
0100
0000
1000
0000
0001
0000
0010
0000
1000
0000
0010
0000
0100
0001
,  // measure 78
1000
0000
0100
0000
1000
0001
0100
0000
0010
0000
1000
0100
1000
0000
0001
0100
,  // measure 79
0001
0000
1000
0100
1000
0000
0001
0100
0001
0000
0010
0000
1000
0000
0001
0000
,  // measure 80
0100
0000
1000
0000
1001
0000
0000
0000
1000
0000
0100
0000
0010
0000
0001
0100
,  // measure 81
0001
0100
0010
0100
0001
0000
1000
0000
0100
0000
0010
0000
0001
0000
0100
0010
,  // measure 82
1000
0000
0100
0000
0010
0001
1000
0000
0001
0000
0100
0000
0010
0000
1000
0100
,  // measure 83
1000
0100
0010
0100
1000
0000
0001
0000
0100
0000
0010
0000
1000
0000
0100
0010
,  // measure 84
0001
0000
0100
0000
1001
0000
0000
0000
0001
0000
0100
0000
0001
0100
0000
0001
,  // measure 85
0000
1000
0100
0000
1100
0000
0000
0000
1000
0000
0100
0000
1000
0100
0000
1000
,  // measure 86
0000
0001
0100
0000
0101
0000
0000
0000
0011
0000
0001
0000
0100
0000
0000
0000
,  // measure 87
1010
1000
0100
0000
0011
0000
1010
0000
,  // measure 88
1100
0101
2002
0000
,  // measure 89
0000
0000
0000
0000
,  // measure 90
0000
0000
3003
0000
;

//---------------dance-single - ----------------
#NOTES:
     dance-single:
     :
     Medium:
     7:
     0.453150,0.601009,0.273452,0.078129,0.000000,406.000000,371.000000,35.000000,10.000000,0.000000,0.000000,0.453150,0.601009,0.273452,0.078129,0.000000,406.000000,371.000000,35.000000,10.000000,0.000000,0.000000:
0000
0000
0000
0000
,
0000
0000
0000
0000
,
0000
0000
0000
0000
,
0000
0000
0000
0000
,
0000
0000
0000
0000
,
0020
0000
0000
0000
,
0000
0000
0000
0000
,
0200
0000
0000
0000
,
0000
0000
0000
0000
,
0330
0001
0010
1000
,
0010
0000
0001
0000
0100
0000
0010
1000
,
0010
1000
0100
0001
,
0100
1000
0010
0100
,
1001
1000
0010
0001
,
0010
0000
1000
0000
0100
0000
0010
0001
,
0010
0001
0100
1000
,
0100
0002
0000
0010
,
0013
0000
0001
0000
0100
0000
0010
1000
,
0010
0000
1000
0000
0001
0000
0100
0001
,
0100
0001
1000
0000
0100
0000
0010
0000
,
0001
0000
0100
0000
0010
1000
0100
0000
,
0010
0001
0001
0001
,
0001
1000
1000
1000
,
1000
0100
0100
0100
,
0100
2002
0000
0000
,
3003
0000
0010
0000
1000
0000
0001
0001
,
0010
0100
1000
0000
0010
0000
0100
0100
,
0001
0010
0100
0000
1000
0000
0001
0001
,
0100
0010
1000
0000
0100
0000
0010
0001
,
0100
0010
1000
0010
1000
0010
1000
0000
,
1001
0000
0001
0010
0001
0010
0001
0000
,
1001
0000
1000
0100
0001
0000
0100
0000
,
1000
0000
0001
0100
1000
0000
0100
0000
,
0001
0000
1000
0100
0001
0000
0001
0100
,
1000
0000
1000
0010
0001
0000
0001
0010
,
1000
0000
0001
0010
0001
0010
0100
1000
,
0100
1000
0001
0100
0001
0100
0010
1000
,
0010
0000
0000
0000
0000
0000
0000
0000
1000
0000
0000
0000
0000
0000
0000
0000
0002
0003
0000
0000
0000
0000
0000
0000
0000
0000
0000
0000
0000
0000
0000
0000
0110
0000
0000
0000
0000
0000
0000
0000
0000
0000
0000
0000
0000
0000
0000
0000
1001
0000
0000
0000
0000
0000
0000
0000
0000
0000
0000
0000
0000
0000
0000
0000
,
0110
0000
1001
0000
1000
0100
0010
0000
,
0001
0000
0100
0000
0010
1000
0010
1000
,
0100
0000
0010
0000
0001
0100
0010
0000
,
1000
0000
0100
0000
0010
0001
0010
0001
,
0100
0000
0010
0000
1000
0100
0001
0000
,
0100
0000
1000
0000
0001
0100
1000
0000
,
0100
0001
0010
1000
,
0100
0001
0010
1000
,
0100
0000
0001
0000
1000
0100
1000
0100
,
0010
0000
0001
0000
0010
0100
0010
0000
,
0001
0000
1000
0000
0001
0100
0001
0100
,
0010
0000
1000
0000
0010
0100
0010
0000
,
1000
0000
0001
0000
0010
0001
0100
0000
,
0001
0000
1000
0000
0010
1000
0100
0000
,
1000
0001
1000
1010
,
0001
0011
0110
1001
,
0110
0000
1001
0000
1000
0100
1000
0000
,
0001
0000
0010
0000
0001
0100
0001
0000
,
1000
0000
0010
0000
1000
0010
1000
0000
,
0001
0000
0100
0000
0001
0010
0001
0000
,
1000
0000
0010
0000
1000
0100
1000
0100
,
1000
0100
0010
0000
0001
0100
0001
0100
,
0001
0100
0010
0000
1000
1000
0000
0000
,
0001
0001
0000
0000
1001
0000
0110
0000
,
1001
0110
1001
0000
,
0000
0000
0000
0000
,
0000
0000
0000
0000
,
0000
0000
0000
0000
,
0000
0000
1001
0100
,
0100
0100
1001
0010
,
0010
0010
1010
0000
,
0101
0000
1001
0110
,
1001
0110
1001
0000
,
0110
0000
2002
0000
,
0000
0000
3003
0000
0001
0100
0010
0000
,
1000
0000
0100
0000
0010
0001
0010
0001
,
0100
0000
0010
0000
1000
0100
0010
0000
,
0001
0000
0100
0000
0010
1000
0010
1000
,
0100
0000
0010
0000
0001
0100
1000
0000
,
0100
0000
0001
0000
1000
0100
0001
0000
,
0100
1000
0010
0001
,
0100
1000
0010
0001
,
0100
0000
1000
0000
0001
0100
0001
0100
,
0010
0000
1000
0000
0010
0100
0010
0000
,
1000
0000
0001
0000
1000
0100
1000
0100
,
0010
0000
0001
0000
0010
0100
0010
0000
,
0001
0000
1000
0000
0010
1000
0100
0000
,
1000
0000
0001
0000
0010
0001
0010
0001
,
1000
0010
1000
0010
0100
0100
0000
0000
,
0010
0010
0000
0000
1001
0000
0110
0000
,
1001
0110
2002
0000
,
0000
0000
0000
0000
,
0000
0000
3003
0000
;

//---------------dance-single - ----------------
#NOTES:
     dance-single:
     :
     Easy:
     5:
     0.280149,0.388888,0.156259,0.195323,0.000000,251.000000,231.000000,20.000000,25.000000,0.000000,0.000000,0.280149,0.388888,0.156259,0.195323,0.000000,251.000000,231.000000,20.000000,25.000000,0.000000,0.000000:
0000
0000
0000
0000
,
0000
0000
0000
0000
,
0000
0000
0000
0000
,
0000
0000
0000
0000
,
0000
0000
0000
0000
,
2000
0000
0000
0000
,
0000
0000
0000
0000
,
3002
0000
0000
0000
,
0000
0000
0000
0000
,
0003
1000
0100
1000
,
0100
1000
0000
0001
,
0001
0010
0001
0100
,
1000
0100
0001
0010
,
0010
0001
0100
0001
,
0100
0001
0000
1000
,
1000
0010
0000
0100
,
0010
0100
0000
0001
,
0001
1000
0100
0010
,
0001
1000
0000
0010
,
0100
0001
0100
0010
,
1000
0001
0000
0100
,
0010
1000
0000
0001
,
0000
0100
0100
0010
,
0010
0200
0000
0000
,
0000
0020
0000
0000
,
0330
0002
0000
0000
,
0000
2003
0000
0000
,
0000
0000
3100
0000
0010
0000
0001
1000
,
0001
1000
0002
0000
0000
0000
0000
0000
,
0000
1003
1000
0200
,
0300
0001
0001
0200
,
0300
1100
0000
0000
,
0000
0101
0000
0000
,
0000
0110
0000
1001
,
0000
1000
0001
1000
,
0001
0010
0100
0010
,
0100
1000
0001
1000
,
0001
1001
0010
0100
,
0100
0100
0001
0010
,
1000
0010
0002
0000
,
1000
1003
0100
0010
,
0001
0100
0020
0000
,
1000
1030
0001
0010
,
0100
1000
0001
0100
,
0010
1000
0200
0000
,
0000
0000
0310
0011
,
0100
1100
1000
0010
,
0001
0010
2000
0000
,
0001
3001
0100
0010
,
1000
0100
0020
0000
,
0001
0031
1000
0010
,
0100
0001
1000
0100
,
0010
0000
0001
0000
0200
0000
0000
0320
,
0000
1030
0001
1000
,
0001
1000
0001
0000
,
0100
0000
1000
0000
,
0010
0000
0001
0000
,
0100
0000
0010
0000
,
1000
0000
0001
0001
,
0010
0010
0100
0100
,
1000
1000
1010
0000
,
0101
0000
0110
1000
,
0001
1000
1001
0000
,
0000
0000
0000
0000
,
0000
0000
0000
0000
,
0000
0000
0000
0000
,
0000
0000
0101
0000
,
0000
0000
1100
0000
,
0000
0000
0110
0000
,
1001
0000
0200
0000
,
0000
0300
0010
0000
,
1000
0000
0002
0000
,
0000
0003
1000
0010
,
0001
0010
2000
0000
,
0001
3001
0100
0010
,
1000
0100
0020
0000
,
0001
0031
1000
0010
,
0100
0001
1000
0100
,
0010
0001
0200
0000
,
0000
0000
0310
1010
,
0100
0101
0001
0010
,
1000
0010
0002
0000
,
1000
1003
0100
0010
,
0001
0100
0020
0000
,
1000
1030
0001
0010
,
0001
0010
0100
1000
,
0100
1000
1100
0000
,
0101
0000
1000
0001
,
1000
0001
2002
0000
,
0000
0000
0000
0000
,
0000
0000
3003
0000
;

//---------------dance-single - ----------------
#NOTES:
     dance-single:
     :
     Beginner:
     3:
     0.164071,0.282828,0.046878,0.132820,0.000000,147.000000,141.000000,6.000000,17.000000,0.000000,0.000000,0.164071,0.282828,0.046878,0.132820,0.000000,147.000000,141.000000,6.000000,17.000000,0.000000,0.000000:
0000
0000
0000
0000
,
0000
0000
0000
0000
,
0000
0000
0000
0000
,
0000
0000
0000
0000
,
0000
0000
0000
0000
,
2000
0000
0000
0000
,
3000
0000
0000
0000
,
0002
0000
0000
0000
,
0003
0000
0000
0000
,
0000
1000
0000
0000
,
0000
0001
0000
0000
,
0000
0100
0000
0010
,
0000
1000
1000
1000
,
1000
0001
0000
0000
,
0000
1000
0000
0000
,
0000
0100
0000
0010
,
0000
0001
0001
0001
,
0000
1000
0000
1000
,
0000
0100
0000
0100
,
0000
0001
0000
0001
,
0000
0010
0010
0010
,
0000
0002
0000
0000
,
0000
0003
0100
0000
,
0100
0000
0200
0000
,
0000
0000
0000
0300
,
0000
0010
0000
0000
,
0000
1000
0000
0000
,
0000
0001
0000
0000
,
0000
0100
0000
0000
,
0000
2000
0000
0000
,
3000
0002
0000
0000
,
0003
0200
0000
0000
,
0300
0020
0000
0000
,
0030
1000
0000
1000
,
0000
0001
0000
0001
,
0000
2002
0000
0000
,
0000
0000
0000
0000
,
3003
0000
0000
0000
,
0000
0000
0010
0000
,
0010
0000
0001
0001
,
0001
0000
0010
0000
,
0010
0000
1000
1000
,
1000
0000
0100
0000
,
0001
0000
0010
0000
,
0001
0000
1001
0000
,
0000
0000
0100
0100
,
0100
0000
0010
0000
,
0010
0000
1000
1000
,
1000
0000
0010
0000
,
0010
0000
0001
0001
,
0001
0000
0100
0000
,
1000
0000
0010
0000
,
1000
0000
1001
0000
,
0000
0000
0010
0010
,
0010
0010
0100
0000
,
0000
0000
0001
0000
,
0000
0000
0010
0000
,
0000
0000
1000
0000
,
0000
0000
0020
0000
,
0000
0030
0200
0000
,
0000
0300
0010
0000
,
0100
0000
0001
0001
,
1000
1000
1001
0000
,
0000
0000
0000
0000
,
0000
0000
0000
0000
,
0000
0000
0000
0000
,
0000
0000
0010
0000
,
0000
0000
0010
0000
,
0000
0000
0010
0000
,
0010
0000
0100
0100
,
0100
0100
1000
0000
,
0001
0000
2000
0000
,
0000
3000
0010
0000
,
0010
0000
1000
1000
,
1000
0000
0010
0000
,
0010
0000
0001
0001
,
0001
0000
0100
0000
,
1000
0000
0010
0000
,
1000
0000
1001
0000
,
0000
0000
0100
0100
,
0100
0000
0010
0000
,
0010
0000
0001
0001
,
0001
0000
0010
0000
,
0010
0000
1000
1000
,
1000
0000
0002
0000
,
0000
0003
2000
0000
,
0000
3000
0010
0000
,
0100
0000
0001
0001
,
1000
1000
2002
0000
,
0000
0000
0000
0000
,
0000
0000
3003
0000
;

//---------------dance-double - ----------------
#NOTES:
     dance-double:
     :
     Hard:
     9:
     0.522350,0.669861,0.289078,0.078129,0.093755,468.000000,431.000000,37.000000,10.000000,0.000000,0.000000,0.522350,0.669861,0.289078,0.078129,0.093755,468.000000,431.000000,37.000000,10.000000,0.000000,0.000000:
00000000
00000000
00000000
00000000
,
00000000
00000000
00000000
00000000
,
00000000
00000000
00000000
00000000
,
00000000
00000000
00000000
00000000
,
00000000
00000000
00000000
00000000
,
00020000
00000000
00000000
00000000
,
00000000
00000000
00000000
00000000
,
00002000
00000000
00000000
00000000
,
00000000
00000000
00000000
00000000
,
00033000
00011000
01000000
10000000
,
00100000
00010000
00001000
00000000
00000010
00001000
00010000
00000000
,
00011000
00000000
00000100
00000000
00000001
00000000
00000010
00000100
,
00001000
00000000
00010000
00000000
01000000
00100000
10000000
01000000
,
00010000
00011000
00000100
00000001
,
00000010
00001000
00010000
00000000
00100000
00010000
00001000
00000000
,
00011000
00000000
01000000
00000000
10000000
00000000
00100000
01000000
,
00010000
00002000
00000100
00000001
,
00000010
00000000
00013000
00100000
01000000
10000000
00100000
01000000
,
00010000
10000000
01000000
00010000
00001000
00000100
00000001
00000010
,
00000100
00000000
00001000
00000010
00000100
00000001
00000010
00000100
,
00001000
00000001
00000100
00001000
00010000
01000000
10000000
00100000
,
01000000
00000000
00010000
00000000
01000000
00000000
10000000
01000000
,
00010000
00100000
00000000
00001000
00000000
00000010
00000000
00000001
,
00000000
00001000
00000000
00000100
00000000
00010000
00001000
00020000
,
00002000
00000000
00000000
00000000
,
00033000
00000000
00000000
00000000
00011000
00000000
00000000
01000000
00000000
01000000
00000000
00010000
00000000
10000000
00000000
00100000
,
00000000
10000000
00010000
00000000
00001000
00000000
00000000
00000100
00000000
00000100
00000000
00001000
00000000
00000001
00000000
00000010
,
00000000
00000001
00001000
00000000
00010000
00000000
00000000
10000000
00000000
01000000
00000000
00100000
00000000
01000000
00000000
00010000
,
00001000
00000100
00000001
00000000
00001000
00000000
00000000
00000001
00000000
00000100
00000000
00000010
00000000
00000100
00000000
00001000
,
00010000
01000000
10000000
00000000
00100000
00000000
00000000
00000000
00100000
00000000
00000000
00000000
10000000
00000000
00000000
00000000
,
10000000
01000000
01000000
00010000
,
00010000
00001000
00001000
00000010
,
00000010
00000001
00000001
00000100
,
00000100
00000000
00000001
00000100
00001000
00000000
00010000
01000000
,
10000000
00000000
10000000
00100000
00010000
00000000
00001000
00000010
,
00000001
00000000
00001000
00000100
00000010
00000100
00001000
00000010
,
00000100
00001000
00010000
00100000
01000000
00010000
00100000
01000000
,
00100000
00000000
00000000
00000000
00000000
00000000
00000000
00000000
00010000
00000000
00000000
00000000
00000000
00000000
00000000
00000000
20000000
30000000
00000000
00000000
00000000
00000000
00000000
00000000
00000000
00000000
00000000
00000000
00000000
00000000
00000000
00000000
10100000
00000000
00000000
00000000
00000000
00000000
00000000
00000000
00000000
00000000
00000000
00000000
00000000
00000000
00000000
00000000
00110000
00000000
00000000
00000000
00000000
00000000
00000000
00000000
00000000
00000000
00000000
00000000
00000000
00000000
00000000
00000000
,
01010000
00000000
11000000
00000000
10000000
01000000
00010000
00000000
,
00001000
00100000
00010000
00000000
10000000
00100000
00010000
00001000
,
00000100
00000001
00000010
00000000
00000001
00000100
00001000
00000000
,
00010000
00000010
00001000
00000000
00000001
00000010
00001000
00010000
,
01000000
10000000
00100000
00000000
10000000
00000000
10100000
00000000
,
00100000
00010000
00001000
00000000
00000010
00001000
00010000
00000000
,
00001000
00000100
00000001
00000000
00000010
00000000
00001000
00000000
,
00000100
00000000
00000001
00000000
00000100
00000010
00001000
00010000
,
01000000
00100000
10000000
00000000
00010000
10000000
00100000
10000000
,
00010000
10000000
01000000
00010000
00001000
00000100
00000001
00001000
,
00000010
00000100
00000001
00000000
00001000
00000001
00000010
00000001
,
00001000
00000001
00000100
00001000
00010000
01000000
10000000
00010000
,
00100000
01000000
10000000
00000000
00100000
00000000
00010000
00000000
,
01000000
10000000
00100000
00010000
,
00001000
00000100
00000011
00000100
,
00001010
00000100
00000011
00001010
,
00001100
00000000
00000101
00000000
00000001
00000010
00001000
00000000
,
00010000
00000000
01000000
00000000
00100000
00010000
01000000
00100000
,
10000000
01000000
01000000
00000000
10000000
00100000
00010000
00000000
,
00001000
00000000
00000100
00000000
00000010
00001000
00000100
00000010
,
00000001
00000100
00000100
00000000
00001001
00000000
00000100
00000000
,
00000010
00000001
00000100
00000000
00001001
00000000
00001000
00000000
,
00000001
00000100
00001000
00000000
00010000
01000000
00000000
00000000
,
10000000
01000000
00000000
00000000
01100000
00000000
11000000
00000000
,
10100000
00110000
00022000
00000000
,
00000000
00000000
00000000
00000000
,
00000000
00000000
00000000
00000000
,
00000000
00000000
00000000
00000000
,
00033000
00000000
10010000
10000000
,
01000000
00010000
00011000
00001000
,
00000100
00000001
00001001
00000000
,
00000110
00000000
00000101
00001100
,
00001010
00000000
00000011
00000000
00001000
00000100
00000000
00000000
,
00000001
00000100
00000000
00000000
00001000
00000100
00000001
00000100
,
00001000
00000000
00000000
00000000
00000001
00000100
00001000
00000000
,
00010000
00000010
00001000
00000000
00000001
00000010
00001000
00010000
,
01000000
10000000
00100000
00000000
10000000
01000000
00010000
00000000
,
00001000
00100000
00010000
00000000
10000000
00100000
00010000
00001000
,
00000100
00000001
00000010
00000000
00000001
00000000
00000011
00000000
,
00000010
00001000
00010000
00000000
00100000
00010000
00001000
00000000
,
00010000
01000000
10000000
00000000
00100000
00000000
00010000
00000000
,
01000000
00000000
10000000
00000000
01000000
00100000
00010000
00001000
,
00000100
00000010
00000001
00000000
00001000
00000001
00000010
00000001
,
00001000
00000001
00000100
00001000
00010000
01000000
10000000
00010000
,
00100000
01000000
10000000
00000000
00010000
10000000
00100000
10000000
,
00010000
10000000
01000000
00010000
00001000
00000100
00000001
00001000
,
00000010
00000100
00000001
00000000
00000010
00001000
00010000
00001000
,
00000010
00001000
00010000
00000000
00001000
00010000
01000000
00010000
,
00001000
00010000
01000000
00000000
00010000
01000000
00000000
00000000
,
10000000
01000000
00000000
00000000
01100000
00000000
11000000
00000000
,
10100000
00110000
00022000
00000000
,
00000000
00000000
00000000
00000000
,
00000000
00033000
00000000
00000000
;

//---------------dance-double - ----------------
#NOTES:
     dance-double:
     :
     Medium:
     7:
     0.408504,0.634605,0.171884,0.117194,0.000000,366.000000,344.000000,22.000000,15.000000,0.000000,0.000000,0.408504,0.634605,0.171884,0.117194,0.000000,366.000000,344.000000,22.000000,15.000000,0.000000,0.000000:
00000000
00000000
00000000
00000000
,
00000000
00000000
00000000
00000000
,
00000000
00000000
00000000
00000000
,
00000000
00000000
00000000
00000000
,
00000000
00000000
00000000
00000000
,
00002000
00000000
00000000
00000000
,
00000000
00000000
00000000
00000000
,
00020000
00000000
00000000
00000000
,
00000000
00000000
00000000
00000000
,
00033000
00001000
00010000
00100000
,
00010000
00000000
00001000
00000000
01000000
00000000
00010000
00100000
,
00001000
00010000
00001000
00000010
,
00001000
00000000
00010000
00000000
00000100
00000000
00001000
00000010
,
00010000
01000000
10000000
01000000
,
00010000
00000000
00001000
00000000
00000010
00000001
00000010
00000000
,
00000001
00000100
00001000
00010000
,
00002000
00000000
00000000
00010000
,
00013000
00000000
00100000
00000000
00010000
00000000
10000000
00100000
,
10000000
00000000
01000000
00000000
00010000
00000000
00001000
00010000
,
00001000
00010000
00000100
00000000
00001000
00000000
00000010
00000000
,
00000100
00000000
00000001
00000000
00000010
00000100
00001000
00000000
,
00000001
00001000
00001000
00001000
,
00001000
00010000
00010000
00010000
,
00010000
10000000
10000000
10000000
,
10000000
02000000
00000000
00000000
,
03000000
10000000
01000000
00100000
,
00010000
00001000
00000100
00000010
,
00000001
00000000
00001000
00001000
00000100
00000000
00010000
00010000
,
00001000
00000000
00100000
00100000
00010000
01000000
00100000
00000000
,
10000000
00000000
00010000
00100000
00010000
00100000
00010000
00000000
,
00011000
00000000
00001000
00000010
00001000
00000010
00001000
00000000
,
00011000
00000000
00000100
00000001
00000010
00000000
00001000
00000000
,
00010000
00000000
01000000
10000000
00100000
00000000
00010000
00000000
,
00001000
00000000
00010000
00001000
00000100
00000000
00001000
00010000
,
01000000
00000000
00010000
00001000
00000010
00000000
00001000
00010000
,
00100000
00011000
00001010
00011000
,
00110000
00011000
00001100
00000101
,
00000110
00000000
00000000
00000000
00000000
00000000
00000000
00000000
00000000
00000000
00000000
00000000
00000000
00000000
00000000
00000000
00002002
00003003
00000000
00000000
00000000
00000000
00000000
00000000
00000000
00000000
00000000
00000000
00000000
00000000
00000000
00000000
00000001
00000000
00000000
00000000
00000000
00000000
00000000
00000000
00000000
00000000
00000000
00000000
00000000
00000000
00000000
00000000
00001000
00000000
00000000
00000000
00000000
00000000
00000000
00000000
00000000
00000000
00000000
00000000
00000000
00000000
00000000
00000000
,
00010000
00000000
10000000
00000000
00010000
01000000
00100000
00000000
,
10000000
00000000
01000000
00000000
00100000
00001000
00100000
00001000
,
00010000
00100000
00010000
00001000
,
00000100
00000010
00001000
00000000
00000001
00000000
00000100
00000000
,
00001000
00000000
00010000
00000000
00100000
10000000
01000000
00000000
,
00010000
00000000
00001000
00000000
00000010
00000001
00000100
00000000
,
00001000
00010000
02200000
00000000
,
00000000
03300000
10000000
00010000
,
00001000
00000000
00000001
00000000
00001000
00000100
00000010
00000000
,
00000001
00000000
00000100
00000000
00000010
00010000
00000010
00010000
,
00001000
00000010
00001000
00010000
,
01000000
00100000
00010000
00000000
10000000
00000000
01000000
00000000
,
00010000
00000000
00001000
00000000
00000010
00000001
00000100
00000000
,
00001000
00000000
00010000
00000000
00100000
10000000
01000000
00000000
,
00010000
00001000
00000010
00000001
,
00001000
00000110
00000001
00001000
,
00010000
00000000
10000000
00000000
00010000
01000000
00010000
00000000
,
10000000
00000000
00100000
00000000
00010000
00001000
00010000
00000000
,
00000100
00000000
00001000
00000000
00000001
00000100
00000001
00000000
,
00001000
00000000
00000100
00000000
00000010
00000000
00001000
00010000
,
00100000
00000000
10000000
00000000
00010000
01000000
00010000
01000000
,
00010000
01000000
00100000
00000000
00010000
00001000
00010000
00001000
,
00010000
00001000
00000010
00000000
00000001
00000001
00000000
00000000
,
00001000
00001000
00000000
00000000
00000001
00000000
00001000
00000000
,
00010000
10000000
20020000
00000000
,
00000000
00000000
00000000
00000000
,
00000000
00000000
00000000
00000000
,
00000000
00000000
00000000
00000000
,
30030000
00000000
10010000
10000000
,
00100000
00010000
00011000
00001000
,
00000010
00000001
00001001
00000000
,
00001100
00000000
00000001
00000100
,
00001000
00010000
00011000
00000000
,
01100000
00000000
20020000
00000000
,
00000000
00000000
30030000
00000000
00010000
01000000
00100000
00000000
,
10000000
00000000
01000000
00000000
00100000
00001000
00100000
00001000
,
00010000
00100000
00010000
00001000
,
00000100
00000010
00001000
00000000
00000001
00000000
00000100
00000000
,
00001000
00000000
00010000
00000000
00100000
10000000
01000000
00000000
,
00010000
00000000
00001000
00000000
00000010
00000001
00000100
00000000
,
00001000
00010000
02200000
00000000
,
00000000
03300000
10000000
00010000
,
00001000
00000000
00000001
00000000
00001000
00000100
00000010
00000000
,
00000001
00000000
00000100
00000000
00000010
00010000
00000010
00010000
,
00001000
00000010
00001000
00010000
,
01000000
00100000
00010000
00000000
10000000
00000000
01000000
00000000
,
00010000
00000000
00001000
00000000
00000010
00000001
00000100
00000000
,
00001000
00000000
00010000
00000000
00100000
10000000
01000000
00000000
,
00010000
00000000
00001000
00000000
00000100
00000001
00000100
00000000
,
00000001
00000010
00000001
00000000
00000001
00000000
00001000
00000000
,
00010000
10000000
02000000
00000000
,
00000000
00000000
00000000
00000000
,
00000000
03000000
00000000
00000000
;

//---------------dance-double - ----------------
#NOTES:
     dance-double:
     :
     Easy:
     5:
     0.274569,0.387814,0.125007,0.203136,0.000000,246.000000,230.000000,16.000000,26.000000,0.000000,0.000000,0.274569,0.387814,0.125007,0.203136,0.000000,246.000000,230.000000,16.000000,26.000000,0.000000,0.000000:
00000000
00000000
00000000
00000000
,
00000000
00000000
00000000
00000000
,
00000000
00000000
00000000
00000000
,
00000000
00000000
00000000
00000000
,
00000000
00000000
00000000
00000000
,
00020000
00000000
00000000
00000000
,
00000000
00000000
00000000
00000000
,
00002000
00000000
00000000
00000000
,
00000000
00000000
00000000
00000000
,
00033000
00100000
00010000
00100000
,
00010000
00100000
00000000
01000000
,
01000000
10000000
00100000
00010000
,
00001000
00000010
00000001
00000100
,
00000100
00000010
00001000
00000010
,
00001000
00000010
00000000
00010000
,
00010000
00001000
00000000
01000000
,
00100000
01000000
00000000
00010000
,
00010000
10000000
01000000
00100000
,
00010000
00001000
00000001
00000010
,
00000001
00001000
00000100
00000010
,
00000100
00000000
00010000
00001000
,
00100000
00010000
00000000
10000000
,
00000000
01000000
01000000
00100000
,
00100000
02000000
00000000
00000000
,
00000000
00200000
00000000
00000000
,
03300000
00020000
00000000
00000000
,
00000000
20030000
00000000
00000000
,
00000000
00000000
31000000
00000000
00010000
00000000
00001000
00010000
,
00001000
00010000
00002000
00000000
00000000
00000000
00000000
00000000
,
00000000
00003010
00000010
00000002
,
00000003
00000010
00000010
00002000
,
00003000
00001010
00000000
00000000
,
00000000
00011000
00000000
00000000
,
00000000
01100000
00000000
10010000
,
00000000
10000000
01000000
10000000
,
01000000
00010000
00001000
00010000
,
00001000
00000100
00000001
00000100
,
00000001
00001001
00000010
00000100
,
00000100
00000100
00000001
00000010
,
00001000
00010000
00200000
00000000
,
10000000
10300000
01000000
00100000
,
00010000
01000000
00200000
00000000
,
00010000
00310000
00001000
00000100
,
00000001
00000010
00000100
00001000
,
00000001
00000100
00000020
00000000
,
00000000
00000000
00010030
00001000
,
00100000
01000000
10000000
00100000
,
00010000
00001000
00000020
00000000
,
00000001
00000031
00000100
00000010
,
00001000
00000100
00000020
00000000
,
00001000
00001030
00010000
01000000
,
10000000
00100000
01000000
00010000
,
10000000
01000000
00200000
00000000
,
00000000
00000000
00301000
00010000
,
00001000
00010000
00001000
00000000
,
00000100
00000000
00000001
00000000
,
00000010
00000000
00001000
00000000
,
00010000
00000000
00100000
00000000
,
10000000
00000000
00010000
00010000
,
00100000
00100000
01000000
01000000
,
10000000
10000000
10100000
00000000
,
01010000
00000000
00101000
00001000
,
00010000
00001000
00022000
00000000
,
00000000
00000000
00000000
00000000
,
00000000
00000000
00000000
00000000
,
00000000
00000000
00000000
00000000
,
00033000
00000000
00001100
00000000
,
00000000
00000000
00000101
00000000
,
00000000
00000000
00000110
00000000
,
00001001
00000000
00000200
00000000
,
00000000
00000300
00000010
00000000
,
00001000
00000000
00020000
00000000
,
00000000
00030000
10000000
00100000
,
00010000
00001000
00000020
00000000
,
00000001
00000031
00000100
00000010
,
00001000
00000100
00000020
00000000
,
00001000
00001030
00010000
01000000
,
10000000
00100000
01000000
00010000
,
10000000
01000000
00200000
00000000
,
00000000
00000000
00301000
00010000
,
00000010
00000100
00000001
00000010
,
00001000
00010000
00200000
00000000
,
10000000
10300000
01000000
00100000
,
00010000
01000000
00200000
00000000
,
00010000
00310000
00001000
00000100
,
00000001
00000010
00000100
00001000
,
00000001
00000100
00000110
00000000
,
00001100
00000000
00010000
00001000
,
00010000
00001000
00022000
00000000
,
00000000
00000000
00000000
00000000
,
00000000
00033000
00000000
00000000
;

//---------------dance-double - ----------------
#NOTES:
     dance-double:
     :
     Challenge:
     10:
     0.758970,1.022419,0.289078,0.062503,0.648473,680.000000,643.000000,37.000000,8.000000,0.000000,0.000000,0.758970,1.022419,0.289078,0.062503,0.648473,680.000000,643.000000,37.000000,8.000000,0.000000,0.000000:
00000000
00000000
00000000
00000000
,
00000000
00000000
00000000
00000000
,
00000000
00000000
00000000
00000000
,
00000000
00000000
00000000
00000000
,
00000000
00000000
00000000
00000000
,
00002000
00000000
00000000
00000000
,
00000000
00000000
00000000
00000000
,
00020000
00000000
00000000
00000000
,
00000000
00000000
00000000
00000000
,
00033000
00000000
00001000
00010000
01000000
00000000
10000000
00100000
,
00010000
00000000
00001000
00100000
00010000
10000000
00100000
00010000
,
00001000
00000000
00010000
00001000
00000100
00000000
00000001
00000010
,
00001000
00000000
00010000
00000010
00001000
00000001
00000010
00001000
,
00010000
00000000
00100000
00000000
10000000
00000000
01000000
00100000
,
00010000
00000000
00001000
00000100
00000010
00000001
00000100
00001000
,
00010000
00000000
00001000
00010000
01000000
10000000
00100000
00010000
,
10000000
01000000
00010000
00001000
00000010
00000001
00001000
00000100
,
00000001
00000000
00000000
00000000
00000010
00000000
00001000
00000000
00010000
00000000
00001000
00000000
00000100
00000001
00000100
00000001
,
00000100
00000000
00000010
00000000
00001000
00000000
00000001
00000000
00000100
00000000
00001000
00010000
00001000
00000000
00100000
00000000
,
01000000
00000000
10000000
00000000
00100000
00000000
00010000
00000000
00001000
00000000
00010000
00000000
01000000
10000000
01000000
10000000
,
01000000
00000000
00100000
00000000
00010000
00000000
10000000
00000000
01000000
00000000
00010000
00001000
00010000
00000000
00000010
00000000
,
00000100
00000001
00000010
00001000
00010000
00100000
10000000
01000000
,
00010000
00001000
00000000
00101000
00000000
00010100
00000000
00001010
,
00000000
00000101
00000000
00000110
00000000
00000001
00000100
00000100
,
00001000
00010000
00001000
00010000
00200000
00000000
00000000
00000000
00000000
00000000
00000000
00000000
00000000
00000000
00000000
00000000
,
00300000
00000000
00000000
00000000
10000000
01000000
00100000
00010000
00000000
01000000
00000000
10000000
00000000
01000000
00000000
00010000
,
00000000
00001000
00000100
00000010
00000001
00000100
00000010
00001000
00000000
00000100
00000000
00000001
00000000
00000100
00000000
00001000
,
00000000
00010000
00100000
00000000
01000000
10000000
01000000
00010000
00000000
00001000
00000000
00000010
00000000
00000001
00000000
00000100
,
00000000
00000010
00001000
00000001
00000100
00000001
00000100
00001000
00000000
00010000
00000000
00100000
00000000
10000000
01000000
00100000
,
00010000
00001000
00000100
00000010
00000001
00000000
00000100
00000000
00000001
00000100
00000000
00001000
00000000
00010000
00001000
00000000
,
00011000
00000000
00000000
00000000
10000000
00000000
01000000
00000000
00010000
01000000
00000000
00010000
00000000
00001000
00010000
00000000
,
00011000
00000000
00000000
00000000
00000010
00000000
00000001
00000000
00000100
00000010
00000000
00010000
00000000
00001000
00000100
00000000
,
00000010
00000000
00001000
00000000
00010000
00000000
01000000
00000000
00100000
10000000
00000000
01000000
00000000
00010000
00001000
00000000
,
00011000
00000000
00010000
00001000
00000010
00001000
00010000
00100000
,
00010000
00001000
00000100
00001000
00010000
01000000
00010000
00001000
,
00000010
00000000
00001000
00000000
00010000
00001000
00010000
00000000
00100000
01000000
00100000
00000000
10000000
00010000
10000000
00000000
,
01000000
00100000
01000000
00000000
00010000
00001000
00010000
00001000
00000100
00000001
00000100
00000001
00001000
00000100
00001000
00000100
,
00000010
00000000
00000000
00000000
00000001
00000000
00000000
00000000
00000010
00000000
00000000
00000000
00000001
00000000
00000000
00000000
00002000
00003000
00000000
00000000
00000000
00000000
00000000
00000000
00000000
00000000
00000000
00000000
00000000
00000000
00000000
00000000
00000101
00000000
00000000
00000000
00000000
00000000
00000000
00000000
00000000
00000000
00000000
00000000
00000000
00000000
00000000
00000000
00010010
00000000
00000000
00000000
00000000
00000000
00000000
00000000
00000000
00000000
00000000
00000000
00000000
00000000
00000000
00000000
,
00101000
00000000
00000000
00000000
11000000
00000000
00000000
00000000
10000000
00000000
01000000
00000000
00010000
00000000
00001000
00100000
,
00010000
00000000
00001000
00000000
00000100
00000000
00000010
00000000
00001000
00000000
00010000
00000100
00001000
00000000
00000010
00000100
,
00000001
00000100
00000010
00000100
00000001
00000000
00001000
00000000
00000001
00000000
00000100
00000000
00001000
00000000
00010000
00000010
,
00001000
00000000
00010000
00000000
01000000
00000000
00100000
00000000
00010000
00000000
00001000
01000000
00010000
00000000
00100000
01000000
,
10000000
01000000
00100000
01000000
10000000
00000000
00000000
00000000
00100000
00000000
00010000
00000000
00001000
00000000
00000010
00000000
,
00000100
00000001
00001000
00000010
00000001
00000100
00001000
00010000
,
01000000
00000000
10000000
00100000
01000000
00000000
00001000
00000000
00100000
00000000
00010000
00100000
00010000
00000000
10000000
00100000
,
10000000
00000000
00010000
00100000
00010000
00000000
10000000
00100000
10000000
00000000
01000000
00000000
00010000
00000000
00001000
00000000
,
00000010
00000000
00000001
00000000
00001000
00000000
00000000
00000000
00000001
00000000
00000100
00000000
00001000
00000000
00010000
00000010
,
00001000
00000000
00010000
00000000
01000000
00000000
00100000
00000000
00010000
00000000
00001000
01000000
00010000
00000000
00100000
01000000
,
10000000
01000000
00100000
01000000
10000000
00000000
00010000
00000000
10000000
00000000
01000000
00000000
00010000
00000000
00001000
00100000
,
00010000
00000000
00001000
00000000
00000100
00000000
00000010
00000000
00001000
00000000
00010000
00000100
00001000
00000000
00000010
00000100
,
00000001
00000100
00000010
00000100
00000001
00000000
00000000
00000000
00000010
00000000
00001000
00000000
00010000
00000000
00100000
00000000
,
00010000
00001000
00000010
00000100
00010000
00100000
00010000
00001000
,
00000010
00000001
00000100
00001000
00011000
00000000
01010000
00000000
,
11000000
00000000
00000000
00000000
10100000
00000000
00000000
00000000
00010000
00001000
00010000
00000000
00011000
00000000
00000000
00000000
,
00001100
00000000
00000000
00000000
00000101
00000000
00000000
00000000
00000010
00000000
00000001
00001000
00000000
00000100
00000010
00000100
,
00000000
00010000
00001000
00000000
00010000
00000000
00100000
00000000
10000000
00000000
01000000
00100000
00000000
00010000
00000000
10000000
,
00000000
01000000
00000000
00010000
00001000
00100000
00010000
10000000
00100000
00000000
10000000
00010000
00000000
01000000
00100000
01000000
,
00000000
00001000
00010000
00000000
00001000
00000000
00000010
00000000
00000001
00000000
00000100
00000010
00000000
00001000
00000000
00000001
,
00000000
00000100
00000000
00001000
00010000
00000000
00000000
00000000
00100000
10000000
00100000
10000000
00000000
01000000
00000000
00010000
,
00001000
00100000
00000000
00001000
00100000
00000000
00010000
00000000
00001000
00000000
00000100
00000010
00000000
00000001
00000000
00001000
,
00000000
00000100
00010000
00001000
01000000
00010000
10000000
01000000
00100000
00000000
00100000
00000000
00000000
00000000
00000000
00000000
,
00001000
00000000
00001000
00000000
00000000
00000000
00000000
00000000
00010000
00000100
00010000
00000100
00000000
00000010
00000001
00001000
,
00000000
00000100
00000000
00010000
00001000
00000000
00000000
00000000
00022000
00000000
00000000
00000000
00000000
00000000
00000000
00000000
,
00000000
00000000
00000000
00000000
,
00000000
00000000
00000000
00000000
,
00000000
00000000
00000000
00000000
,
00033000
00000000
10010000
10000000
,
00010000
00001000
00011000
00010000
,
00001000
00000001
00001001
00000000
,
00010100
00000000
00110000
10100000
,
11000000
00000000
01010000
00000000
01100000
01100000
00000000
00000000
,
10000000
00010000
10000000
00000000
10100000
00000000
00000000
00000000
00010000
01000000
00010000
01000000
00001000
00010000
00001000
00010000
,
00000100
00000000
00000000
00000000
00001001
00000000
00000000
00000000
00000001
00000000
00000100
00000000
00001000
00000000
00010000
00000010
,
00001000
00000000
00010000
00000000
01000000
00000000
00100000
00000000
00010000
00000000
00001000
01000000
00010000
00000000
00100000
01000000
,
10000000
01000000
00100000
01000000
10000000
00000000
00010000
00000000
10000000
00000000
01000000
00000000
00010000
00000000
00001000
00100000
,
00010000
00000000
00001000
00000000
00000100
00000000
00000010
00000000
00001000
00000000
00010000
00000100
00001000
00000000
00000010
00000100
,
00000001
00000100
00000010
00000100
00000001
00000000
00000000
00000000
00000010
00000000
00001000
00000000
00010000
00000000
00100000
00000000
,
01000000
10000000
00010000
00100000
10000000
01000000
00010000
00001000
,
00000100
00000000
00000001
00000010
00000100
00000000
00010000
00000000
00000010
00000000
00001000
00000010
00001000
00000000
00000001
00000010
,
00000001
00000000
00001000
00000010
00001000
00000000
00000001
00000010
00000001
00000000
00000100
00000000
00001000
00000000
00010000
00000000
,
00100000
00000000
10000000
00000000
00010000
00000000
00000000
00000000
10000000
00000000
01000000
00000000
00010000
00000000
00001000
00100000
,
00010000
00000000
00001000
00000000
00000100
00000000
00000010
00000000
00001000
00000000
00010000
00000100
00001000
00000000
00000010
00000100
,
00000001
00000100
00000010
00000100
00000001
00000000
00001000
00000000
00000001
00000000
00000100
00000000
00001000
00000000
00010000
00000010
,
00001000
00000000
00010000
00000000
01000000
00000000
00100000
00000000
00010000
00000000
00001000
01000000
00010000
00000000
00100000
01000000
,
10000000
01000000
00100000
01000000
10000000
00000000
00000000
00000000
00100000
00000000
01000000
00000000
00010000
00000000
00100000
00000000
,
00001000
00010000
00001000
00010000
00000100
00001000
00000100
00001000
00000001
00000000
00000100
00000000
00000010
00000000
00001000
00000000
,
00000100
00010000
00000100
00010000
00001000
00100000
00001000
00100000
00010000
00000000
00010000
00000000
00000000
00000000
00000000
00000000
,
10000000
10000000
00000000
00000000
00110000
00000000
10100000
00000000
,
11000000
01010000
00022000
00000000
,
00000000
00000000
00000000
00000000
,
00000000
00033000
00000000
00000000
;
