#TITLE:We Don't Talk Anymore;
#SUBTITLE:;
#ARTIST:Charlie Puth feat. Selena Gomez;
#TITLETRANSLIT:;
#SUBTITLETRANSLIT:;
#ARTISTTRANSLIT:;
#GENRE:;
#CREDIT:;
#BANNER:We Don't Talk Anymore.png;
#BACKGROUND:We Don't Talk Anymore-bg.png;
#LYRICSPATH:;
#CDTITLE:;
#MUSIC:We Don't Talk Anymore.ogg;
#OFFSET:0.000000;
#SAMPLESTART:58.753639;
#SAMPLELENGTH:15.000000;
#SELECTABLE:YES;
#BPMS:0.000000=100.000000
;
#STOPS:
;
#BGCHANGES:1.500=We Don't Talk Anymore.avi=1.000=1=0=0=StretchNoLoop==CrossFade==,
99999=-nosongbg-=1.000=0=0=0 // don't automatically add -songbackground-
;
#KEYSOUNDS:;
#ATTACKS:;

//---------------dance-single - ----------------
#NOTES:
     dance-single:
     :
     Beginner:
     1:
     0.079356,0.122009,0.019839,0.099195,0.000000,56.000000,54.000000,2.000000,10.000000,0.000000,0.000000,0.079356,0.122009,0.019839,0.099195,0.000000,56.000000,54.000000,2.000000,10.000000,0.000000,0.000000:
0000
0000
0000
0000
,
0000
0000
0000
0000
,
0000
0000
0000
0000
,
0000
0000
0000
0000
,
0000
0000
0000
0000
,
0100
0000
0000
0000
,
0100
0000
0000
0000
,
0010
0000
0000
0000
,
0020
0000
0030
0000
,
1000
0000
1000
0000
,
0001
0000
0002
0003
,
1000
0000
1000
0000
,
0002
0000
0003
0000
,
0001
0000
0001
0000
,
1000
0000
2000
3000
,
0001
0000
0001
0000
,
2000
0000
3000
0000
,
0010
0000
0010
0000
,
0010
0000
0010
0000
,
0010
0000
0010
0000
,
0100
0000
0000
0000
,
0100
0000
0100
0000
,
0200
0300
0010
0000
,
0020
0030
0100
0000
,
0200
0300
0001
0000
,
1001
0000
0000
0000
,
1000
0000
0000
0000
,
0001
0000
0001
0000
,
0002
0003
0000
0000
,
1000
0000
0000
0000
,
0001
0000
0000
0000
,
1000
0000
1000
0000
,
2000
3000
0000
0000
,
0001
0000
0000
0000
,
1000
0000
0000
0000
,
0010
0000
0010
0000
,
0010
0000
0000
0000
,
1000
0000
0000
0000
,
0001
0000
0000
0000
,
0100
0000
0100
0000
,
0100
0000
0000
0000
,
0110
0000
0000
0000
;

//---------------dance-single - ----------------
#NOTES:
     dance-single:
     :
     Easy:
     2:
     0.117616,0.162679,0.029758,0.178550,0.000000,83.000000,80.000000,3.000000,18.000000,0.000000,0.000000,0.117616,0.162679,0.029758,0.178550,0.000000,83.000000,80.000000,3.000000,18.000000,0.000000,0.000000:
0000
0000
0000
0000
,
0000
0000
0000
0000
,
0000
0000
0000
0000
,
0000
0000
0000
0000
,
0000
0000
0000
0000
,
0010
0000
0010
0000
,
0100
0000
0100
0000
,
1000
0000
0001
0000
,
0200
0000
0300
0000
,
0010
0000
0010
0000
,
0100
0000
0100
0000
,
0001
0000
0001
0000
,
2000
0000
3000
0000
,
0001
0000
0001
0000
,
1000
0000
0020
0030
,
0100
0000
0100
0000
,
0020
0000
0030
0000
,
1000
0000
1000
0000
,
0001
0000
0001
0000
,
0010
0000
0010
0000
,
0200
0000
0300
0000
,
1000
0000
1000
0000
,
0020
0000
0130
0000
,
0200
0000
0310
0000
,
0020
0000
0130
0110
,
1001
0000
0001
0000
,
1000
0000
1000
0000
,
0001
0001
1000
1000
,
0020
0030
0000
0000
,
0100
0000
0100
0000
,
0001
0000
0001
0000
,
1000
1000
0001
0001
,
0020
0030
0001
0000
,
2000
0001
3001
0000
,
0002
1000
1003
0000
,
0200
0300
0200
0300
,
0200
0300
0001
0001
,
0002
1000
1003
0000
,
2000
0001
3001
0000
,
0010
0000
0010
0010
,
0020
0030
0100
0010
,
0110
0000
0000
0000
;

//---------------dance-single - ----------------
#NOTES:
     dance-single:
     :
     Medium:
     6:
     0.294749,0.324862,0.089275,0.238067,0.024799,208.000000,199.000000,9.000000,24.000000,0.000000,0.000000,0.294749,0.324862,0.089275,0.238067,0.024799,208.000000,199.000000,9.000000,24.000000,0.000000,0.000000:
0000
0000
0000
0000
,
0000
0000
0000
0000
,
0000
0000
0000
0000
,
0000
0000
0000
0000
,
0000
0000
0000
0000
0001
0100
0001
1000
,
0001
0000
0000
0000
1000
0100
1000
0001
,
1000
0000
0000
0000
0100
0010
1000
0001
,
0200
0302
2003
3200
,
0320
0000
0030
0000
0001
0010
0100
1000
,
0001
0100
0001
0000
1000
0000
1001
0000
,
1000
0010
0100
0001
0020
0000
0130
0000
,
1000
0100
1000
0100
0010
0001
0010
0002
,
0000
0000
1003
0000
1000
0010
0100
0001
,
1000
0100
1000
0001
1000
0100
1000
0000
,
0001
0100
0001
1000
0002
0000
0013
0000
,
0100
1000
0010
0100
0001
0010
0100
2000
,
0000
0000
3100
0000
0010
0001
1000
0010
,
0100
0000
0000
0000
0001
0100
0010
1000
,
0002
0000
0003
0000
1000
0100
0010
0001
,
2000
0000
3000
0000
0010
0100
0001
1000
,
0020
0000
0030
0000
0000
0100
0001
1000
,
0100
0000
0000
0000
1000
0100
1000
0010
,
0200
0000
0300
0000
0001
0100
0001
0010
,
0200
0000
0300
0000
1000
0001
1000
0001
,
0020
0000
0030
0000
0100
0010
0100
0000
,
1001
0000
0101
0000
0010
1000
0001
0000
,
1001
0000
1100
0000
0010
0001
1000
0000
,
0001
0000
1000
0000
0000
0001
0000
0000
1000
0000
0000
0000
0100
0000
0000
0000
,
0010
0000
0110
0000
0001
0010
0100
1000
,
0001
0000
1001
0000
0001
0100
0010
1000
,
0001
0000
1001
0000
1000
0010
0100
0001
,
1000
0000
0001
0000
0000
1000
0000
0000
0001
0000
0000
0000
0100
0000
0000
0000
,
0010
0000
0110
0000
0001
1000
0000
1000
,
0002
0000
0103
0000
1000
0001
0000
0001
,
2000
0000
3100
0000
0010
0100
0000
0100
,
0020
0000
0031
1000
0020
0000
0130
0001
,
2000
0000
3100
0000
0010
0001
1000
0001
,
0020
0000
0130
0000
1000
0010
1000
0001
,
2000
0000
3100
0000
0010
0001
0100
0010
,
2000
0000
3100
0000
1000
0100
0010
0001
,
0200
0000
0000
0000
0300
0000
0000
0000
0001
0000
0000
0010
0000
0100
0000
1000
;

//---------------dance-single - ----------------
#NOTES:
     dance-single:
     :
     Hard:
     8:
     0.388276,0.426382,0.019839,0.327342,0.461255,274.000000,272.000000,2.000000,33.000000,0.000000,0.000000,0.388276,0.426382,0.019839,0.327342,0.461255,274.000000,272.000000,2.000000,33.000000,0.000000,0.000000:
0000
0000
0000
0000
,
0000
0000
0000
0000
,
0000
0000
0000
0000
,
0000
0000
0000
0000
,
0000
0000
0000
0000
0000
0000
0000
0000
0001
0100
0000
0010
0000
1000
0100
2000
,
0000
0000
3000
0000
0000
0000
0000
0000
1000
0100
0000
0010
0000
0001
0100
0002
,
0000
0000
0003
0000
0100
0000
0000
0000
0010
1000
0000
0001
0000
0010
0100
0010
,
0000
0000
0002
0000
0000
0203
0000
0000
0320
0000
0000
0000
2030
0000
0000
0000
,
3100
0000
0000
0000
1000
0010
0100
0001
,
1000
0000
0100
1000
0000
0100
1000
0000
0010
0000
0100
0000
0101
0000
0000
0000
,
0001
0000
0100
0010
0000
0100
0010
0000
2000
0000
0000
0000
3001
0000
0000
0000
,
0010
0000
0100
0000
1000
0000
0001
0000
0100
0000
0010
0000
1000
0001
2000
0000
,
0000
0000
3001
0000
1000
0010
0100
0001
,
1000
0000
0100
0010
0000
0100
0010
0000
0001
0000
1000
0000
1100
0000
0000
0000
,
0001
0000
1000
0010
0000
0100
0000
0000
0002
0000
0000
0000
0103
0000
0000
0000
,
1000
0000
0010
0000
1000
0000
0001
0000
0010
0000
0001
0000
0100
0010
0200
0000
,
0000
0000
0310
0000
1000
0100
0010
0001
,
0100
0000
0000
0000
0000
0001
0010
0001
0000
1000
0000
0010
0000
0100
0001
0000
,
0020
0000
0000
0000
0030
0100
1000
0100
0000
0010
0001
0010
0000
0001
0100
0000
,
0020
0000
0000
0000
0030
0000
1000
0010
0000
0100
0000
0001
0000
0010
0000
0200
,
0000
0000
0300
0000
1000
0001
0100
0010
,
1000
0000
0000
0000
0000
0001
0100
0001
0000
0010
0000
0100
0000
1000
0001
0000
,
0200
0000
0000
0000
0300
0001
0100
0001
0000
1000
0100
1000
0000
0100
0010
0000
,
0002
0000
0000
0000
0003
0000
0010
0100
0000
1000
0000
0001
0000
1000
0000
0020
,
0000
0000
0000
0000
0130
0000
0000
0000
0001
0100
0000
0001
0010
0000
0100
1000
,
0100
0000
0010
0000
0001
0000
1000
0000
0010
1000
0000
0100
0010
0000
0001
1000
,
0001
0000
0100
0000
0010
0000
1000
0000
0001
0010
0000
0100
1000
0000
0001
0100
,
0001
0000
2000
0000
0000
3020
0000
0000
0230
0000
0301
0100
0001
0000
1000
0100
,
2000
0000
0000
0000
3100
0000
0000
0000
0001
0010
0000
0100
1000
0000
0001
0100
,
0001
0000
0100
0000
0010
0000
1000
0000
0100
1000
0000
0001
0100
0000
0010
0100
,
0010
0000
1000
0000
0100
0000
0010
0000
0001
0010
0000
0100
0010
0000
0001
1000
,
0001
0000
0200
0000
0000
0320
0000
0000
2030
0000
3001
0100
0001
0000
1000
0100
,
2000
0000
0000
0000
3100
0000
0000
0000
0010
0000
0001
0000
1000
0010
1000
0000
,
0002
0000
0000
0000
0103
0000
0000
0000
0010
0000
1000
0000
0001
0010
0001
0000
,
2000
0000
0000
0000
3100
0000
0000
0000
0010
0000
0100
0000
0010
0001
0100
0000
,
0020
0000
1030
0100
0020
0000
0031
0100
,
0020
0000
0000
0000
0130
0000
0000
0000
0010
1000
0000
0001
0000
1000
0100
0000
,
0020
0000
0000
0000
0031
0000
0000
0000
0100
0010
0000
1000
0000
0001
1000
0000
,
0200
0000
0000
0000
1300
0000
0000
0000
0001
0010
0000
0001
0000
1000
0010
0000
,
0200
0000
0301
0000
1000
0010
0001
0010
,
2000
0000
0000
0000
3100
0000
0000
0000
0010
0001
0000
1000
0000
0010
0100
0010
;

//---------------dance-double - ----------------
#NOTES:
     dance-double:
     :
     Hard:
     7:
     0.384025,0.385774,0.029758,0.257906,0.406698,271.000000,268.000000,3.000000,26.000000,0.000000,0.000000,0.384025,0.385774,0.029758,0.257906,0.406698,271.000000,268.000000,3.000000,26.000000,0.000000,0.000000:
// measure 0
00000000
00000000
00000000
00000000
,  // measure 1
00000000
00000000
00000000
00000000
,  // measure 2
00000000
00000000
00000000
00000000
,  // measure 3
00000000
00000000
00000000
00000000
,  // measure 4
00000000
00000000
00000000
00000000
00000000
00000000
00000000
00000000
00100000
10000000
00000000
00010000
00000000
01000000
00001000
00020000
,  // measure 5
00000000
00000000
00000000
00000000
00030100
00000000
00000000
00000000
00000010
00000001
00000000
00001000
00000000
00000100
00010000
00002000
,  // measure 6
00000000
00000000
00000000
00000000
01003000
00000000
00000000
00000000
00010000
10000000
00000000
01000000
00000000
00100000
00010000
00100000
,  // measure 7
00000000
00000000
00002000
00000000
00000000
00023000
00000000
00000000
00030200
00000000
00000000
00000000
00000320
00000000
00000000
00000000
,  // measure 8
00000031
00000100
00000010
00001000
00000100
00010000
00001000
00100000
,  // measure 9
00010000
00000000
10000000
00100000
00000000
10000000
00100000
00000000
01000000
00000000
00001000
00000000
00010000
00000000
00000100
00000000
,  // measure 10
00001000
00000000
00000001
00000010
00000000
00000001
00000010
00000000
00000100
00000000
00010000
00000000
00001000
00000000
01000000
00000000
,  // measure 11
00010000
00000000
10000000
00000000
01000000
00100000
00000000
01000000
00000000
10000000
00000000
00000000
00010000
00000000
00100000
00000000
,  // measure 12
00002000
00000000
00010000
00000000
00013000
00000100
00000010
00000001
,  // measure 13
00001000
00000000
00000001
00000100
00000000
00000001
00000100
00000000
00000010
00000000
00010000
00000000
00001000
00000000
00100000
00000000
,  // measure 14
00010000
00000000
00000000
10000000
00000000
01000000
00000000
00000000
00100000
00000000
00000000
00000000
10010000
00000000
00000000
00000000
,  // measure 15
00010000
01000000
00100000
10000000
00010000
01000000
00001000
00010000
,  // measure 16
00000200
00000000
00000010
00000000
00000010
00000310
00000001
00001000
,  // measure 17
00000200
00000000
00000000
00000000
00000300
00010000
00001000
00100000
00000000
00010000
00000000
10000000
00000000
10000000
00100000
00000000
,  // measure 18
02000000
00000000
00000000
00000000
03000000
00001000
00010000
00000010
00000000
00000010
00001000
00000001
00000000
00000001
00000100
00000000
,  // measure 19
00000020
00000000
00000000
00000000
00000000
00000000
00000030
00010000
00000000
00001000
00000000
00100000
00000000
00010000
00000000
20000000
,  // measure 20
00000000
00000000
30000000
00000000
00100000
10000000
01000000
00100000
,  // measure 21
00002000
00000000
00000000
00000000
00003000
00010000
00001000
00010000
00000000
00000100
00000000
00001000
00000000
00000001
00000010
00000000
,  // measure 22
00000200
00000000
00000000
00000000
00000300
00010000
00001000
00010000
00000000
00001000
01000000
00001000
00000000
00100000
00010000
00000000
,  // measure 23
20000000
00000000
00000000
00000000
30000000
00000000
00010000
00000000
00000000
00100000
00000000
00000000
00000000
00001000
00000000
00020000
,  // measure 24
00000000
00000000
00000000
00000000
00030010
00000000
00000000
00000000
00001000
00000001
00000000
00000001
00000100
00000000
00000010
00000000
,  // measure 25
00010000
00000000
00001000
00000000
01000000
00000000
00010000
00000000
10000000
00100000
00000000
10000000
01000000
00000000
00100000
00000000
,  // measure 26
00010000
00000000
01000000
00000000
00100000
00000000
10000000
00000000
00010000
10000000
00000000
10000000
01000000
00000000
00100000
00000000
,  // measure 27
00001000
00010000
00000100
00000010
00000001
00000000
00000100
00000000
,  // measure 28
00002002
00000000
00000000
00000000
00003003
00000000
00000000
00000000
00001000
00000001
00000000
00000001
00000010
00000000
00000100
00000000
,  // measure 29
00010000
00000000
00001000
00000000
00100000
00000000
00010000
00000000
10000000
01000000
00000000
10000000
00100000
00000000
01000000
00000000
,  // measure 30
00010000
00000000
00100000
00000000
01000000
00000000
10000000
00000000
00010000
10000000
00000000
10000000
00100000
00000000
01000000
00000000
,  // measure 31
00001000
00010000
00000010
00000100
00000001
00000000
00000100
00000000
,  // measure 32
00002002
00000000
00000000
00000000
00003003
00000000
00000000
00000000
00001000
00000001
00000000
00000001
00000000
00000100
00000010
00010000
,  // measure 33
00002000
00000000
01003000
00000000
00100000
10000000
00010000
01000000
,  // measure 34
00200000
00000000
00000000
00000000
10300000
00000000
00000000
00000000
00010000
10000000
00010000
10000000
00000000
01000000
00100000
00000000
,  // measure 35
00002000
00000000
00013000
00000000
00000010
00000100
00000001
00001000
,  // measure 36
00000100
00000000
00010000
00000000
00001000
00000000
01000000
00000000
00010000
10000000
00000000
10000000
00000000
00010000
00100000
00001000
,  // measure 37
00020000
00000000
00030100
00000000
00000010
00000001
00001000
00000100
,  // measure 38
00000020
00000000
00000000
00000000
00000031
00000000
00000000
00000000
00001000
00000001
00001000
00000001
00000000
00000100
00000010
00000000
,  // measure 39
00020000
00000000
00031000
00000000
00100000
01000000
10000000
00010000
,  // measure 40
01000000
00000000
00001000
00000000
00010000
00000000
00000100
00000000
00001000
00000001
00000000
00000001
00000000
00000010
00000100
00010000
;

//---------------dance-double - ----------------
#NOTES:
     dance-double:
     :
     Medium:
     5:
     0.307503,0.325358,0.099195,0.208309,0.000000,217.000000,207.000000,10.000000,21.000000,0.000000,0.000000,0.307503,0.325358,0.099195,0.208309,0.000000,217.000000,207.000000,10.000000,21.000000,0.000000,0.000000:
00000000
00000000
00000000
00000000
,
00000000
00000000
00000000
00000000
,
00000000
00000000
00000000
00000000
,
00000000
00000000
00000000
00000000
,
00000000
00000000
00000000
00000000
10000000
01000000
10000000
00010000
,
10000000
00000000
00000000
00000000
00100000
01000000
00001000
01000000
,
00001000
00000000
00000000
00000000
00010000
00000010
00000100
00000001
,
00002000
00003200
00000320
00000032
,
00002003
00000000
00003000
00000000
00000001
00000100
00000001
00001000
,
00000001
00000010
00000100
00000000
00010000
00001000
01000000
00000000
,
00010000
00100000
01000000
10000000
00200000
00000000
01300000
00000000
,
00010000
01000000
00010000
01000000
00001000
00010000
00001000
00010000
,
00000020
00000000
00001030
00000000
00000001
00000010
00000100
00001000
,
00000100
00010000
00001000
01000000
00001000
00010000
00001000
00000000
,
00010000
00000100
00010000
00001000
00020000
00000000
01030000
00000000
,
00100000
00010000
01000000
00100000
10000000
01000000
00100000
00001000
,
00020000
00000000
00030100
00000000
00001000
00000100
00000010
00000001
,
00001000
00000000
00000000
00000000
00000001
00001000
00000100
00010000
,
00002000
00000000
00003000
00100000
00010000
10000000
00010000
01000000
,
00200000
00000000
00300000
10000000
01000000
00100000
00010000
10000000
,
01000000
00000000
00100000
00000000
00010000
00100000
00001000
00010000
,
00000200
00000000
00000300
00000000
00000010
00000001
00000010
00000100
,
00020000
00000000
00030000
00000000
00001000
00000100
00001000
00010000
,
00002000
00000000
00013000
00000000
01000000
10000000
00100000
01000000
,
00020000
00000000
00030000
00000000
00100000
01000000
00100000
00000000
,
00011000
00000000
00010010
00000000
00000010
00000100
00000010
00000000
,
00011000
00000000
01001000
00000000
01000000
00100000
01000000
00000000
,
00020000
10000000
01000000
10030000
,
01000000
00010000
00001000
00000100
00000001
00000000
00000010
00000100
,
00000010
00000000
00011000
00000000
00101000
00000000
00100000
01000000
,
00100000
00000000
00011000
00000000
00010100
00000000
00000100
00000010
,
00000100
00002000
00000001
00000100
,
00003001
00000000
00000100
00001000
00010000
01000000
10000000
00000000
,
00020000
00000000
01000000
00000000
10000000
10000000
10030000
00000000
,
00100000
00000000
00010000
00000000
00001000
00000100
00000001
00001000
,
00000020
00000000
00000130
00000000
00000001
00001000
00000100
00010000
,
00001000
00000000
00011000
00000000
00100000
10000000
00010000
01000000
,
00020000
00000000
00100000
00000000
10000000
10000000
10030000
00000000
,
01000000
00000000
00010000
00000000
00001000
00000010
00000001
00001000
,
00000200
00000000
00000310
00000000
00000001
00001000
00000010
00010000
,
00001000
00000000
00011000
00000000
00100000
10000000
00010000
10000000
,
01000000
00000000
00000000
00000000
;

//---------------dance-double - ----------------
#NOTES:
     dance-double:
     :
     Easy:
     2:
     0.117616,0.162679,0.029758,0.178550,0.000000,83.000000,80.000000,3.000000,18.000000,0.000000,0.000000,0.117616,0.162679,0.029758,0.178550,0.000000,83.000000,80.000000,3.000000,18.000000,0.000000,0.000000:
00000000
00000000
00000000
00000000
,
00000000
00000000
00000000
00000000
,
00000000
00000000
00000000
00000000
,
00000000
00000000
00000000
00000000
,
00000000
00000000
00000000
00000000
,
01000000
00000000
01000000
00000000
,
00001000
00000000
00001000
00000000
,
00010000
00000000
00000100
00000000
,
00000020
00000000
00000030
00000000
,
00000100
00000000
00000100
00000000
,
00010000
00000000
00010000
00000000
,
00001000
00000000
01000000
00000000
,
00200000
00000000
00300000
00000000
,
10000000
00000000
10000000
00000000
,
00010000
00000000
00200000
00300000
,
00001000
00000000
00001000
00000000
,
00020000
00000000
00030000
00000000
,
00000100
00000000
00000100
00000000
,
00001000
00000000
00001000
00000000
,
00000001
00000000
00000001
00000000
,
00000020
00000000
00000030
00000000
,
00000100
00000000
00000100
00000000
,
00020000
00000000
00031000
00000000
,
00002000
00000000
00013000
00000000
,
00020000
00000000
00130000
01100000
,
10010000
00000000
10000000
00000000
,
00010000
00000000
00010000
00000000
,
00100000
00100000
00001000
00001000
,
00020000
00030000
00000000
00000000
,
00000100
00000000
00000100
00000000
,
00000001
00000000
00000001
00000000
,
00001000
00001000
00000001
00000001
,
00000020
00000030
00000100
00000000
,
00020000
00001000
00031000
00000000
,
02000000
00100000
03100000
00000000
,
20000000
30000000
00020000
20030000
,
30000000
00000000
00010000
00010000
,
00020000
01000000
01030000
00000000
,
02000000
00001000
03001000
00000000
,
00010000
00000000
00000010
00000010
,
00000020
00000030
00000100
00000010
,
00000110
00000000
00000000
00000000
;

//---------------dance-single - ----------------
#NOTES:
     dance-single:
     :
     Challenge:
     9:
     0.663186,0.691386,0.178550,0.555489,1.021704,468.000000,450.000000,18.000000,56.000000,0.000000,0.000000,0.663186,0.691386,0.178550,0.555489,1.021704,468.000000,450.000000,18.000000,56.000000,0.000000,0.000000:
0000
0000
0000
0000
,
0000
0000
0000
0000
,
0000
0000
0000
0000
,
0000
0000
0000
0000
,
0000
0000
0000
0000
0000
0000
0000
0000
0001
0100
0000
0010
0000
1000
0001
0010
,
0100
0000
0010
0000
0100
0010
0000
0000
0001
0010
0000
0001
0000
0100
0001
1000
,
0010
0000
1000
0000
0001
0010
0100
0000
1000
0010
0000
1000
0000
0001
0010
0100
,
0010
0000
0001
0000
1000
0010
0000
0010
0100
0000
0100
0001
0010
0000
0001
1000
,
0010
0000
1000
0000
0010
0000
1000
0000
0000
0001
0000
0000
0010
0000
0000
0000
0000
0000
0001
0000
0000
1000
0000
0000
0020
0000
0000
0000
0000
0000
2030
0000
0000
0000
0000
0000
3200
0000
0000
0000
0000
0000
0320
0000
0000
0000
0000
0000
,
0031
0000
0010
0001
0100
0001
0100
0000
0010
0000
0100
0001
1000
0001
1000
0000
,
0100
0000
0010
0100
1000
0100
1000
0000
0010
0000
0100
0001
1000
0001
1000
0100
,
0001
0000
0100
0010
0001
0010
0001
1000
0010
0100
0000
0010
0100
0001
2000
3100
,
1000
0000
0001
0000
0100
0001
0000
0001
0010
0000
0100
1000
0010
0000
0100
0000
,
0001
0000
0010
0100
1000
0100
0001
0000
1000
0000
0010
0100
1000
0100
0001
0000
,
0100
0000
0010
0001
0100
0001
1000
0000
0020
0000
0130
0010
0100
0000
0010
0100
,
0001
0000
1000
0001
0000
0011
0000
0110
0000
1100
0000
0000
1000
0001
0200
0310
,
0100
0000
0001
0000
0100
0001
0000
0001
1000
0000
0100
0010
0100
0000
1000
0000
,
0010
0000
0100
0000
0010
0100
0001
0010
0000
0100
0000
0110
0000
0100
1000
0000
,
0001
0000
0100
0000
0001
0100
0010
1000
0000
0001
0001
0010
0000
0010
0100
0000
,
1000
0000
0001
0000
0100
0000
0001
2000
0000
3020
0000
0032
0000
0023
0000
1030
,
0010
0000
0100
0000
0010
0100
0000
0001
0100
0000
0001
1000
0200
0000
0320
0000
,
0031
0000
0010
0000
0001
0010
0100
1000
0000
0001
0000
1001
0000
1000
0010
0000
,
0100
0000
0001
0000
1000
0100
0010
0001
0000
1000
1000
0001
0000
1000
0010
0000
,
0110
0000
0100
0000
0001
0100
0001
0020
0000
0230
0000
2300
0000
3200
0000
0302
,
0000
0000
0103
0001
0100
0000
0000
0000
0010
0000
0100
0000
1000
0000
0010
0000
0100
0000
0001
0000
0000
0000
1000
0000
1000
0000
0100
0000
0010
0000
0001
0000
,
1001
0000
0001
0010
0001
0100
0001
0000
1000
0010
0000
0011
0000
0010
1000
0100
,
0001
0000
0100
0010
0100
1000
0100
0000
0010
0001
0000
0101
0000
0100
1000
0100
,
0010
0000
1010
0000
1000
0002
0000
0013
0002
0000
0103
0001
0020
0000
0130
0010
,
0100
0000
1000
0000
0100
0000
1000
0000
0000
0001
0000
0000
0100
0000
0000
0010
0000
0000
1000
0000
0000
0000
0000
0000
0001
0000
0000
0010
0000
0000
0000
0000
0000
0100
0000
0000
0010
0000
0000
0001
0000
0000
1000
0000
0000
0010
0000
0000
,
0100
0000
0001
0100
0001
0010
0001
0000
1000
0100
0000
0101
0000
0100
1000
0010
,
0001
0000
0010
0100
0010
1000
0010
0000
1000
0100
0000
0110
0000
0010
0001
0100
,
0010
0000
1010
0000
0010
0200
0000
0301
0200
0000
1300
0100
0020
0000
1030
0010
,
0100
0000
0001
0000
0100
0000
0001
0000
0000
1000
0000
0000
0100
0000
0000
0000
0000
0000
0010
0000
0000
0100
0000
0000
2000
0000
0000
3100
0000
0000
2000
0000
0000
3010
0000
0000
0020
0000
0000
0130
0000
0000
0200
0000
0000
0301
0000
0000
,
0001
0000
0100
0000
0001
0000
0100
0000
0000
0010
0000
0000
1000
0000
0000
0001
0000
0000
0010
0000
0000
0001
0000
0000
0020
0000
0000
0130
0000
0000
0020
0000
0000
0031
0000
0000
0020
0000
0000
0130
0000
0000
1000
0000
0000
0000
0000
0000
,
1001
0000
0001
0100
0001
1000
0100
1000
0020
0130
0020
1030
2000
3001
1000
0000
,
1001
0000
0000
0000
0001
0000
0010
0000
0002
0000
0103
0000
0002
0000
0013
0000
0002
0000
1003
0000
0001
0000
1000
0100
0020
0000
0130
0000
2000
0000
3002
0000
,
0103
0000
0001
0100
0001
0010
0100
1000
0002
0013
0002
0103
0200
0310
0020
1030
,
1000
0000
0010
0000
1000
0000
0010
0000
0000
0100
0000
0000
0001
0000
0000
1000
0000
0000
0100
0000
0000
1000
0000
0000
0200
0000
0000
0310
0000
0000
0200
0000
0000
1300
0000
0000
0200
0000
0000
0310
0000
0000
0001
0000
0000
0000
0000
0000
,
1001
0000
1000
0010
1000
0001
0010
0001
0200
0310
0200
0301
0002
1003
0001
0000
,
1001
0000
0000
0000
1000
0000
0100
0000
2000
0000
3010
0000
2000
0000
3100
0000
2000
0000
3001
0000
1000
0000
0001
0010
0200
0000
0310
0000
0002
0000
2003
0000
,
3010
0000
1000
0010
1000
0100
0010
0001
1000
0010
0000
0110
0000
0100
0001
1000
,
0100
0000
0000
0000
;

//---------------dance-double - ----------------
#NOTES:
     dance-double:
     :
     Challenge:
     9:
     0.562575,0.548205,0.119033,0.515812,0.907630,397.000000,385.000000,12.000000,52.000000,0.000000,0.000000,0.562575,0.548205,0.119033,0.515812,0.907630,397.000000,385.000000,12.000000,52.000000,0.000000,0.000000:
// measure 0
00000000
00000000
00000000
00000000
,  // measure 1
00000000
00000000
00000000
00000000
,  // measure 2
00000000
00000000
00000000
00000000
,  // measure 3
00000000
00000000
00000000
00000000
,  // measure 4
00000000
00000000
00000000
00000000
00000000
00000000
00000000
00000000
00000001
00000010
00000000
00000001
00000000
00001000
00000010
00000100
,  // measure 5
00000010
00000000
00001000
00000000
00000100
00010000
00000000
00000000
01000000
10000000
00000000
00100000
00000000
10000000
01000000
10000000
,  // measure 6
00010000
00000000
00100000
00000000
00001000
00010000
00000000
00000000
00000010
00001000
00000000
00000001
00000000
00000010
00000100
00000010
,  // measure 7
00000001
00000000
00001000
00000000
00001000
00000100
00000000
00000100
00010000
00000000
00010000
00000100
00002000
00000000
00003100
00010000
,  // measure 8
00002000
00000000
00103000
00010000
00000000
00100000
00010000
00000000
00200000
00000000
20300000
00000000
32000000
00000000
03020000
00000000
,  // measure 9
10030000
00000000
00100000
00010000
00000000
00100000
00010000
00000000
00100000
00000000
10000000
00010000
10000000
00000000
01000000
00000000
,  // measure 10
00100000
00000000
00010000
01000000
00000000
00010000
01000000
00000000
00020000
00000000
00130000
00010000
00100000
00000000
00000000
00100000
,  // measure 11
00010000
00000000
00010000
00000000
00100000
00001000
00000000
00010000
00001000
00010000
00000100
00000000
00010000
00000100
00002000
00003010
,  // measure 12
00001000
00000000
00000001
00000010
00000000
00000001
00000000
00001000
00000020
00000000
00000032
00000000
00000203
00000000
00002300
00000000
,  // measure 13
00003001
00000000
00000010
00000100
00000000
00000010
00000100
00000000
00001000
00000000
00000001
00000100
00000001
00000000
00001000
00000000
,  // measure 14
00000010
00000000
00001000
00000100
00000000
00002000
00000000
00000000
00003020
00000000
00000130
00000001
00000100
00000000
00000000
00000100
,  // measure 15
00001000
00000000
00010000
00100000
00000000
10000000
00000000
01000000
00000000
00200000
00000000
00000000
01300000
10000000
00020000
01030000
,  // measure 16
00100000
00000000
00010000
00100000
00000000
10000000
00000000
10000000
00010000
00000000
00100000
00010000
00100000
00000000
00001000
00000000
,  // measure 17
00020000
00000000
01030000
00000000
10000000
00010000
10000000
00100000
00000000
01000000
00000000
01100000
00000000
01000000
00010000
00000000
,  // measure 18
00200000
00000000
00301000
00000000
00010000
00000100
00001000
00000100
00000000
00001000
00001000
00000001
00000000
00000001
00000100
00000000
,  // measure 19
00000020
00000000
00001030
00000000
00010000
00000000
00001000
00000200
00000000
00000302
00000000
00000203
00000000
00002300
00000000
00003010
,  // measure 20
00000100
00000001
00001000
00000000
00000100
00001000
00000000
00000010
00001000
00000000
00000100
00001000
00000100
00000000
00010000
00000000
,  // measure 21
00002000
00000000
00003010
00000000
00000001
00001000
00000001
00000100
00000000
00000010
00000000
00000110
00000000
00000010
00001000
00000000
,  // measure 22
00000200
00000000
00010300
00000000
00001000
00100000
00010000
00100000
00000000
00010000
00010000
10000000
00000000
10000000
00100000
00000000
,  // measure 23
02000000
00000000
03010000
00000000
00001000
00000000
00010000
00200000
00000000
20300000
00000000
30200000
00000000
00320000
00000000
01030000
,  // measure 24
00000000
00100000
10000000
00000000
01000000
00100000
00000000
00100000
00010000
10000000
00000000
10000000
00010000
00100000
01000000
10000000
,  // measure 25
11000000
00000000
00100000
00010000
00000000
00010000
01000000
00000000
00001000
00100000
00000000
00110000
00000000
00100000
00010000
01000000
,  // measure 26
00001000
00000000
00010000
00000100
00000000
00000100
00010000
00000000
00000100
00000010
00000000
00000110
00000000
00000010
00001000
00000010
,  // measure 27
00000100
00000000
00002000
00000000
00003001
00002000
00000000
00003010
00002000
00000000
00003100
00000000
00000002
00000000
00000103
00001000
,  // measure 28
00000200
00000000
00010300
00001000
00000000
00001000
00100000
00000000
00010000
10000000
00000000
10010000
00000000
00010000
00100000
00001000
,  // measure 29
00101000
00000000
00000100
00001000
00000000
00001000
00000010
00000000
00010000
00000100
00000000
00001100
00000000
00000100
00001000
00000010
,  // measure 30
00010000
00000000
00001000
00100000
00000000
00100000
00001000
00000000
00100000
01000000
00000000
01100000
00000000
01000000
00010000
01000000
,  // measure 31
00100000
00000000
00020000
00000000
10030000
00020000
00000000
01030000
00020000
00000000
00130000
00000000
20000000
00000000
30100000
00010000
,  // measure 32
00200000
00000000
00301000
00010000
00000000
00010000
00000100
00000000
00001000
00000001
00000000
00001001
00000000
00000001
00000010
00000100
,  // measure 33
00001000
00000001
00001000
00000100
00001000
00000001
00001000
00000010
00000000
00000010
00000100
00000010
00000000
00000010
00001000
00000000
,  // measure 34
00000100
00000000
00020000
00000000
00031000
00100000
00010000
00001000
00000000
00001000
00010000
00100000
00000000
00100000
01000000
00000000
,  // measure 35
10000000
00000000
00020000
00000000
00031000
00000000
00010000
00200000
00000000
20300000
00000000
30200000
00000000
00320000
00000000
01030000
,  // measure 36
00100000
10000000
00010000
00000000
00100000
00010000
00000000
00010000
00100000
00010000
00000000
00110000
00000000
00100000
00001000
00010000
,  // measure 37
00001000
00100000
00010000
10000000
00100000
10000000
01000000
10000000
00000000
10000000
00100000
01000000
00000000
01000000
00010000
00000000
,  // measure 38
00100000
00000000
00002000
00000000
00013000
00000100
00001000
00010000
00000000
00010000
00001000
00000100
00000000
00000100
00000010
00000000
,  // measure 39
00000001
00000000
00002000
00000000
00013000
00000000
00001000
00000200
00000000
00000302
00000000
00000203
00000000
00002300
00000000
00003010
,  // measure 40
00000100
00000001
00001000
00000000
00001000
00000100
00000000
00000100
00010000
00001000
00000000
00011000
00000000
00010000
00001000
00100000
;
