#TITLE:WISH (EUROBEAT MIX);
#SUBTITLE:;
#ARTIST:DJ YOSHITAKA feat. 杉村ことみ;
#TITLETRANSLIT:;
#SUBTITLETRANSLIT:;
#ARTISTTRANSLIT:DJ YOSHITAKA feat. Kotomi Sugimura;
#GENRE:EUROBEAT;
#CREDIT:;
#BANNER:WISH (EUROBEAT MIX).png;
#BACKGROUND:WISH (EUROBEAT MIX)-bg.png;
#LYRICSPATH:;
#CDTITLE:;
#MUSIC:WISH (EUROBEAT MIX).ogg;
#OFFSET:-0.400000;
#SAMPLESTART:49.561001;
#SAMPLELENGTH:12.480000;
#SELECTABLE:YES;
#BPMS:0.000000=155.000000
;
#STOPS:
;
#BGCHANGES:;
#KEYSOUNDS:;
#ATTACKS:;

//---------------dance-single - ----------------
#NOTES:
     dance-single:
     :
     Easy:
     4:
     0.245301,0.298428,0.082642,0.220378,0.000000,187.000000,178.000000,9.000000,24.000000,0.000000,0.000000,0.245301,0.298428,0.082642,0.220378,0.000000,187.000000,178.000000,9.000000,24.000000,0.000000,0.000000:
0000
0000
0000
0000
,
0000
0000
0000
0000
,
0000
0000
0000
0000
,
0000
0000
0000
0000
,
1000
0100
0001
0100
,
1000
0000
1000
0000
,
0010
0100
0010
0100
,
2002
0000
3003
0000
,
0001
0001
0001
0100
,
0010
0010
0010
0000
,
1000
1000
1000
0100
,
0220
0000
0330
0000
,
0001
0001
0001
1000
,
0010
0010
0010
0000
,
0100
0100
0100
0001
,
2002
0000
3003
0000
,
0100
0100
0100
0100
,
1000
1000
1000
1000
,
0010
0010
0010
0010
,
0002
0000
0003
0000
,
0010
0010
0010
0010
,
0100
0100
0100
0100
,
0001
0001
0001
0001
,
1000
0000
1000
0001
,
1000
0010
0100
0001
,
1000
0000
1000
0001
,
1000
0100
0010
0001
,
1000
0000
0001
0000
,
0010
0100
0010
0100
,
1000
0000
0001
0100
,
0010
1000
0010
1000
,
0001
1000
1001
0000
,
0001
0100
0001
0000
,
1000
0010
1000
0000
,
0001
0010
0001
0001
,
2000
0000
0000
3000
,
0100
0010
0100
0000
,
1000
0001
1000
0000
,
0010
0100
0010
0000
,
2002
0000
3003
0000
,
0001
0010
0001
0010
,
0100
1000
1000
0000
,
0010
1000
0010
1000
,
0200
0000
0000
0300
,
0010
0001
0010
0001
,
0100
0001
0001
0000
,
0010
0100
0010
0100
,
2000
0000
0000
3000
,
0020
0000
0000
0030
,
0002
0000
0000
0003
,
0200
0000
0000
0300
,
2000
0000
0000
3000
,
0100
0001
0010
1000
,
0001
0000
0001
0000
,
1000
0100
0010
0001
,
2002
0000
0000
3003
,
0001
0010
0001
0001
,
1000
0100
1000
1000
,
0010
0100
0010
0010
,
0220
0000
0000
0330
,
0100
0001
0100
0100
,
0010
1000
0010
0010
,
1000
0001
1000
1000
,
2002
0000
3003
0010
,
2002
0000
0000
0000
,
3003
0000
0000
0000
;

//---------------dance-single - ----------------
#NOTES:
     dance-single:
     :
     Beginner:
     1:
     0.146918,0.238742,0.073459,0.183648,0.000000,112.000000,104.000000,8.000000,20.000000,0.000000,0.000000,0.146918,0.238742,0.073459,0.183648,0.000000,112.000000,104.000000,8.000000,20.000000,0.000000,0.000000:
0000
0000
0000
0000
,
0000
0000
0000
0000
,
0000
0000
0000
0000
,
0000
0000
0000
0000
,
2000
0000
0000
0000
,
3000
0000
0000
0000
,
0000
0000
0000
0000
,
2002
0000
3003
0000
,
0001
0001
0001
0000
,
0100
0100
0100
0000
,
0010
0010
0010
0000
,
1000
0000
0000
0000
,
0100
0100
0100
0000
,
0010
0010
0010
0000
,
0001
0001
0001
0000
,
1001
0000
0000
0000
,
1000
0000
1000
0000
,
0001
0000
0001
0000
,
0100
0000
0100
0000
,
0010
0000
0000
0000
,
0100
0000
0100
0000
,
0001
0000
0001
0000
,
1000
0000
1000
0000
,
0100
0000
0000
0000
,
0020
0000
0000
0000
,
0030
0000
0001
0001
,
0002
0000
0000
0000
,
0003
0000
0000
0000
,
2000
0000
0000
0000
,
3000
0000
0000
0000
,
0020
0000
0000
0000
,
0030
0000
0000
0000
,
0100
0000
0100
0000
,
0010
0000
0010
0000
,
1000
0000
0001
0000
,
1001
0000
0000
0000
,
0001
0000
0001
0000
,
1000
0000
1000
0000
,
0010
0000
0100
0000
,
0110
0000
0000
0000
,
0100
0100
0100
0000
,
0001
0001
0001
0000
,
0010
0010
0010
0000
,
1000
0000
0000
0000
,
0010
0010
0010
0000
,
0001
0001
0001
0000
,
0100
0100
0100
0000
,
1000
0000
0100
0000
,
0002
0000
0003
0000
,
2000
0000
3000
0000
,
0002
0000
0003
0000
,
2000
0000
3000
0000
,
0020
0000
0030
0000
,
0200
0000
0300
0000
,
0020
0000
0030
0000
,
0220
0000
0330
0000
,
1000
1000
1000
0000
,
0001
0001
0001
0000
,
1000
0000
0001
0000
,
1001
0000
0000
0000
,
0100
0100
0100
0000
,
0010
0010
0010
0000
,
0100
0000
0010
0000
,
0220
0000
0330
0000
,
2002
0000
0000
0000
,
3003
0000
0000
0000
;

//---------------dance-single - ----------------
#NOTES:
     dance-single:
     :
     Medium:
     6:
     0.385661,0.387956,0.018365,0.275472,0.059686,294.000000,292.000000,2.000000,30.000000,0.000000,0.000000,0.385661,0.387956,0.018365,0.275472,0.059686,294.000000,292.000000,2.000000,30.000000,0.000000,0.000000:
0000
0000
0000
0000
,
0000
0000
0000
0000
,
0000
0000
0000
0000
,
0000
0000
0000
0000
,
1000
0001
0000
0100
0000
0010
0000
1000
,
0000
0010
0000
0100
0000
0001
0000
1000
,
0100
0000
0010
0000
0001
0010
0001
0010
,
0002
0000
0000
0003
,
0100
0010
0100
0000
0001
0000
1000
0000
,
0010
0000
0100
0010
0200
0000
0300
0000
,
0001
1000
0001
0000
0100
0000
0010
0000
,
1000
0001
1000
0002
0000
1000
1003
0000
,
0010
0100
0010
0000
1000
0000
0001
0000
,
0100
0000
0010
0100
0020
0000
0030
0000
,
1000
0001
1000
0000
0100
0000
0010
0000
,
0001
1000
0001
2000
0000
0001
3001
0000
,
0100
0000
0100
0000
0100
0010
0100
0000
,
0001
0000
0001
1000
0002
0000
1003
0000
,
0100
0000
0100
0000
0100
0010
0100
0010
,
0100
0000
0000
0000
1000
1000
1000
1000
,
0001
0000
0001
0000
0001
0100
0010
0000
,
0010
0000
0010
1000
0100
0000
0010
0000
,
0002
1003
2000
3001
,
0100
0000
0100
0000
0100
0010
1000
0001
,
2000
0010
0001
3100
,
0001
0000
1000
0000
0001
0100
0001
0000
,
0020
0001
0100
1030
,
0100
0000
0000
0000
0100
0000
0000
0000
1000
0000
0000
1000
0000
0000
1000
0000
,
0002
0010
1000
0100
,
1003
0001
0010
0001
,
0001
0000
1000
0000
0010
1000
0100
0010
,
0002
0000
1003
0000
1001
0000
1000
0001
,
0010
0000
0000
0010
0000
0000
0010
0000
0000
0000
0001
0000
0100
0000
0000
0000
,
0010
0000
0000
0010
0000
0000
0010
0000
0000
0000
1000
0000
0001
0000
0000
0000
,
1000
0000
0000
1000
0000
0000
1000
0000
0000
0000
0001
0000
0100
0000
0000
0000
,
0010
1000
0010
2000
0000
0010
3010
0000
,
1000
0000
0000
1000
0000
0000
1000
0000
0000
0000
0001
0000
0100
0000
0000
0000
,
0010
0000
0000
0010
0000
0000
0010
0000
0000
0000
0100
0000
0001
0000
0000
0000
,
1000
0000
0000
1000
0000
0000
1000
0000
0000
0000
0100
0000
0010
0000
0000
0000
,
0001
1000
0001
2000
0000
0100
3100
0000
,
0010
0100
0010
0000
0001
0000
1000
0000
,
0100
0000
0010
0100
0020
0000
0030
0000
,
0001
1000
0001
0000
0010
0000
0100
0000
,
1002
0000
0000
0000
0000
0100
0103
0000
,
0010
0100
0010
0000
1000
0000
0001
0000
,
0100
0000
0010
0100
0020
0000
0030
0000
,
1000
0001
1000
0000
0100
0000
0010
0000
,
0001
1000
0001
2000
0000
0001
3001
0100
,
0020
0000
0000
1000
0000
0000
0130
0000
,
2000
0000
0000
0100
0000
0000
3010
0000
,
0200
0000
0000
1000
0000
0000
0310
0000
,
0001
0100
1000
0200
0000
0301
1000
0000
,
0002
1000
0010
0103
,
2000
0010
0001
3100
,
0020
0100
0001
1030
,
0100
0001
0010
2000
0000
0010
3010
0000
,
0001
0000
0000
1000
0000
0000
0001
0000
0000
0000
1000
0000
0100
0000
0000
0000
,
0010
0000
0000
0100
0000
0000
0010
0000
0000
0000
0100
0000
1000
0000
0000
0000
,
0010
0000
0000
0100
0000
0000
0010
0000
0000
0000
0100
0000
0001
0000
0000
0000
,
1000
0100
0010
0002
0000
0010
0013
0000
,
0100
0000
0000
1000
0000
0000
0001
0000
0000
0000
0100
0000
0100
0000
0000
0000
,
0010
0000
0000
1000
0000
0000
0001
0000
0000
0000
0010
0000
0010
0000
0000
0000
,
0001
0000
0000
0010
0000
0000
0100
0000
0000
0000
1000
0000
0001
0000
0000
0000
,
0100
0010
1000
0002
0000
0013
0100
0020
,
0000
0001
0002
0000
0000
0000
0000
0000
,
0033
0000
0000
0000
;

//---------------dance-single - ----------------
#NOTES:
     dance-single:
     :
     Hard:
     8:
     0.507656,0.477485,0.027547,0.156101,0.045912,387.000000,384.000000,3.000000,17.000000,0.000000,0.000000,0.507656,0.477485,0.027547,0.156101,0.045912,387.000000,384.000000,3.000000,17.000000,0.000000,0.000000:
0000
0000
0000
0000
,
0000
0000
0000
0000
,
0000
0000
0000
0000
,
0000
0000
0000
0000
,
1000
0000
0000
0100
0000
0000
0010
0000
0000
0000
0001
0000
1000
0000
0000
0010
,
0000
0100
0000
0001
1000
0100
1000
0000
,
0001
0000
0100
0000
0001
1000
0001
1000
,
0010
0001
0010
2000
0000
0100
3100
0000
,
0010
0001
1000
0001
0010
0100
0100
0000
,
1000
0001
0001
0100
0002
0000
1003
0000
,
0100
1000
0001
1000
0100
0010
0010
0000
,
0001
1000
0100
0020
0000
0130
0100
1000
,
0001
0010
0001
1000
0001
0010
0010
0000
,
0001
0100
0100
0010
2000
0000
3001
0000
,
1000
0100
1000
0001
1000
0100
0100
0000
,
1000
0001
0100
0020
0000
1030
0100
1000
,
0001
0000
0001
0000
1000
0100
1000
0001
,
0100
0100
0010
0010
,
1000
0000
0001
0000
0010
0001
1000
0100
,
1000
0000
0000
0000
0001
0001
0001
0001
,
1000
0000
0010
0000
0100
0001
0100
0010
,
1000
0000
0100
0000
0010
0001
0010
0100
,
1000
0000
1000
0010
0100
0000
0100
0001
,
1000
0000
1001
0000
0100
0010
0100
1000
,
0001
0010
0001
0100
0010
1000
0100
1000
,
0001
0000
0010
0000
0100
1000
0100
1000
,
0010
1000
0100
0010
0001
0100
0010
1000
,
0001
0000
0000
0000
0010
0000
0000
0000
0001
0000
0000
1000
0000
0000
0100
0000
,
1000
0010
1000
0010
0100
0001
1000
0100
,
0001
0000
0100
0000
1000
0010
0100
0001
,
0010
0100
1000
0000
0010
1000
0100
0010
,
0001
0100
0101
1100
,
1000
0010
1000
0001
1000
0100
0010
0000
,
0001
0010
0001
1000
0001
0010
0100
0000
,
1000
0010
0100
0001
1000
0100
1000
0000
,
0010
0001
0010
2000
0000
0001
3001
0010
,
0001
1000
0001
1000
0100
0010
0001
0000
,
1000
0001
1000
0001
0010
0100
1000
0000
,
0001
0100
0010
1000
0100
0010
0001
0000
,
0010
0100
1000
0002
0000
0100
0103
0000
,
0010
1000
0001
0100
0010
0100
0100
0000
,
0010
1000
0100
1000
0002
0000
1003
0000
,
0001
0010
1000
0010
0001
0100
0100
0000
,
0001
0000
1000
0000
0100
0000
0002
0000
0000
0000
0000
0103
1000
0000
0001
0000
,
0001
0100
0010
0100
0001
0100
0100
0000
,
0010
1000
0100
1000
0002
0000
0013
0000
,
0100
0010
0001
1000
0010
0100
0100
0000
,
0010
0001
0010
2000
0000
0100
3100
1000
,
0001
0000
0000
0010
0000
0000
0100
0000
0000
0000
1000
0000
0001
0000
0000
0000
,
0100
0000
0000
0010
0000
0000
1000
0000
0000
0000
0100
0000
0010
0000
0000
0000
,
1000
0000
0000
0010
0000
0000
0001
0000
0000
0000
1000
0000
0010
0000
0000
0000
,
0100
0001
0100
2000
0000
3100
0010
0000
,
1000
0000
0000
0001
0000
0000
0100
0000
0000
0000
0010
0000
1000
0000
0000
0000
,
0010
0000
0000
0100
0000
0000
0001
0000
0000
0000
1000
0000
0100
0000
0000
0000
,
0010
0000
0000
0100
0000
0000
1000
0000
0000
0000
0001
0000
0100
0000
0000
0000
,
0010
1000
0100
0002
0000
0103
1000
1000
,
0001
0100
0001
0100
0010
1000
0001
0000
,
1000
0010
1000
0010
0100
0001
1000
0000
,
0100
0010
0001
0100
1000
0100
0001
0000
,
0010
1000
0010
0002
0000
0010
0013
0001
,
0100
0010
0100
0010
1000
0100
0001
0000
,
0100
0010
0100
0010
0001
0100
1000
0000
,
0100
0010
1000
0001
1000
0010
0100
0000
,
0010
1000
0100
2000
0000
0001
3001
0020
,
0000
0001
0002
0000
0000
0000
0000
0000
,
0033
0000
0000
0000
;

//---------------dance-single - ----------------
#NOTES:
     dance-single:
     :
     Challenge:
     9:
     0.679498,0.686384,0.082642,0.146918,0.491258,518.000000,509.000000,9.000000,16.000000,0.000000,0.000000,0.679498,0.686384,0.082642,0.146918,0.491258,518.000000,509.000000,9.000000,16.000000,0.000000,0.000000:
0000
0000
0000
0000
,
0000
0000
0000
0000
,
0000
0000
0000
0000
,
0000
0000
0000
0000
,
0001
0010
0001
0100
0000
0100
0010
1000
,
0010
0001
0000
0001
0010
0100
0001
0010
,
0100
0000
1000
0000
0010
0000
0100
0000
0001
1000
0001
1000
0001
1000
0001
1000
,
0100
0000
0001
0000
0100
0000
1000
0000
0001
1000
0000
0001
0000
0000
0001
0000
,
0010
0001
0010
0000
0100
0000
0010
0001
0010
0000
0001
0000
0001
0000
0000
0000
,
1000
0010
1000
0000
0001
0000
0100
0000
0010
0000
0000
0000
1100
0000
0000
0000
,
0100
0010
0100
0000
1000
0000
0100
0010
0100
0000
1000
0000
1000
0000
0000
0000
,
0010
1000
0010
1000
0001
1000
0002
0000
0000
0000
0010
0000
0013
0000
0100
0000
,
1000
0010
1000
0000
0100
0000
1000
0010
1000
0000
0001
0000
0001
0000
0000
0000
,
1000
0100
1000
0000
0001
0000
0010
0000
0200
0000
1000
0000
1000
0000
1300
0000
,
0010
0100
0010
0000
1000
0000
0100
0000
1000
0001
1000
0001
1000
0001
1000
0001
,
0100
0000
0000
0000
0000
0000
0000
0000
0001
1000
0000
0001
0000
0000
0100
0000
,
0010
1000
0010
1000
0010
1000
0010
1000
,
0001
0100
0001
0100
0001
0100
0001
0100
,
0001
0010
0001
0010
0001
0010
0100
1000
,
0001
0000
0000
0000
1000
1000
1000
1000
,
1000
0001
1000
0001
1000
0001
1000
0001
,
0100
0001
0100
0001
0100
0001
0100
0001
,
0100
0010
0100
0010
0100
0010
0100
0010
,
1000
0000
0010
0000
1000
0000
0010
0000
1000
0000
0000
0100
0010
0000
0001
0000
,
1000
0000
0001
0010
0001
0000
0010
0100
0010
0000
0100
1000
0100
0000
1000
0001
,
1000
0000
0100
0000
0001
0001
0001
0001
,
0100
0000
1000
0010
1000
0000
0010
0001
0010
0000
1000
0100
1000
0000
0001
0100
,
0001
0000
0000
0000
0010
0000
0000
0000
0100
1000
0000
0100
0000
0000
1000
0000
,
0001
0000
0100
0010
0100
0000
0001
1000
0001
0000
0010
0100
0010
0000
0001
1000
,
0001
1000
0100
1000
,
0001
0000
0100
0000
0010
1000
0100
0010
,
1001
0000
0000
0000
0110
0000
0000
0000
1000
0001
0000
0001
1000
0010
1000
0010
,
0100
0000
0001
0000
0010
0000
0100
1000
0000
0100
1000
0000
0010
0000
0001
0000
,
0010
0000
1000
0000
0100
0000
0010
0001
0000
0010
0001
0000
0100
0000
1000
0000
,
0100
0000
0001
0000
1000
0000
0001
0000
1000
0100
1000
0100
1000
0100
1000
0100
,
1000
0000
0010
0000
0100
0000
0210
0000
0000
0000
0301
0000
0100
0010
0000
0100
,
0010
0000
1000
0000
0100
0000
1000
0001
0000
1000
0001
0000
0100
0000
0010
0000
,
1000
0000
0100
0000
1000
0000
0010
0100
0000
0010
0100
0000
0001
0000
0010
0000
,
1000
0000
0010
0000
0001
0000
1000
0100
0000
1000
0100
0000
1000
0000
0000
0000
,
1010
0000
0010
0000
0100
0000
0001
0000
1000
0010
0000
0100
0000
0000
0001
0000
,
1000
0001
0010
0000
0001
0000
1000
0001
0010
0000
0100
0000
0100
0000
0000
0000
,
1000
0100
1000
0000
0001
0000
0010
0000
1000
0000
0000
0000
0011
0000
0000
0000
,
0010
0100
1000
0000
0001
0000
0010
0100
1000
0000
0010
0000
0010
0000
0000
0000
,
0100
0001
0100
0001
1000
0001
2000
0000
0000
0000
0000
3100
0010
0000
0010
0000
,
0001
0100
0010
0000
1000
0000
0001
0100
0010
0000
1000
0000
1000
0000
0000
0000
,
0001
0100
0001
0000
1000
0000
0100
0000
0020
0000
0001
0000
0001
0000
0031
0000
,
1000
0010
0100
0000
0001
0000
1000
0010
0100
0000
0001
0000
0001
0000
0000
0000
,
0010
0100
0010
0100
1000
0100
2000
0000
0000
0000
3001
0000
0100
0010
0100
0010
,
2000
0000
0000
3100
0000
0000
0002
0000
0000
0000
0103
0000
1000
0000
0000
0000
,
0002
0000
0000
0103
0000
0000
2000
0000
0000
0000
3100
0000
0001
0000
0000
0000
,
2000
0000
0000
3010
0000
0000
0002
0000
0000
0000
0013
0000
1000
0000
0000
0000
,
0001
0010
1000
0020
0000
0001
0031
0000
,
1000
0100
1000
0010
0000
0010
0001
0010
,
1000
0001
0010
0100
0000
0001
0100
1000
,
0010
0000
1000
0000
0100
0000
0010
0000
0001
1000
0001
1000
0001
1000
0001
1000
,
0100
0000
1000
0000
0001
0000
0010
0000
0001
1000
0000
1000
0000
0000
0100
0000
,
0010
0000
0001
0000
0100
0000
0010
1000
0000
0010
1000
0000
0100
0000
0010
0000
,
0100
0000
1000
0000
0001
0000
0100
0010
0000
0100
0010
0000
1000
0000
0010
0000
,
0100
0000
0001
0000
0010
0000
0100
0000
1000
0010
1000
0010
1000
0010
1000
0010
,
1000
0000
0100
0000
0010
0000
0021
0000
0000
0000
0031
0000
1000
0100
0000
0100
,
1000
0000
0010
0000
0100
0000
0001
0010
0000
0001
0010
0000
0100
0000
1000
0000
,
0001
0000
1000
0000
0010
0000
0100
0001
0000
0100
0001
0000
1000
0000
0001
0000
,
0010
0000
1000
0000
0010
0000
0001
0100
0000
0001
0100
0000
0010
0000
0000
0000
,
1001
0000
0001
0000
0100
0000
0010
0000
1000
0100
0000
0010
0000
0000
0001
0000
,
1002
1000
2000
0000
0000
0000
0000
0000
,
3003
0000
0000
0000
;

//---------------dance-double - ----------------
#NOTES:
     dance-double:
     :
     Hard:
     8:
     0.490602,0.537170,0.082642,0.082642,0.215786,374.000000,365.000000,9.000000,9.000000,0.000000,0.000000,0.490602,0.537170,0.082642,0.082642,0.215786,374.000000,365.000000,9.000000,9.000000,0.000000,0.000000:
// measure 0
00000000
00000000
00000000
00000000
,  // measure 1
00000000
00000000
00000000
00000000
,  // measure 2
00000000
00000000
00000000
00000000
,  // measure 3
00000000
00000000
00000000
00000000
,  // measure 4
10000000
00010000
00000000
00010000
,  // measure 5
00100000
00001000
00000000
00001000
,  // measure 6
00000100
00000000
00000001
00001000
00000001
00000010
00000001
00000100
,  // measure 7
00001000
00010000
01000000
20000000
00000000
30010000
00100000
01000000
,  // measure 8
00010000
00001000
00000100
00001000
00010000
00000010
00000010
00000000
,  // measure 9
00000100
00000001
00000010
00001000
00010000
00000000
00011000
00000000
,  // measure 10
00001000
00010000
01000000
00010000
00001000
00100000
00100000
00000000
,  // measure 11
10010000
00000000
00000000
00000000
00000000
00000000
00000000
00000000
01000000
00000000
00000000
01000000
10000000
00000000
00010000
00000000
,  // measure 12
00100000
00001000
00010000
00001000
00000010
00000100
00000100
00000000
,  // measure 13
00001000
00000001
00000001
00000100
00000020
00000000
00001030
00000000
,  // measure 14
00000010
00010000
00001000
00010000
00100000
01000000
01000000
00000000
,  // measure 15
10010000
00000000
00000000
00000000
00000000
00000000
00000000
00000000
10000000
00010000
00000000
00010000
10000000
00000000
01000000
00000000
,  // measure 16
00010000
00000000
00010000
00000000
00001000
00000100
00001000
00010000
,  // measure 17
00000010
00000000
00000000
00000010
00000000
00000000
00000100
00000000
00000001
00000000
00000000
00000000
00000010
00000000
00000000
00000000
,  // measure 18
00001000
00000000
00001000
00000000
00010000
00001000
00010000
01000000
,  // measure 19
00100000
00000000
00000000
00000000
00010000
00010000
00010000
00010000
,  // measure 20
10000000
00000000
00100000
00000000
01000000
00010000
10000000
00100000
,  // measure 21
00010000
00000000
00000000
00010000
00000000
00000000
00001000
00000000
00000100
00000000
00000001
00000000
00000010
00000000
00000001
00000000
,  // measure 22
00001000
00000000
00001000
00000010
00000100
00000000
00000100
00001000
,  // measure 23
00010000
00000000
00000000
00000000
01000000
00000000
00000000
00000000
10000000
00000000
00000000
10000000
00010000
00000000
00100000
00000000
,  // measure 24
00001000
00010000
00000100
00000010
00000001
00000100
00001000
00010000
,  // measure 25
01000000
10000000
00010000
00000000
10000000
01000000
10000000
00100000
,  // measure 26
00010000
00001000
01000000
00001000
00010000
00000010
00000100
00000001
,  // measure 27
00001000
00000000
00000000
00000000
00000001
00000000
00000000
00000000
00000010
00000100
00000000
00000100
00000010
00000000
00001000
00000000
,  // measure 28
00010000
00100000
00010000
00100000
10000000
00010000
10000000
01000000
,  // measure 29
00010000
00000000
00001000
00000000
00000100
00000010
00001000
00000001
,  // measure 30
00000000
00000100
00000010
00000000
00010000
00001000
00010000
00100000
,  // measure 31
10000000
01000000
00100000
00010000
,  // measure 32
10000000
00000000
00000000
10000000
01000000
00000000
00100000
00000000
01000000
00000000
00010000
00000000
00001000
00000000
00000000
00000000
,  // measure 33
00000100
00000000
00000000
00000100
00000001
00000000
00000010
00000000
00001000
00000000
00010000
00000000
00000100
00000000
00000000
00000000
,  // measure 34
00000010
00000000
00000000
00000010
00000001
00000000
00000100
00000000
00000010
00000000
00010000
00000000
00001000
00000000
00000000
00000000
,  // measure 35
00010000
01000000
10000000
00100000
00000000
00100000
01000000
00010000
,  // measure 36
10000000
00000000
00000000
10000000
00100000
00000000
01000000
00000000
00100000
00000000
00010000
00000000
00001000
00000000
00000000
00000000
,  // measure 37
00000010
00000000
00000000
00000010
00000001
00000000
00000100
00000000
00001000
00000000
00010000
00000000
00000010
00000000
00000000
00000000
,  // measure 38
00000100
00000000
00000000
00000100
00000001
00000000
00000010
00000000
00000100
00000000
00010000
00000000
00001000
00000000
00000000
00000000
,  // measure 39
00011000
00000000
00000000
00000000
00000000
00000000
00000000
00000000
00100000
10000000
00000000
10000000
00010000
00000000
01000000
00000000
,  // measure 40
00001000
00010000
01000000
00010000
00001000
00100000
00100000
00000000
,  // measure 41
01000000
10000000
00100000
00010000
00001000
00000000
00011000
00000000
,  // measure 42
00010000
00001000
00000100
00001000
00010000
00000010
00000010
00000000
,  // measure 43
00001001
00000000
00000000
00000000
00000000
00000000
00000000
00000000
00000100
00000000
00000000
00000100
00000001
00000000
00001000
00000000
,  // measure 44
00000010
00010000
00001000
00010000
00100000
01000000
01000000
00000000
,  // measure 45
00010000
10000000
10000000
01000000
00200000
00000000
00310000
00000000
,  // measure 46
00100000
00001000
00010000
00001000
00000010
00000100
00000100
00000000
,  // measure 47
00000001
00000100
00001000
00000010
00000000
00000010
00001000
00000001
,  // measure 48
00000200
00000000
00000000
00000000
,  // measure 49
00002000
00000000
00000300
00000000
,  // measure 50
00020000
00000000
00003000
00000000
,  // measure 51
02000000
00000000
00030000
00000000
,  // measure 52
13000000
00000000
00000000
10000000
00000000
00000000
10000000
00000000
00000000
00000000
00010000
00000000
00010000
00000000
00000000
00000000
,  // measure 53
00100000
00000000
00000000
00100000
00000000
00000000
00100000
00000000
00000000
00000000
00001000
00000000
00001000
00000000
00000000
00000000
,  // measure 54
00010000
00000000
00000000
00010000
00000000
00000000
00010000
00000000
00000000
00000000
00000010
00000000
00000010
00000000
00000000
00000000
,  // measure 55
00001001
00000000
00000000
00000000
00000000
00000000
00000000
00000000
00000001
00001000
00000000
00001000
00000001
00000000
00000010
00000000
,  // measure 56
00000001
00000000
00000000
00000001
00000100
00000000
00000000
00000100
00000010
00000000
00000000
00000010
00010000
00000000
00000000
00010000
,  // measure 57
00001000
00000000
00000000
00001000
01000000
00000000
00000000
01000000
00010000
00000000
00000000
00010000
10000000
00000000
00000000
10000000
,  // measure 58
00100000
00000000
00000000
00100000
10000000
00000000
00000000
10000000
01000000
00000000
00000000
01000000
00010000
00000000
00000000
00010000
,  // measure 59
00001000
00000100
00000001
00000010
00000000
00000010
00000001
00001000
,  // measure 60
00000001
00000000
00000000
00000001
00000010
00000000
00000000
00000010
00001000
00000000
00000000
00001000
00100000
00000000
00000000
00100000
,  // measure 61
00010000
00000000
00000000
00010000
01000000
00000000
00000000
01000000
00100000
00000000
00000000
00100000
10000000
00000000
00000000
10000000
,  // measure 62
01000000
00000000
00000000
01000000
00010000
00000000
00000000
00010000
00001000
00000000
00000000
00001000
00000100
00000000
00000000
00000000
,  // measure 63
00001001
00000000
00000000
00000000
00000000
00000000
00000000
00000000
00000010
00000100
00000000
00000100
00000010
00000000
00000100
00000000
,  // measure 64
00002002
00000000
00000000
00000000
,  // measure 65
00003003
00000000
00000000
00000000
;

//---------------dance-double - ----------------
#NOTES:
     dance-double:
     :
     Medium:
     6:
     0.350243,0.381988,0.036730,0.183648,0.055094,267.000000,263.000000,4.000000,20.000000,0.000000,0.000000,0.350243,0.381988,0.036730,0.183648,0.055094,267.000000,263.000000,4.000000,20.000000,0.000000,0.000000:
00000000
00000000
00000000
00000000
,
00000000
00000000
00000000
00000000
,
00000000
00000000
00000000
00000000
,
00000000
00000000
00000000
00000000
,
00000001
00000000
00001000
00000000
,
00000100
00000000
00010000
00000000
,
00001000
00000000
00100000
00000000
00010000
10000000
00010000
10000000
,
02000000
00000000
00000000
03000000
,
00010000
00001000
00010000
00000000
00000100
00000000
00001000
00000000
,
00000001
00000000
00000010
00000100
00000020
00000000
00000030
00000000
,
00001000
00010000
00001000
00000000
01000000
00000000
00010000
00000000
,
10000000
01000000
00100000
00010000
00000000
01000000
00100000
00000000
,
00010000
00001000
00010000
00000000
00000010
00000000
00001000
00000000
,
00000001
00000000
00000100
00000010
00000200
00000000
00000300
00000000
,
00001000
00010000
00001000
00000000
00100000
00000000
00010000
00000000
,
10010000
00000000
00000000
00000000
01000000
00100000
01000000
00000000
,
10000000
10000000
00100000
00100000
,
00010000
00000000
00001000
00010000
00001000
00000000
00000100
00000000
,
00000001
00000001
00000010
00000010
,
00001000
00000000
00000000
00000000
00010000
00001000
00010000
00001000
,
00100000
00000000
00100000
00000000
00100000
00010000
10000000
00000000
,
10000000
00000000
10000000
01000000
00100000
00000000
00001000
00000000
,
00020000
01030000
00020000
00031000
,
00000100
00000000
00000001
00000000
00001000
00000100
00000010
00000001
,
00002000
00000100
00000001
00000010
,
00013000
00000000
00100000
00000000
00010000
01000000
00100000
10000000
,
00020000
01000000
10000000
00100000
,
00031000
00000000
00000010
00000000
00000100
00000010
00000100
00000000
,
00000002
00000023
00000230
00020300
,
00032000
00000000
00203000
00000000
00310000
10000000
00010000
01000000
,
00000000
00100000
10000000
00000000
00010000
01000000
00001000
00010000
,
00000100
00000000
00001001
00000000
,
00000001
00000000
00000000
00000001
00000000
00000000
00000001
00000000
00000000
00000000
00001000
00000000
00000100
00000000
00000000
00000000
,
00000010
00000000
00000000
00000010
00000000
00000000
00000010
00000000
00000000
00000000
00001000
00000000
00010000
00000000
00000000
00000000
,
00000100
00000000
00000000
00000100
00000000
00000000
00000100
00000000
00000000
00000000
00010000
00000000
00001000
00000000
00000000
00000000
,
00100000
00000000
00010000
00000000
10000000
00100000
10000000
00010000
,
10000000
00000000
00000000
10000000
00000000
00000000
10000000
00000000
00000000
00000000
00010000
00000000
01000000
00000000
00000000
00000000
,
00100000
00000000
00000000
00100000
00000000
00000000
00100000
00000000
00000000
00000000
00010000
00000000
00001000
00000000
00000000
00000000
,
01000000
00000000
00000000
01000000
00000000
00000000
01000000
00000000
00000000
00000000
00001000
00000000
00010000
00000000
00000000
00000000
,
00000010
00000000
00000100
00000100
,
00001000
00010000
00001000
00000000
01000000
00000000
00010000
00000000
,
10000000
00000000
00100000
01000000
00200000
00000000
00300000
00000000
,
00010000
00001000
00010000
00000000
00000100
00000000
00001000
00000000
,
00000001
00000100
00000010
00001000
00000000
00000100
00000010
00000000
,
00001000
00010000
00001000
00000000
00100000
00000000
00010000
00000000
,
10000000
00000000
01000000
00100000
02000000
00000000
03000000
00000000
,
00010000
00001000
00010000
00000000
00000010
00000000
00001000
00000000
,
00000001
00000010
00000100
00001000
00000000
00000010
00000100
00000000
,
00002000
00000000
00000000
00000000
,
00023000
00000000
00000000
00000000
,
00230000
00000000
00000000
00000000
,
00320000
00000000
00000000
00000000
,
00031000
00000000
00001000
00100000
00000000
00100000
00010000
00000000
,
10000000
00000000
10000000
01000000
00000000
01000000
00100000
00000000
,
00001000
00000000
00001000
00010000
00000000
00010000
00000100
00000000
,
00000020
00000000
00000000
00000030
,
00000001
00000000
00000000
00000001
00000000
00000000
00000100
00000000
00000000
00000000
00000010
00000000
00001000
00000000
00000000
00000000
,
00000100
00000000
00000000
00000100
00000000
00000000
00010000
00000000
00000000
00000000
00001000
00000000
00000100
00000000
00000000
00000000
,
00001000
00000000
00000000
00001000
00000000
00000000
00010000
00000000
00000000
00000000
01000000
00000000
00100000
00000000
00000000
00000000
,
00010000
00000000
01000000
00000000
00100000
10000000
00010000
00000000
,
10000000
00000000
00000000
10000000
00000000
00000000
01000000
00000000
00000000
00000000
00100000
00000000
00001000
00000000
00000000
00000000
,
01000000
00000000
00000000
01000000
00000000
00000000
00001000
00000000
00000000
00000000
00010000
00000000
01000000
00000000
00000000
00000000
,
00010000
00000000
00000000
00010000
00000000
00000000
00001000
00000000
00000000
00000000
00000100
00000000
00000010
00000000
00000000
00000000
,
00001001
00000000
00000000
00000000
00000010
00000100
00000010
00000000
,
00001001
00000000
00000000
00000000
;

//---------------dance-double - ----------------
#NOTES:
     dance-double:
     :
     Easy:
     4:
     0.245301,0.293837,0.073459,0.027547,0.000000,187.000000,179.000000,8.000000,3.000000,0.000000,0.000000,0.245301,0.293837,0.073459,0.027547,0.000000,187.000000,179.000000,8.000000,3.000000,0.000000,0.000000:
00000000
00000000
00000000
00000000
,
00000000
00000000
00000000
00000000
,
00000000
00000000
00000000
00000000
,
00000000
00000000
00000000
00000000
,
00010000
00000000
00010000
00000000
,
00001000
00000000
00001000
00000000
,
00000200
00000000
00000000
00000300
,
00001001
00000000
00000010
00000010
,
00010000
00001000
00010000
01000000
,
00010000
00001000
00001000
00000000
,
00010000
00001000
00100000
00010000
,
10010000
00000000
01000000
01000000
,
00001000
00010000
00001000
00000100
,
00001000
00010000
00010000
00000000
,
00001000
00010000
00000010
00001000
,
00001001
00000000
00000010
00000010
,
00000001
00000000
00000001
00000000
,
00000100
00000100
00000100
00000000
,
00001000
00000000
00010000
00010000
,
00000000
00000000
01000000
01000000
,
10000000
10000000
10000000
10000000
,
00010000
00010000
00010000
00100000
,
00002000
00000000
00023000
00000000
,
00030100
00000000
00000010
00000010
,
00000001
00001000
00000010
00000100
,
00000010
00000000
00010000
00000000
,
00001000
00100000
00001000
01000000
,
00010000
00000000
10000000
00000000
,
00100000
00100000
10000000
00000000
,
10000000
10000000
01000000
00000000
,
01000000
01000000
00010000
00000000
,
00010000
00000000
00001000
00000000
,
00000100
00000001
00000100
00000000
,
00000001
00000010
00000001
00000000
,
00000010
00001000
00000010
00000000
,
00001000
00010000
00001000
00010000
,
01000000
10000000
01000000
00000000
,
10000000
00100000
10000000
00000000
,
00100000
00010000
00100000
00000000
,
00011000
00000000
00000100
00000100
,
00001000
00010000
00001000
00000010
,
00001000
00010000
00010000
00000000
,
00001000
00010000
00000100
00001000
,
00001001
00000000
00000010
00000010
,
00010000
00001000
00010000
00100000
,
00010000
00001000
00001000
00000000
,
00010000
00001000
01000000
00010000
,
10010000
00000000
10000000
00010000
,
10000000
00000000
00000000
00000000
,
01000000
00000000
00000000
00000000
,
00100000
00000000
00000000
00000000
,
00001000
00000000
00000000
00000000
,
00010000
00000000
00010000
00000000
,
00000100
00000000
00000100
00000000
,
00001000
00000000
00001000
00000000
,
00000001
00000000
00000010
00000010
,
00001000
00010000
00001000
01000000
,
00001000
00010000
00000100
00010000
,
00001000
00100000
00010000
10000000
,
01000000
00000000
00010000
00010000
,
00001000
00100000
00001000
00010000
,
00000100
00000010
00000100
00010000
,
00001000
00100000
01000000
00100000
,
10010000
00000000
00100000
00100000
,
01100000
00000000
00000000
00000000
;

//---------------dance-double - ----------------
#NOTES:
     dance-double:
     :
     Challenge:
     9:
     0.640144,0.716227,0.064277,0.119371,0.454529,488.000000,481.000000,7.000000,13.000000,0.000000,0.000000,0.640144,0.716227,0.064277,0.119371,0.454529,488.000000,481.000000,7.000000,13.000000,0.000000,0.000000:
00000000
00000000
00000000
00000000
,
00000000
00000000
00000000
00000000
,
00000000
00000000
00000000
00000000
,
00000000
00000000
00000000
00000000
,
00010000
00000000
00000000
00010000
00000000
00000000
00001000
00000000
00000000
00000000
00010000
00000000
00001000
00000000
00000100
00000000
,
00000001
00000010
00001000
00000001
00000100
00001000
00000100
00010000
,
00001000
00100000
00010000
10000000
01000000
00010000
00001000
00000100
,
00000002
00000000
00000000
00000000
00000000
00000000
00001003
00000000
00000100
00000010
00000000
00000010
00000100
00000000
00010000
00000000
,
00001000
00010000
00000100
00000000
00000010
00000000
00001000
00010000
00000100
00000000
00000010
00000000
00000010
00000000
00000000
00000000
,
00001000
00010000
00000100
00000000
00010000
00000000
01000000
00000000
00020000
00000000
00000000
00000000
00031000
00000000
00000000
00000000
,
00010000
00001000
01000000
00000000
00100000
00000000
00010000
00001000
01000000
00000000
00100000
00000000
00100000
00000000
00000000
00000000
,
10000000
01000000
00010000
00002000
00000000
00003100
00000001
00001000
,
00000010
00010000
00001000
00000000
00000100
00000000
00000010
00010000
00001000
00000000
00010000
00000000
00010000
00000000
00000000
00000000
,
00001000
00100000
00010000
00000000
10000000
00000000
00100000
00000000
00010000
00000000
00001000
00000000
01000000
00000000
00100000
00000000
,
01000000
00001000
00010000
00000000
00100000
00000000
01000000
00001000
00010000
00001000
00010000
00000010
00001000
00000010
00001000
00000001
,
00000100
00000000
00000000
00000000
00000000
00000000
00000000
00000000
00000001
00001000
00000000
00000001
00001000
00000000
00000100
00000000
,
00000010
00000000
00000010
00000001
00000100
00001000
00010000
01000000
,
10000000
00000000
00000000
00010000
00000000
00000000
10000000
00000000
01000000
00000000
00000000
00000000
00010000
00000000
00000000
00000000
,
00001000
00100000
00010000
01000000
00001000
00010000
00000010
00000100
,
00000001
00000000
00000000
00000000
00001000
00001000
00001000
00001000
,
00000001
00000100
00000010
00001000
00000001
00000100
00001000
00010000
,
00100000
00000000
00000000
01000000
00000000
00000000
00010000
00000000
10000000
00000000
01000000
00000000
00100000
00000000
00001000
00000000
,
00010000
00000000
00001000
00000100
00000001
00000000
00000010
00000001
,
00000100
00000000
00000000
00000000
00001000
00000000
00000000
00000000
00010000
00000000
00000000
00100000
10000000
00000000
00010000
00000000
,
10000000
00000000
00100000
01000000
00100000
00000000
01000000
00010000
01000000
00000000
00010000
00100000
00010000
00000000
00100000
00001000
,
00100000
00000000
00001000
00000000
00010000
00001000
00000010
00000001
,
00001000
00000000
00000001
00000010
00000001
00000000
00000010
00000100
00000010
00000000
00000100
00010000
00000100
00000000
00010000
00001000
,
00010000
00000000
00000000
00000000
00001000
00000000
00000000
00000000
00100000
00010000
00000000
10000000
00100000
00000000
01000000
00000000
,
00010000
00000000
10000000
00100000
10000000
00000000
00100000
01000000
00100000
00000000
01000000
00001000
01000000
00000000
00001000
00010000
,
00001000
00000000
00000100
00000000
00000001
00000010
00000100
00001000
,
00000000
00000001
00000001
00000000
00001000
00000100
00010000
00001000
,
00101000
00000000
00000000
00000000
01010000
00000000
00000000
00000000
10000000
00010000
00000000
00010000
10000000
00100000
10000000
00100000
,
01000000
00000000
00000000
01000000
00010000
00000000
00100000
00000000
00001000
00000000
00010000
00000000
00000010
00000000
00001000
00000000
,
00000001
00000000
00000000
00000001
00000010
00000000
00000100
00000000
00010000
00000000
00001000
00000000
01000000
00000000
00010000
00000000
,
10000000
00000000
00000000
10000000
00010000
00000000
00100000
00000000
00001000
00010000
00001000
00010000
00001000
00010000
00001000
00010000
,
00000100
00000000
00000100
00000000
00000010
00000000
00000010
00000000
00000000
00000000
00000001
00000000
00001000
00000010
00001000
00000010
,
00001000
00000000
00000001
00000100
00000000
00000001
00000100
00000000
00000010
00000000
00010000
00000000
00001000
00000000
01000000
00000000
,
00010000
00000000
10000000
00100000
00000000
10000000
00100000
00000000
01000000
00000000
00001000
00000000
00010000
00000000
00000100
00000000
,
00000010
00000000
00000001
00001000
00000000
00000001
00001000
00000000
00000100
00000000
00010000
00000000
00001000
00000000
01000000
00000000
,
01010000
00000000
00000000
00000000
00000000
00000000
00000000
00000000
01000000
00100000
00000000
00100000
01000000
00000000
00001000
00000000
,
00010000
00001000
01000000
00000000
00100000
00000000
00010000
00001000
01000000
00000000
00100000
00000000
00100000
00000000
00000000
00000000
,
00010000
00001000
01000000
00000000
00001000
00000000
00000100
00000000
00002000
00000000
00000000
00000000
00013000
00000000
00000000
00000000
,
00001000
00010000
00000100
00000000
00000010
00000000
00001000
00010000
00000100
00000000
00000010
00000000
00000010
00000000
00000000
00000000
,
00001001
00000000
00000000
00000000
00000000
00000000
00000000
00000000
00000100
00000000
00000000
00000100
00010000
00000000
00001000
00000000
,
00100000
00001000
00010000
00000000
01000000
00000000
00100000
00001000
00010000
00000000
00001000
00000000
00001000
00000000
00000000
00000000
,
00010000
00000010
00001000
00000000
00000001
00000000
00000010
00000000
00001000
00000000
00010000
00000000
00000100
00000000
00000010
00000000
,
00000100
00010000
00001000
00000000
00000010
00000000
00000100
00010000
00001000
00000000
00010000
00000000
00010000
00000000
00000000
00000000
,
00100000
10000000
01000000
00010000
00001000
00000000
00011000
00000000
,
00002000
00000000
00000000
00003100
00000000
00000000
00000002
00000000
00000000
00000000
00000103
00000000
00001000
00000000
00000000
00000000
,
00020000
00000000
00000000
01030000
00000000
00000000
20000000
00000000
00000000
00000000
31000000
00000000
00010000
00000000
00000000
00000000
,
00002000
00000000
00000000
00003010
00000000
00000000
00000002
00000000
00000000
00000000
00000013
00000000
00001000
00000000
00000000
00000000
,
00010000
00100000
10000000
00200000
00000000
00010000
00310000
00000000
,
00001000
00000000
00000000
00001000
00000100
00000000
00000001
00000000
00000000
00000000
00000010
00000000
00000001
00000000
00000010
00000000
,
00001000
00000000
00000000
00001000
00010000
00000000
01000000
00000000
00000000
00000000
10000000
00000000
01000000
00000000
00000000
00000000
,
10000000
00000000
00010000
00000000
00100000
00000000
00001000
00000000
00010000
00000100
00010000
00000100
00010000
00000100
00010000
00000100
,
00001000
00000000
00000000
00000000
00000000
00000000
00000000
00000000
00000010
00000100
00000000
00000100
00000010
00000000
00001000
00000000
,
00000100
00001000
00000010
00000000
00000100
00000000
00000001
00000010
00000100
00000000
00010000
00000000
00001000
00000000
00000000
00000000
,
00100000
00010000
01000000
00000000
00100000
00000000
10000000
01000000
00100000
00000000
00001000
00000000
00010000
00000000
00000000
00000000
,
00000010
00001000
00000100
00000000
00000010
00000000
00000001
00000100
00000010
00010000
00000010
00010000
00001000
00100000
00001000
00100000
,
00010000
00000000
01000000
00000000
00100000
00000000
10000000
00000000
00000000
00000000
10000000
00000000
00100000
01000000
00000000
00100000
,
01000000
00010000
00100000
00000000
01000000
00000000
10000000
00100000
01000000
00000000
00001000
00000000
00010000
00000000
00000000
00000000
,
00000100
00001000
00000010
00000000
00000100
00000000
00000001
00000010
00000100
00000000
00010000
00000000
00001000
00000000
00000000
00000000
,
00100000
00010000
01000000
00000000
00100000
00000000
10000000
01000000
00100000
00000000
00001000
00000000
00010000
00000000
00000100
00000000
,
00001100
00000000
00000000
00000000
00000000
00000000
00000000
00000000
00000100
00000010
00000000
00000010
00000100
00000000
00001000
00000000
,
00002002
00000000
00000000
00000000
,
00003003
00000000
00000000
00000000
;
