#VERSION:0.83;
#TITLE:Uptown Funk!;
#SUBTITLE:;
#ARTIST:Mark Ronson ft. Bruno Mars;
#TITLETRANSLIT:;
#SUBTITLETRANSLIT:;
#ARTISTTRANSLIT:;
#GENRE:;
#ORIGIN:;
#CREDIT:;
#BANNER:Uptown Funk!.png;
#BACKGROUND:Uptown Funk!-bg.png;
#PREVIEWVID:;
#JACKET:Uptown Funk!-jacket.png;
#CDIMAGE:;
#DISCIMAGE:;
#LYRICSPATH:;
#CDTITLE:;
#MUSIC:Uptown Funk!.ogg;
#OFFSET:0.000000;
#SAMPLESTART:58.419998;
#SAMPLELENGTH:12.000000;
#SELECTABLE:YES;
#BPMS:0.000=115.000;
#STOPS:;
#DELAYS:;
#WARPS:;
#TIMESIGNATURES:0.000=4=4;
#TICKCOUNTS:0.000=4;
#COMBOS:0.000=1;
#SPEEDS:0.000=1.000=0.000=0;
#SCROLLS:0.000=1.000;
#FAKES:;
#LABELS:0.000=Song Start;
#BGCHANGES:-0.250=Uptown Funk!.avi=1.000=1=0=0=StretchNoLoop==CrossFade==,
99999=-nosongbg-=1.000=0=0=0 // don't automatically add -songbackground-
;
#KEYSOUNDS:;
#ATTACKS:
;

//---------------dance-single - ----------------
#NOTEDATA:;
#CHARTNAME:;
#STEPSTYPE:dance-single;
#DESCRIPTION:;
#CHARTSTYLE:;
#DIFFICULTY:Hard;
#METER:8;
#RADARVALUES:0.482015,0.493779,0.388022,0.185576,0.244623,400.000000,354.000000,46.000000,22.000000,0.000000,0.000000,0.000000,0.000000,0.000000,0.482015,0.493779,0.388022,0.185576,0.244623,400.000000,354.000000,46.000000,22.000000,0.000000,0.000000,0.000000,0.000000,0.000000;
#CREDIT:;
#NOTES:
0000
0000
0000
0000
,
0000
0000
0000
0000
,
0000
0000
0000
0000
,
0000
0000
0000
0000
,
1000
0000
0000
1000
0000
0000
0100
0000
0010
0000
0000
0010
0000
0000
0001
0000
,
0100
0000
0000
0100
0000
0010
0100
0000
0010
0000
0000
1000
0000
0000
0000
0000
,
1000
0000
0000
0010
0000
0100
0001
0000
0010
0000
0000
0010
0000
0000
0100
0000
,
2000
0000
0000
0010
0000
0000
0100
0000
3001
0000
0100
0010
0000
0000
0000
0000
,
0102
0000
0000
1003
0000
0000
0000
0000
2100
0000
0000
3001
0000
0000
0000
0000
,
1000
0100
0010
0001
1001
0000
0000
0001
,
0010
0000
0000
0100
0000
1000
0010
0000
0100
0000
0000
0001
0000
0000
0010
0000
,
0001
0000
0010
0100
0000
0100
1000
0000
1000
0001
1000
0000
0100
0000
1000
0000
,
0001
1000
0100
0010
0110
0000
0001
0100
,
0020
0000
0000
1000
0000
0000
0130
0000
0002
0000
0000
0010
0000
0000
1003
0000
,
0001
0100
0010
1000
2001
0000
3010
1000
,
0100
0000
0010
0100
0000
0100
1000
0000
1000
0010
0000
0100
0000
0001
0010
0000
,
0100
1000
0001
0010
0012
0000
1003
0000
,
0001
0010
0100
1000
0010
0100
0001
0010
,
0100
1000
0010
1000
1020
0000
0130
0001
,
0010
0100
1000
0010
0100
0001
0110
0000
,
1001
0000
0001
1000
0100
0010
0022
0033
,
1001
0000
0001
0100
0010
1000
2020
3030
,
1001
0000
1000
0100
0010
0001
0220
0330
,
1000
0000
1000
0000
0001
0000
0001
0000
0100
0010
0100
0010
0000
0000
0000
0010
,
1000
0000
1000
0000
0100
0000
0100
0000
0010
0001
0010
0001
0000
0000
0000
0010
,
0001
0000
0001
0000
1000
0000
1000
0000
0100
1000
0100
1000
0000
0000
0000
0000
,
1000
1000
0100
0100
0010
0010
0001
1000
,
2002
0000
0000
0000
0000
0000
0000
0000
3003
0000
0000
0000
0001
1000
0000
0000
,
1100
1000
0010
0100
0001
0010
0100
0010
,
0020
0000
0000
0031
0000
0000
0100
0000
0020
0000
0000
1030
0000
0000
0100
0000
,
0200
0010
0001
0010
,
1300
0100
1000
0010
0100
0001
1000
0100
,
0110
0010
0001
0100
0010
1000
0100
0010
,
0020
0000
0000
0130
0000
0000
1000
0000
0020
0000
0000
0031
0000
0000
0010
0000
,
0120
0000
1030
0010
1000
0100
1000
0000
,
0100
0010
0001
0100
1000
0100
0001
0100
,
0010
1000
0100
0010
0011
0001
0100
0010
,
1000
0100
0010
0100
1100
1000
0010
0100
,
0001
0010
0100
1000
1010
1000
0100
0010
,
0100
0000
0000
1000
0000
0000
0100
0000
0000
0001
0000
0000
0100
0000
0000
1000
0000
0000
0100
0000
0010
0000
0000
0000
,
0110
0000
0000
0000
1001
0000
0000
0000
0110
0000
0100
0010
0000
0000
0000
0000
,
0001
0000
0100
0000
0001
0000
0010
0100
0000
0000
0000
0000
1000
0000
0001
0000
,
0010
0000
0000
0000
0011
0000
0000
0000
1100
0000
1000
0001
0000
0000
0000
0000
,
0010
0001
0010
0100
1000
0010
0100
0001
,
0110
0000
0000
0000
1001
0000
0000
0000
0101
0000
0100
0010
0000
0000
0000
0000
,
0010
0000
1000
0000
0100
0000
0010
0001
0000
0000
0000
0000
0010
0000
0100
0000
,
1000
0000
0000
0000
1010
0000
0000
0000
0101
0000
0100
0001
0000
0000
0000
0000
,
0011
0000
1000
0000
1010
0000
0001
0000
0100
0000
0001
0000
0010
0100
0000
0000
,
0110
0000
0000
0000
1001
0000
0000
0000
0110
0000
0100
0010
0000
0000
0000
0000
,
0010
0000
1000
0000
0100
0000
1000
0010
0000
0000
0000
0000
0010
0000
0100
0000
,
0101
0000
0000
0000
0011
0000
0000
0000
1010
0000
1000
0010
0000
0000
0000
0000
,
0010
0000
0010
0000
0100
0000
0100
0000
0001
1000
0001
0100
0000
0000
0100
0000
,
0110
0000
0000
0000
1010
0000
0000
0000
1100
0000
1000
0010
0000
0000
0000
0000
,
0010
0000
0100
0000
0001
0000
0010
0100
0000
0000
0000
0000
0100
0000
1000
0000
,
1100
0000
0110
0000
1001
0001
1000
0100
,
1000
0100
0010
0001
0000
1000
0000
0010
0100
0010
0000
0000
1001
0000
0000
0000
;

//---------------dance-single - ----------------
#NOTEDATA:;
#CHARTNAME:;
#STEPSTYPE:dance-single;
#DESCRIPTION:;
#CHARTSTYLE:;
#DIFFICULTY:Medium;
#METER:6;
#RADARVALUES:0.455504,0.517292,0.835091,0.092788,0.037959,378.000000,279.000000,99.000000,11.000000,0.000000,0.000000,0.000000,0.000000,0.000000,0.455504,0.517292,0.835091,0.092788,0.037959,378.000000,279.000000,99.000000,11.000000,0.000000,0.000000,0.000000,0.000000,0.000000;
#CREDIT:;
#NOTES:
0000
0000
0000
0000
,
0000
0000
0000
0000
,
0000
0000
0000
0000
,
0000
0000
0000
0000
,
1000
1100
0001
0101
,
1000
1010
0001
0011
,
0010
0110
1000
1001
,
0100
0000
0110
0000
1000
0100
1100
0000
,
0200
0000
0000
0310
0000
0000
0000
0000
0002
0000
0000
0103
0000
0000
0000
0000
,
0020
0000
0000
1030
0000
0000
0000
0000
1010
0000
0000
0000
0000
0000
0000
0000
,
1000
1100
0010
0011
,
0001
0100
0110
0000
0010
1000
0110
0000
,
0001
0100
0010
1000
1100
0000
1100
0000
,
1000
0010
0100
0000
0001
0010
0100
0000
,
0100
0010
0001
1000
1010
0000
1010
0000
,
1000
0010
0100
0000
0001
0010
0100
0000
,
1000
0100
0001
0100
0110
0000
1001
0000
,
0001
0100
1000
0000
1000
0100
0010
0000
,
0010
1000
0100
0010
0101
0000
1001
1000
,
0100
0000
0010
0000
0001
0100
0110
0000
,
1000
0000
1000
0000
0100
0010
2001
0000
,
3001
0000
0001
0000
0100
0010
1002
0000
,
1003
0000
1000
0000
0001
1000
0210
0000
,
0301
0000
0001
0000
1000
0001
0210
0000
,
0310
0010
0001
0001
0100
0100
0010
0010
,
1000
1000
0100
0100
0010
0010
0001
0001
,
0100
0100
0010
0010
1000
1000
0100
0100
,
0220
0000
0330
0110
,
1001
1000
0100
0000
1002
0000
0013
0100
,
1000
0000
0000
1000
0000
0000
0100
0000
0010
0000
0000
0100
0000
0000
1000
0000
,
1010
1100
1010
1100
,
1000
0000
0000
0010
0000
0000
0100
0000
0001
0000
0000
0000
0011
0000
0000
0000
,
0011
0100
1000
0000
1020
0000
0130
0001
,
1000
0000
0000
0001
0000
0000
0100
0000
0001
0000
0000
1000
0000
0000
0100
0000
,
1100
1010
0101
0011
,
0001
0000
0000
0100
0000
0000
0010
0000
1000
0000
0000
0000
1001
0000
0000
0000
,
1000
0000
1100
0000
0010
0001
0101
0000
,
0001
0000
0101
0000
0010
1000
1100
0000
,
0001
0000
0101
0000
0010
0001
0101
0000
,
0110
0110
1001
1001
,
1100
0001
0100
0000
0101
1000
0100
0000
,
1010
0001
0010
0000
0011
1000
0010
0000
,
1010
1000
0100
0000
0011
0001
0100
0000
,
0110
0010
1000
0000
0110
0010
0001
0000
,
0101
0001
0010
0000
1100
1000
0010
0000
,
1010
1000
0100
0000
0011
0001
0100
0000
,
0110
1000
0100
0000
0110
0001
0100
0000
,
1010
1001
1100
1001
,
0101
0000
0101
0000
1100
1000
0101
0000
,
0011
0011
1010
1010
,
1001
0000
1001
0000
0110
0100
0101
0000
,
1001
0110
1001
0000
0110
0000
0110
0000
,
0101
0001
1001
0000
1100
1000
0001
0000
,
0011
0001
1001
0000
1010
0000
1001
0000
,
1001
1000
0110
0000
0110
0100
0010
1000
,
1100
0010
0100
0001
0010
0100
1001
0000
;

//---------------dance-single - ----------------
#NOTEDATA:;
#CHARTNAME:;
#STEPSTYPE:dance-single;
#DESCRIPTION:;
#CHARTSTYLE:;
#DIFFICULTY:Easy;
#METER:3;
#RADARVALUES:0.231367,0.258646,0.118094,0.092788,0.029523,192.000000,178.000000,14.000000,11.000000,0.000000,0.000000,0.000000,0.000000,0.000000,0.231367,0.258646,0.118094,0.092788,0.029523,192.000000,178.000000,14.000000,11.000000,0.000000,0.000000,0.000000,0.000000,0.000000;
#CREDIT:;
#NOTES:
0000
0000
0000
0000
,
0000
0000
0000
0000
,
0000
0000
0000
0000
,
0000
0000
0000
0000
,
1000
0001
0100
0001
,
1000
0001
0200
0300
,
0100
0010
0100
1000
,
0100
0001
0020
0030
,
0110
0000
1001
0000
,
0110
0000
1001
0000
,
1000
0100
1000
0010
,
1000
0000
0001
0000
0200
0300
0000
0000
,
0001
0100
0001
0000
,
0010
0010
0100
0100
,
1000
0010
1000
0000
,
0010
0010
0100
0100
,
0001
1000
0001
0000
,
0001
0001
0010
0100
,
1000
0001
1000
0000
,
0010
1000
0100
0001
,
0100
1000
0010
0000
,
0100
0001
0010
0000
,
0100
1000
0010
0000
,
0010
1000
0001
0000
,
0010
0010
0020
0030
,
0100
0100
0200
0300
,
1001
0100
1001
0100
,
2002
0000
0000
3003
,
1000
1000
0100
0100
,
0010
0010
0001
0001
,
0022
0000
0000
0033
,
0001
0100
1000
0100
,
0001
0001
0100
0100
,
0010
1000
0100
1000
,
2200
0000
0000
3300
,
1000
0010
0001
0010
,
1000
1000
0101
0000
,
0001
0001
1100
0000
,
0010
0100
1010
0000
,
0010
0010
0010
0010
,
0010
1000
0100
0001
,
0100
1000
0100
0010
,
0001
0100
1000
0100
,
0001
1000
0100
1000
,
0010
0100
0001
0010
,
0100
1000
0010
0100
,
0001
0010
0100
1000
,
0010
0010
0100
1001
,
1000
0000
0000
0000
1000
0000
0000
0000
0001
0000
0000
0001
0000
0000
0000
0000
,
0001
0000
0000
0000
1000
0000
0000
1000
0000
0000
0000
0000
1000
0000
0000
0000
,
0010
0000
0000
0000
1000
0000
0000
0000
0001
0000
0000
0001
0000
0000
0000
0000
,
0001
0000
0000
0000
1000
0000
0000
1000
0000
0000
0000
0000
0100
0000
0000
0000
,
0010
0000
0000
0000
0001
0000
0000
0000
0010
0000
0000
0010
0000
0000
0000
0000
,
0100
0000
0000
0000
0010
0000
0000
0010
0000
0000
0000
0000
0000
0000
0000
0000
,
0100
0000
0000
0000
0010
0000
0000
0000
0100
0000
0000
0100
0000
0000
0000
0000
,
1000
0001
1000
0110
;

//---------------dance-single - ----------------
#NOTEDATA:;
#CHARTNAME:;
#STEPSTYPE:dance-single;
#DESCRIPTION:;
#CHARTSTYLE:;
#DIFFICULTY:Beginner;
#METER:1;
#RADARVALUES:0.122914,0.164593,0.075917,0.000000,0.000000,102.000000,93.000000,9.000000,0.000000,0.000000,0.000000,0.000000,0.000000,0.000000,0.122914,0.164593,0.075917,0.000000,0.000000,102.000000,93.000000,9.000000,0.000000,0.000000,0.000000,0.000000,0.000000,0.000000;
#CREDIT:;
#NOTES:
0000
0000
0000
0000
,
0000
0000
0000
0000
,
0000
0000
0000
0000
,
0000
0000
0000
0000
,
1000
0000
1000
0000
,
1000
0000
1000
0000
,
0001
0000
0001
0000
,
0001
0000
1000
0000
,
0100
0000
0100
0000
,
0100
0000
1000
0000
,
0010
0000
0010
0000
,
0100
0000
0001
0000
,
1001
0000
0000
0000
,
0001
0000
0001
0000
,
1001
0000
0000
0000
,
1000
0000
1000
0000
,
1001
0000
0000
0000
,
0100
0000
0100
0000
,
1001
0000
0000
0000
,
0010
0000
0010
0000
,
0010
0000
0000
0000
,
1000
0000
0000
0000
,
0001
0000
0000
0000
,
0100
0000
0000
0000
,
0010
0000
0010
0000
,
0100
0000
0100
0000
,
0001
0000
0001
0000
,
1000
0000
0000
0000
,
0110
0000
0000
0000
,
0100
0000
0010
0000
,
1001
0000
0000
0000
,
0001
0000
1000
0000
,
0110
0000
0000
0000
,
1000
0000
0001
0000
,
1001
0000
0000
0000
,
0001
0000
0100
0000
,
0010
0000
0100
0000
,
1000
0000
0100
0000
,
0010
0000
0100
0000
,
0001
0001
0001
0001
,
0001
0000
0100
0000
,
1000
0000
0000
0000
,
1000
0000
0100
0000
,
0001
0000
0000
0000
,
0001
0000
0010
0000
,
1000
0000
0000
0000
,
1000
0000
0010
0000
,
0001
0001
0001
0000
,
1000
0000
1000
0000
,
0010
0000
0010
0000
,
0100
0000
0100
0000
,
0001
0000
0001
0000
,
0010
0000
0010
0000
,
0100
0000
0100
0000
,
1000
0000
1000
0000
,
1000
1000
1000
1001
;

//---------------dance-double - ----------------
#NOTEDATA:;
#CHARTNAME:;
#STEPSTYPE:dance-double;
#DESCRIPTION:;
#CHARTSTYLE:;
#DIFFICULTY:Hard;
#METER:8;
#RADARVALUES:0.516961,0.564319,0.261493,0.134964,0.295234,429.000000,398.000000,31.000000,16.000000,0.000000,0.000000,0.000000,0.000000,0.000000,0.516961,0.564319,0.261493,0.134964,0.295234,429.000000,398.000000,31.000000,16.000000,0.000000,0.000000,0.000000,0.000000,0.000000;
#CREDIT:;
#NOTES:
// measure 0
00000000
00000000
00000000
00000000
,  // measure 1
00000000
00000000
00000000
00000000
,  // measure 2
00000000
00000000
00000000
00000000
,  // measure 3
00000000
00000000
00000000
00000000
,  // measure 4
10000000
00000000
00000000
01000000
00000000
00000000
00010000
00000000
00001000
00000000
00000000
00000100
00000000
00000000
00000001
00000000
,  // measure 5
00000100
00000000
00000000
00001000
00000000
00010000
00100000
00000000
00010000
00000000
00000000
00001000
00000000
00000000
00000000
00000000
,  // measure 6
00011000
00000000
00000000
00010000
00000000
00000100
00001000
00000000
00000010
00000000
00000000
00000100
00000000
00000000
00000001
00000000
,  // measure 7
00000010
00000000
00000000
00000100
00000000
00000000
00010000
00000000
00000100
00000000
00010000
00001000
00000000
00000000
00000000
00000000
,  // measure 8
00012000
00000000
00000000
01003000
00000000
00000000
00000000
00000000
00021000
00000000
00000000
00030100
00000000
00000000
00000000
00000000
,  // measure 9
00010000
00001000
00000100
00000001
00001001
00000000
00000000
00000001
,  // measure 10
00000011
00000000
00000000
00000100
00000000
00000000
00001000
00000000
00000100
00000000
00010000
00001000
00000000
00000000
00010000
00000000
,  // measure 11
01000000
00000000
10000000
00100000
00000000
00100000
01000000
00000000
01000000
00010000
10000000
00000000
00000000
00000000
00100000
00000000
,  // measure 12
10000000
00000000
01000000
00000000
00010000
00000000
00001000
00000000
00000100
00000000
00000001
00000000
00000100
00001000
00000000
00000000
,  // measure 13
00010000
00000100
00000010
00000001
00000100
00001000
00000100
00000001
,  // measure 14
00000010
00000000
00001000
00000000
00010000
00000000
00100000
00000000
10000000
00000000
01000000
00000000
00100000
00010000
00000000
00000000
,  // measure 15
00010000
00000000
01000000
00100000
00000000
00100000
10000000
00000000
10000000
01000000
00000000
00100000
00000000
00010000
00100000
00000000
,  // measure 16
00001000
00000000
00000100
00000000
00000001
00000000
00000010
00000000
00001000
00000000
00010000
00000000
00100000
10000000
00000000
00000000
,  // measure 17
10000000
00100000
00000000
01000000
00000000
00010000
00100000
00000000
00001000
00010000
00000000
00000100
00000000
00001000
00000010
00000000
,  // measure 18
00000100
00000000
00001000
00000000
00010000
00000000
01000000
00000000
10000000
00000000
00100000
00000000
00010000
00001000
00000000
00000000
,  // measure 19
00000100
00000000
00000000
00000001
00000000
00000000
00000010
00000000
00000100
00000000
00010000
00001000
00100000
00000000
00000000
00000000
,  // measure 20
00210000
00000000
00000000
00301000
00000000
00001000
00010000
00001000
00010000
00000000
00001000
00000000
00011000
00000000
00000000
00000000
,  // measure 21
00001020
00000000
00000000
00010000
00000000
00010030
00000010
00010000
00001000
00000000
00001000
00000000
00011000
00000000
00000000
00000000
,  // measure 22
00012000
00000000
00000000
00100000
00000000
00103000
00001000
00010000
00000100
00000000
00010000
00000000
00011000
00000000
00000000
00010000
,  // measure 23
00000100
00000000
00000100
00000000
00000010
00000000
00000010
00000000
00000001
00000100
00000001
00000100
00000000
00000000
00000000
00000100
,  // measure 24
00000010
00000000
00000010
00000000
00001000
00000000
00001000
00000000
00000100
00010000
00000100
00010000
00000000
00000000
00000000
00001000
,  // measure 25
00010000
00000000
00010000
00000000
01000000
00000000
01000000
00000000
10000000
00100000
10000000
00100000
00000000
00000000
00000000
00000000
,  // measure 26
10000000
01000000
00010000
00001000
00000100
00000001
00000100
00001000
,  // measure 27
00022000
00000000
00000000
00000000
00000000
00000000
00000000
00000000
00033000
00000000
00000000
00000000
00010000
00001000
00000000
00000000
,  // measure 28
00001000
00010000
01000000
00010000
00001000
00000100
00000010
00010000
,  // measure 29
00000020
00000000
00000000
00001030
00000000
00000000
00000100
00000000
00000002
00000000
00000000
00000003
00000100
00000000
00001000
00000000
,  // measure 30
00002100
00000001
00000010
00003001
,  // measure 31
00001000
00000000
00000100
00001000
00000000
00000010
00000100
00000000
00000110
00000000
00000100
00000000
00000001
00000000
00000100
00000000
,  // measure 32
00001000
00000100
00000010
00000100
00001000
00010000
00100000
10000000
,  // measure 33
02000000
00000000
00000000
03100000
00000000
00000000
01000000
00000000
20000000
00000000
00000000
00000000
30100000
00000000
01000000
00000000
,  // measure 34
01010000
00000000
01000000
00001000
00010000
00000100
00001000
00000000
,  // measure 35
00001001
00000000
00000001
00000010
00000000
00000100
00000010
00000000
00000110
00000000
00000010
00000000
00001000
00000000
00010000
00000000
,  // measure 36
00100000
10000000
01000000
00100000
10010000
10000000
01000000
00100000
,  // measure 37
00001000
00010000
00000010
00000100
00001001
00000001
00000010
00000100
,  // measure 38
00010000
00001000
00100000
00010000
10010000
10000000
00100000
00001000
,  // measure 39
00000020
00000000
00000000
00001030
00000000
00000000
00020000
00000000
00000000
00130000
00000000
00000000
00020000
00000000
00000000
00031000
00000000
00000000
00000020
00000000
00000100
00000000
00000030
00000000
,  // measure 40
00000001
00000100
00001000
00000100
00000001
00000100
00000100
00001000
,  // measure 41
00010000
00001000
00100000
00010000
01010000
00000000
01000000
00010000
,  // measure 42
10000000
00100000
01000000
00010000
00100000
00001000
00001000
00010000
,  // measure 43
00000010
00000100
00000001
00000010
00000011
00000000
00000001
00000100
,  // measure 44
00001000
00100000
00010000
00100000
01000000
10000000
10000000
01000000
,  // measure 45
00100000
00001000
00010000
00000100
00001100
00000000
00000100
00001000
,  // measure 46
00000001
00000010
00000100
00010000
00001000
00100000
00100000
00001000
,  // measure 47
00011000
00011000
00100100
00100100
00011000
00011000
01001000
00000000
,  // measure 48
01000000
00010000
00001000
00010000
01000000
00100000
00100000
10000000
,  // measure 49
01000000
00010000
00000100
00000001
00000100
00001000
00000001
00000010
,  // measure 50
00000100
00001000
00000100
00000001
00000100
00010000
00001000
00010000
,  // measure 51
00100000
00000000
00100000
00000000
00010000
00000000
00010000
00000000
00001000
00010000
00001000
00010000
00001000
00000000
00010000
00000000
,  // measure 52
00001000
00000000
00010000
00000000
01000000
00000000
10000000
00000000
00100000
00000000
01000000
00010000
01000000
00000000
00100000
00000000
,  // measure 53
01000000
00000000
00010000
00000000
00001000
00000000
00000010
00000100
00000010
00000000
00000100
00000000
00000001
00000000
00000010
00000000
,  // measure 54
00000100
00000000
00001000
00000000
00000100
00000000
00010000
00000000
00001000
00000000
00100000
00010000
00100000
00000000
01000000
00000000
,  // measure 55
10000000
00100000
01000000
00010000
00000000
00100000
00000000
00001000
00010000
00001000
00000000
00000000
00011000
00000000
00000000
00000000
;

//---------------dance-double - ----------------
#NOTEDATA:;
#CHARTNAME:;
#STEPSTYPE:dance-double;
#DESCRIPTION:;
#CHARTSTYLE:;
#DIFFICULTY:Medium;
#METER:6;
#RADARVALUES:0.383202,0.399726,0.194011,0.210881,0.088570,318.000000,295.000000,23.000000,25.000000,0.000000,0.000000,0.000000,0.000000,0.000000,0.383202,0.399726,0.194011,0.210881,0.088570,318.000000,295.000000,23.000000,25.000000,0.000000,0.000000,0.000000,0.000000,0.000000;
#CREDIT:;
#NOTES:
// measure 0
00000000
00000000
00000000
00000000
,  // measure 1
00000000
00000000
00000000
00000000
,  // measure 2
00000000
00000000
00000000
00000000
,  // measure 3
00000000
00000000
00000000
00000000
,  // measure 4
10000000
00000000
00000000
10000000
00000000
00000000
10000000
00000000
01000000
00000000
00000000
01000000
00000000
00000000
01000000
00000000
,  // measure 5
00100000
00000000
00000000
00100000
00000000
00000000
00001000
00000000
00010000
00000000
00000000
00011000
00000000
00000000
00000000
00000000
,  // measure 6
00010000
00000000
00000000
00001000
00000000
00000000
00000100
00000000
00000002
00000000
00000000
00000103
00000000
00000000
00001000
00000000
,  // measure 7
00020000
00000000
00000000
01030000
00000000
00000000
00010000
00000000
00001000
00000000
00000000
00000000
00011000
00000000
00000000
00000000
,  // measure 8
00020000
00030010
00002000
00103000
,  // measure 9
00010000
00001000
00010000
00001000
00010000
00000000
00011000
00010000
,  // measure 10
00002000
00003100
00020000
01030000
,  // measure 11
00002000
00000000
00003010
00000000
00020000
00100000
00130000
00000000
,  // measure 12
00100000
10000000
01000000
00010000
01000000
00000000
10000000
00000000
,  // measure 13
00200000
00310000
00002000
00003010
,  // measure 14
00000001
00000100
00001000
00000100
00000001
00000010
00000100
00000000
,  // measure 15
00000200
00001300
00020000
00130000
,  // measure 16
00100000
00010000
01000000
10000000
01000000
00010000
00100000
00000000
,  // measure 17
00100000
00011000
00000010
00011000
,  // measure 18
00010000
00001000
00000100
00001000
00010000
01000000
00010000
00000000
,  // measure 19
00020000
00030100
00000020
00000031
,  // measure 20
00000100
00000000
00000100
00000000
00000010
00001000
00000200
00000000
,  // measure 21
00010300
00000000
00010000
00000000
00001000
00100000
00020000
00000000
,  // measure 22
10030000
00000000
10000000
00000000
00100000
01000000
00020000
00000000
,  // measure 23
00130000
00000000
00100000
00000000
00001000
00010000
00000200
00000300
,  // measure 24
00000100
00000100
00000010
00000010
00000001
00000001
00000100
00000100
,  // measure 25
00001000
00001000
00010000
00010000
01000000
01000000
10000000
10000000
,  // measure 26
00100000
00100000
01000000
01000000
00010000
00010000
00100000
00100000
,  // measure 27
00002000
00000000
00000000
00013000
,  // measure 28
00010000
00000100
00001000
00000010
00000100
00000000
00000100
00000000
,  // measure 29
00000200
00000000
00000000
00000301
00000000
00000000
00000010
00000000
00000200
00000000
00000000
00001300
00000000
00000000
00000100
00000000
,  // measure 30
00020000
00000000
00001000
00000000
00000100
00000000
00001000
00030000
,  // measure 31
00001000
00010000
00001000
00100000
00010000
00000000
00110000
00000000
,  // measure 32
00010000
10000000
01000000
10000000
00010000
01000000
00010000
00000000
,  // measure 33
00200000
00000000
00000000
00310000
00000000
00000000
01000000
00000000
00200000
00000000
00000000
10300000
00000000
00000000
01000000
00000000
,  // measure 34
00020000
00000100
00001000
00030100
,  // measure 35
00010000
00000000
00000000
00010000
00000000
00000000
00010000
00000000
00001000
00000000
00010000
00000000
00001000
00000000
00010000
00000000
,  // measure 36
00001000
00000000
00000000
00001000
00000000
00000000
00001000
00000000
00010000
00000000
00001000
00000000
00010000
00000000
00001000
00000000
,  // measure 37
00100000
00000000
00000000
00100000
00000000
00000000
00100000
00000000
00001000
00000000
00010000
00000000
00001000
00000000
00010000
00000000
,  // measure 38
00000010
00000000
00000000
00000010
00000000
00000000
00000010
00000000
00010000
00000000
00001000
00000000
00010000
00000000
00001000
00000000
,  // measure 39
00000000
00000000
00000000
00000100
00000000
00000000
00000000
00000000
00000000
00001000
00000000
00000000
00000000
00000000
00000000
01000000
00000000
00000000
00100000
00000000
01000000
00000000
00000000
00000000
,  // measure 40
01010000
00000000
11000000
00000000
10000000
00100000
01000000
00000000
,  // measure 41
00010000
01000000
00001000
00010000
00000100
00000000
00000010
00000000
,  // measure 42
00000011
00000000
00001010
00000000
00000010
00010000
00001000
00000000
,  // measure 43
00100000
00010000
01000000
00100000
10000000
00000000
01000000
00000000
,  // measure 44
00110000
00000000
00011000
00000000
00010000
00000100
00001000
00000000
,  // measure 45
00000010
00000100
00000001
00000010
00001000
00000000
00010000
00000000
,  // measure 46
00011000
00000000
00110000
00000000
00100000
00010000
01000000
00000000
,  // measure 47
00100000
00000000
10000000
00000000
01000000
00000000
00010000
00000000
01000000
00000000
10000000
00000000
00100000
01000000
00000000
00000000
,  // measure 48
01100000
00000000
01010000
00000000
01000000
00001000
00010000
00000000
,  // measure 49
00000100
00001000
00000010
00000100
00000001
00000000
00000010
00000000
,  // measure 50
00000011
00000000
00001010
00000000
00000010
00010000
00001000
00000000
,  // measure 51
00100000
00010000
01000000
00100000
10000000
00000000
01000000
00000000
,  // measure 52
11000000
00000000
01010000
00000000
01000000
00001000
00010000
00000000
,  // measure 53
00010000
00000100
00001000
00000010
00000100
00000000
00000001
00000000
,  // measure 54
00000011
00000000
00001010
00000000
00000010
00010000
00001000
00000000
,  // measure 55
00100000
00000000
00010000
00100000
00000000
00001000
00000000
00010000
00000010
00010000
00000000
00000000
00011000
00000000
00000000
00000000
;

//---------------dance-double - ----------------
#NOTEDATA:;
#CHARTNAME:;
#STEPSTYPE:dance-double;
#DESCRIPTION:;
#CHARTSTYLE:;
#DIFFICULTY:Easy;
#METER:3;
#RADARVALUES:0.204856,0.235133,0.050612,0.160270,0.000000,170.000000,164.000000,6.000000,19.000000,0.000000,0.000000,0.000000,0.000000,0.000000,0.204856,0.235133,0.050612,0.160270,0.000000,170.000000,164.000000,6.000000,19.000000,0.000000,0.000000,0.000000,0.000000,0.000000;
#CREDIT:;
#NOTES:
// measure 0
00000000
00000000
00000000
00000000
,  // measure 1
00000000
00000000
00000000
00000000
,  // measure 2
00000000
00000000
00000000
00000000
,  // measure 3
00000000
00000000
00000000
00000000
,  // measure 4
10000000
00000000
00010000
00000000
,  // measure 5
00001000
00000000
00000001
00000000
,  // measure 6
00000001
00000000
00001000
00000000
,  // measure 7
00010000
00000000
10000000
00000000
,  // measure 8
02000000
03000000
02000000
03000000
,  // measure 9
00100000
00000000
00001000
00000000
,  // measure 10
00010000
00000000
00000100
00000000
,  // measure 11
00000010
00000000
00000001
00000100
,  // measure 12
00000010
00000000
00000000
00000100
00000100
00000000
00000000
00000000
,  // measure 13
00001000
00010000
00100000
10000000
,  // measure 14
00010000
00000000
00000000
01000000
01000000
00000000
00000000
00000000
,  // measure 15
01000000
00100000
10000000
01000000
,  // measure 16
00100000
00000000
00000000
00010000
00010000
00000000
00000000
00000000
,  // measure 17
00100000
00001000
00010000
00000010
,  // measure 18
00000100
00000000
00000000
00000001
00000001
00000000
00000000
00000000
,  // measure 19
00001000
00000001
00000010
00000100
,  // measure 20
00000110
00000000
00000000
00000000
00000100
00000000
00020000
00030000
,  // measure 21
00010100
00000000
00000000
00000000
00010000
00000000
00002000
00003000
,  // measure 22
00101000
00000000
00100000
00020000
,  // measure 23
10030000
01000000
00100000
00000000
,  // measure 24
00100000
00001000
00010000
00000100
,  // measure 25
00001000
00000010
00000100
00000001
,  // measure 26
00000010
00001000
00010000
01000000
,  // measure 27
20000000
00000000
00000000
30010000
,  // measure 28
10000000
00000000
00000000
01000000
00000000
00000000
00010000
00000000
,  // measure 29
00001000
00000100
00001000
00010000
,  // measure 30
00022000
00000000
00000000
00033000
,  // measure 31
00010000
00000100
00001000
00000100
,  // measure 32
00000001
00000000
00000000
00000100
00000000
00000000
00010000
00000000
,  // measure 33
00001000
00100000
00010000
10000000
,  // measure 34
20020000
00000000
00000000
30030000
,  // measure 35
10000000
01000000
00100000
00000000
,  // measure 36
01000000
00010000
00001000
00001000
,  // measure 37
00010000
00001000
00000100
00000100
,  // measure 38
00001000
00000100
00000001
00000001
,  // measure 39
00000100
00000001
00000010
00000110
,  // measure 40
00000100
00000100
00020000
00030000
,  // measure 41
00001000
00001000
00100000
00000000
,  // measure 42
00010000
00010000
02000000
03000000
,  // measure 43
00100000
00100000
10000000
00000000
,  // measure 44
10000000
01000000
00020000
00030000
,  // measure 45
00001000
00000100
00000001
00000000
,  // measure 46
00000001
00000010
00002000
00003000
,  // measure 47
00010000
00100000
10000000
10000000
,  // measure 48
00100000
00010000
00002000
00003010
,  // measure 49
00000010
00001000
00010000
00000000
,  // measure 50
01000000
00010000
00002000
00003100
,  // measure 51
00000100
00001000
00010000
00001000
,  // measure 52
00000100
00001000
00020000
01000000
,  // measure 53
01030000
00010000
00001000
00000010
,  // measure 54
00001000
00010000
00200000
00310000
,  // measure 55
00002000
00000000
00000000
00013000
;
