#TITLE:ULTiMΛTE;
#SUBTITLE:;
#ARTIST:TËЯRA;
#TITLETRANSLIT:ULTiMATE;
#SUBTITLETRANSLIT:;
#ARTISTTRANSLIT:TERRA;
#GENRE:HYPER J-POP FIVE;
#CREDIT:;
#BANNER:ULTiMATE.png;
#BACKGROUND:ULTiMATE-bg.png;
#LYRICSPATH:;
#CDTITLE:;
#MUSIC:ULTiMATE.ogg;
#OFFSET:-0.017000;
#SAMPLESTART:53.355000;
#SAMPLELENGTH:11.100000;
#SELECTABLE:YES;
#DISPLAYBPM:180.000000;
#BPMS:0.000000=180.000000
,340.000000=177.699997
,344.000000=175.000000
,348.000000=173.000000
,352.000000=170.000000
,356.000000=162.000000
,361.500000=130.199997
,363.000000=108.111000
;
#STOPS:
;
#BGCHANGES:;
#KEYSOUNDS:;
#ATTACKS:;

//---------------dance-single - ----------------
#NOTES:
     dance-single:
     :
     Hard:
     9:
     0.679155,0.682708,0.521212,0.363269,0.035537,602.000000,536.000000,66.000000,46.000000,0.000000,0.000000,0.679155,0.682708,0.521212,0.363269,0.035537,602.000000,536.000000,66.000000,46.000000,0.000000,0.000000:
0000
0000
0000
0000
,
0000
0000
0000
0000
,
0000
0000
0000
0000
,
0000
0000
0000
0000
,
0000
0000
0000
0000
,
0000
0000
0000
0000
,
0000
0000
0000
0000
,
0000
0000
0000
0000
0000
0000
0010
1000
,
1100
0000
0100
1000
0001
0100
0001
0000
,
0010
0000
0001
1000
0010
1000
0001
0000
,
0010
0000
0001
0100
0010
1000
0001
0000
,
2000
0000
0100
0000
3001
0000
0001
1000
,
1001
0000
1000
0001
0010
0100
1000
0000
,
0010
0000
1000
0100
0010
0001
0100
0000
,
0010
0000
1000
0001
0100
0010
1000
0000
,
1000
0010
0100
0001
2000
0000
3100
0010
,
0110
0100
1000
0010
0000
0010
0100
1000
,
0000
1000
0100
0001
0000
0001
0100
0010
,
1000
0100
0010
0001
0000
0001
0010
1000
,
0000
1000
0010
0100
0000
0100
1000
0010
,
0110
0100
0001
1000
0000
1000
0100
0010
,
0000
0010
0001
0100
0000
0100
1000
0100
,
0001
0000
0001
0010
0001
0100
0010
1000
,
0002
0000
0013
0000
0100
1000
0001
1000
,
1002
0000
1003
0010
0100
0001
0100
0010
,
1000
0010
0100
0001
1000
0000
1100
0000
,
0012
0000
1003
0100
0010
0001
0010
0100
,
1000
0100
0010
0001
0100
0000
0101
0000
,
1020
0000
1030
0001
0100
0010
0100
0000
,
0120
0000
1030
0100
1000
0001
0100
0000
,
0102
0000
0013
0100
1000
0100
0010
0001
,
2000
0000
3002
0000
0100
0200
0303
0000
,
0110
0010
1000
0001
0010
0100
1000
0001
,
0001
0010
0001
1000
0010
0100
0001
1000
,
1000
0001
0010
0100
1000
0001
0100
0010
,
0010
1000
0001
1000
0100
0010
0010
0010
,
0012
0000
0103
0010
0100
0001
1000
0100
,
0010
0001
0000
0000
0001
0100
0000
0000
0100
0010
0000
0000
0010
1000
0000
0000
,
1002
0000
0103
0001
1000
0010
0100
0000
,
0201
0000
0301
1000
0100
0000
1100
0000
,
1002
0000
1003
0001
0100
0010
1000
0000
,
1001
0000
1010
0000
0110
0010
0100
0001
,
0021
0000
0031
0010
0100
1000
0010
0000
,
1010
0000
1001
0000
0101
0001
1000
0100
,
1200
0000
0310
0000
0001
1000
0010
0100
,
0201
0310
2100
3010
,
1002
0000
1003
0001
0100
0010
0100
0001
,
1001
0011
1100
0110
,
1001
0001
0010
0100
1000
0100
0010
0001
,
0100
0010
1000
0100
1000
0010
0100
0001
,
0010
0100
1000
0010
1000
0100
0010
0001
,
0100
0001
0010
0001
0100
0010
1000
0001
,
1001
1000
0100
0010
0001
0100
1000
0100
,
0001
0010
0100
1000
0010
0001
0010
1000
,
0100
0001
1000
0010
0001
0100
1000
0001
,
0010
1000
0100
0001
0100
1000
0010
0100
,
1001
0001
0010
0100
1000
0010
0100
0001
,
1001
0000
0000
0000
0000
0000
0001
1000
0001
0000
0000
0000
0000
0000
0000
0000
,
0101
0001
0010
0100
1000
0010
0100
0001
,
1000
0100
0010
0001
0100
0010
1000
0001
,
0012
0000
0013
0001
0010
0001
0100
0010
,
1020
0000
1030
0010
1000
0010
0100
0010
,
0120
0000
0130
0001
0100
0001
0100
0010
,
2000
0100
3100
0010
0001
0000
1001
0000
,
2000
0002
0000
0000
0000
0000
3003
0000
,
1002
0000
0000
0023
0000
0000
0130
0000
,
1200
0000
0000
1000
1300
0010
0100
0001
,
0021
0000
0000
0032
0000
0000
0103
0000
,
0110
0000
0000
0000
0010
1000
1000
1000
,
1002
0000
1003
0100
0010
0001
0100
0010
,
1000
0100
0000
0000
0100
0010
0000
0000
0010
0001
0000
0000
0001
1000
0000
0000
,
1001
0001
1000
0001
1000
0100
1000
0100
,
0010
0001
0010
0001
0100
0010
1000
0100
,
1200
0000
0310
0001
0100
0010
1000
0010
,
0110
0000
1010
0000
0110
0100
0001
0100
,
0110
0000
0010
1000
0001
0010
0100
1000
,
1100
0000
0110
0000
0011
0001
1000
0001
,
0101
0000
0100
0010
1000
0100
0001
0100
,
1100
0000
0011
0000
0001
1000
0010
0100
,
0101
0000
0001
1000
0010
0001
0010
1000
,
1010
0010
0100
0001
0010
1000
0010
0001
,
1002
0000
0013
0000
0100
1000
0001
0100
,
1020
0130
2001
3010
,
0102
0000
1003
0001
0010
0100
1000
0001
,
0021
0032
2003
3100
,
1100
0100
0010
0001
0000
0010
0100
1000
,
0010
1000
0100
0002
0000
0000
0103
1000
,
0001
0010
0001
0200
0000
0301
0010
0001
,
0100
0010
1000
0020
0000
0130
0001
0010
,
0002
0000
0000
0000
0000
0103
1000
0001
,
0010
1000
0001
0020
0000
0130
2000
0000
,
3010
0000
0000
0000
;

//---------------dance-single - ----------------
#NOTES:
     dance-single:
     :
     Medium:
     6:
     0.446753,0.538980,0.213223,0.521212,0.000000,396.000000,369.000000,27.000000,66.000000,0.000000,0.000000,0.446753,0.538980,0.213223,0.521212,0.000000,396.000000,369.000000,27.000000,66.000000,0.000000,0.000000:
0000
0000
0000
0000
,
0000
0000
0000
0000
,
0000
0000
0000
0000
,
0000
0000
0000
0000
,
0000
0000
0000
0000
,
0000
0000
0000
0000
,
0000
0000
0000
0000
,
0000
0000
0000
0000
0000
0000
1000
0001
,
1000
0100
0010
0100
,
1000
0010
0100
0010
,
1000
0100
0010
0001
,
0100
0000
0100
0000
0100
0000
0001
1000
,
0001
0010
0100
0010
,
0001
0100
0010
0100
,
0001
0010
0100
1000
,
0001
1000
0001
1000
0002
0000
1003
0000
,
1001
0001
1000
0100
,
1000
0000
0010
0000
0100
0000
0001
1000
,
0100
0010
0002
0103
,
2000
0000
3100
0000
0002
0000
1003
0100
,
0010
0001
0100
0001
,
0010
0000
0100
0000
1000
0000
0010
1000
,
0100
1000
0001
0100
,
0001
0000
0001
0000
1000
0100
1000
0100
,
2000
0010
0100
0010
,
0001
0001
0100
3100
,
0002
0010
0100
0010
,
1000
1000
0100
0103
,
0110
0010
1000
0100
,
0110
0010
0001
0100
,
0210
1000
0010
0301
,
2002
0000
3003
0000
,
0002
0000
0000
0023
0000
0000
0130
0000
,
2000
0000
0000
0000
3010
0100
0010
0100
,
0002
0000
0000
2003
0000
0000
3100
0000
,
0020
0000
0000
0000
0031
1000
0001
1000
,
0200
0301
0200
2300
,
3020
0032
0023
2030
,
3002
0000
0000
0010
0013
0000
0011
0000
,
0200
0000
0000
1000
1300
0000
1100
0000
,
1010
0010
0100
0001
,
0010
0000
0001
0000
0100
0010
0100
0010
,
1000
0001
0010
0100
,
1000
0000
0010
0000
0100
0001
0100
0001
,
1000
0000
0100
0000
0010
0001
0010
0001
,
2000
3010
0002
0013
,
0200
0000
0001
0000
0301
1000
0001
1000
,
0010
1000
0001
0100
,
0010
0000
0010
1000
0100
0000
0100
0010
,
0002
0000
0103
0010
0100
0000
0100
0000
,
0001
0000
0001
0010
0100
0000
0100
1000
,
0001
0000
0001
0100
1000
0100
0001
0010
,
0120
0000
0130
1000
0010
0000
0010
1000
,
0200
0000
1300
0100
1000
0000
1000
0000
,
0001
0000
0001
0010
1000
0000
1000
0010
,
0001
0000
0001
0100
0010
0001
0010
1000
,
1002
0000
1000
0000
,
1003
0000
0010
0010
0100
0000
0001
0000
,
0010
0000
0100
0100
1000
0000
0100
0000
,
1100
0000
0110
0000
0011
0000
0001
1000
,
0100
0000
0001
0000
0100
1000
0010
0000
,
0110
0000
0100
0000
1000
0100
0001
0000
,
0102
0000
0013
0000
0100
1000
0010
0000
,
0120
0000
0000
1000
1030
0000
1001
0000
,
0002
2000
0000
0000
0000
0000
3003
0000
,
2000
0000
0000
3100
0000
0000
0010
0000
,
0002
0000
0000
0100
0103
0010
0100
0010
,
2000
0000
0000
3002
0000
0000
0013
0000
,
0200
0000
0000
0000
1300
0010
1000
0010
,
0210
0301
2000
3200
,
0320
2030
3020
0032
,
0203
0000
0000
0010
0310
0000
0101
0000
,
0020
0000
0000
0100
0130
0000
1010
0000
,
2000
0000
3010
0000
0001
0010
0100
0000
,
0110
0000
0101
0000
0001
1000
0100
0010
,
0002
0000
0013
0000
1000
0010
0100
0000
,
0110
0000
1100
0000
1000
0001
1000
0001
,
0100
0000
0010
0000
0100
0001
0100
0001
,
1000
0000
0100
0000
0010
0001
0010
0001
,
1000
0000
0010
0000
0100
0010
0100
0010
,
2000
0100
0010
3001
,
2001
0000
0001
0000
3001
0010
0001
1000
,
0200
1300
2000
3010
,
1020
0000
1000
0000
1030
0010
0100
0001
,
0020
0230
2300
3001
,
1002
0000
0000
0000
,
0203
0000
0000
0000
0000
0000
0310
1000
,
0020
0000
0000
0230
0000
0000
0301
0000
,
2000
0000
0000
0000
,
3200
0000
0000
0000
,
0320
0000
0000
0000
,
0031
0000
0000
0000
;

//---------------dance-single - ----------------
#NOTES:
     dance-single:
     :
     Easy:
     3:
     0.241427,0.359320,0.047383,0.284297,0.000000,214.000000,208.000000,6.000000,36.000000,0.000000,0.000000,0.241427,0.359320,0.047383,0.284297,0.000000,214.000000,208.000000,6.000000,36.000000,0.000000,0.000000:
0000
0000
0000
0000
,
0000
0000
0000
0000
,
0000
0000
0000
0000
,
0000
0000
0000
0000
,
0000
0000
0000
0000
,
0000
0000
0000
0000
,
0000
0000
0000
0000
,
0000
0000
0000
1000
,
1000
0100
1000
0000
,
0001
0010
0001
0000
,
0100
0010
1000
0001
,
1000
0000
0000
0000
,
0001
0100
0001
0000
,
1000
0010
1000
0000
,
0001
1000
0001
0100
,
0020
0000
0030
1000
,
1000
0100
0010
0000
,
0001
0100
0010
0000
,
1000
0100
0010
0001
,
1000
0000
1001
0000
,
0001
0010
0100
0000
,
1000
0010
0100
0000
,
0001
0010
0100
1000
,
0001
0000
1001
0000
,
1000
1000
1000
0000
,
0001
0001
0001
0000
,
0100
0100
0010
0010
,
1000
0001
1000
0000
,
0001
0000
1000
0000
,
0010
0010
0100
0000
,
0010
1000
0100
0010
,
0002
0000
0000
0003
,
2000
0000
0000
0000
,
3200
0000
0000
0000
,
0320
0000
0000
0000
,
0032
0000
1000
1000
,
1003
0000
0001
0100
,
0010
1000
0010
0100
,
0002
0000
1003
0000
,
2000
0000
3001
0000
,
1001
0000
0010
0000
,
0100
0000
0001
0001
,
1000
0000
0100
0000
,
0010
0000
0100
0100
,
1000
0000
0010
1000
,
0200
0000
0320
0000
,
0032
0000
0000
1000
,
1003
0010
0100
0001
,
2000
0000
0000
0000
,
0001
0000
0001
0000
,
3002
0000
0000
0000
,
0100
0000
0000
0000
,
0203
0000
0000
0000
,
0010
0000
0010
0000
,
0320
0000
0000
0000
,
1000
0000
1030
0000
,
0210
0000
0310
0000
,
0010
0000
0010
0000
,
1000
0000
1000
0000
,
0001
0001
0001
0001
,
1001
0001
0100
0010
,
1000
1000
0100
0010
,
0001
0001
0010
0100
,
2000
0000
3001
0000
,
2000
0002
0000
0000
0000
0000
3003
0000
,
2000
0000
0010
0000
,
3020
0000
0100
0100
,
0230
0000
0001
0000
,
0302
0000
0010
0013
,
0100
0000
1000
0001
,
0100
0010
0100
0001
,
2000
0000
3100
0000
,
0020
0000
0031
0000
,
2001
0000
0001
0001
,
3001
0000
0100
0010
,
2000
0000
0001
0001
,
3001
0000
0010
0001
,
0100
0000
0001
0010
,
0100
0000
1000
0010
,
0001
0000
0010
1000
,
0200
0000
0302
0000
,
0103
0000
1000
0001
,
0100
0000
0010
0000
,
2000
0000
3000
0001
,
0001
0010
0100
1000
,
0002
0000
0000
0000
,
0203
0000
0000
0000
,
0320
0000
0000
0000
,
2030
0000
0000
0000
,
3200
0000
0000
0000
,
0320
0000
0000
0000
,
0031
0000
0000
0000
;

//---------------dance-single - ----------------
#NOTES:
     dance-single:
     :
     Beginner:
     2:
     0.198557,0.287456,0.086869,0.205326,0.000000,176.000000,165.000000,11.000000,26.000000,0.000000,0.000000,0.198557,0.287456,0.086869,0.205326,0.000000,176.000000,165.000000,11.000000,26.000000,0.000000,0.000000:
0000
0000
0000
0000
,
0000
0000
0000
0000
,
0000
0000
0000
0000
,
0000
0000
0000
0000
,
0000
0000
0000
0000
,
0000
0000
0000
0000
,
0000
0000
0000
0000
,
0000
0000
0000
0000
,
1000
0000
0001
0000
,
1000
1000
1000
0000
,
0001
0000
1000
1000
,
1000
0000
0000
0000
,
0001
0000
1000
0000
,
0001
0001
0001
0000
,
1000
0000
0001
0001
,
0001
0000
0000
1001
,
1001
0000
0100
0000
,
0010
0000
1000
0000
,
0001
0000
1000
0000
,
0010
0000
0100
0000
,
0001
0000
0010
0000
,
0100
0000
1000
0000
,
0010
0000
1000
0000
,
0100
0000
0010
0000
,
0001
0001
0001
0000
,
1000
1000
1000
0000
,
0010
0000
0100
0000
,
0010
0010
0010
0000
,
0100
0100
0100
0000
,
0001
0001
0001
0000
,
1000
0000
0001
0000
,
2002
0000
3003
0000
,
2000
0000
3000
0000
,
0200
0000
0300
0000
,
0020
0000
0030
0000
,
0002
0000
0003
0000
,
0010
0000
0001
0000
,
1000
0000
0010
0000
,
0100
0000
0010
0000
,
1000
1000
1000
0000
,
0001
0000
0001
0000
,
0001
0000
0010
0010
,
0010
0000
0010
0000
,
0010
0000
0100
0100
,
0100
0000
1000
1000
,
1000
0000
0010
0000
,
0100
0000
0000
0010
,
0010
0000
0100
0000
,
0220
0000
0330
0000
,
0100
0000
0010
0000
,
0220
0000
0330
0000
,
0100
0000
0001
0000
,
2002
0000
3003
0000
,
0001
0000
1000
0000
,
2002
0000
3003
0000
,
1000
0000
1000
0000
,
0002
0000
0003
0000
,
0200
0000
0300
0000
,
0020
0000
0030
0000
,
2000
0000
3000
0000
,
0100
0100
0100
0000
,
1000
1000
1000
0000
,
0010
0000
0100
0000
,
0001
0001
0001
0000
,
2002
0000
3003
0000
,
0002
0000
0003
0000
,
0020
0000
0030
0000
,
0200
0000
0300
0000
,
2000
0000
3000
0000
,
0100
0000
0010
0010
,
0010
0000
0001
0001
,
0001
0000
0100
0000
,
0010
0000
1000
0000
,
1001
0000
0001
0000
,
1000
0000
0010
0010
,
0010
0000
0100
0000
,
0001
0000
0100
0100
,
0100
0000
0001
0001
,
0001
0000
1000
1000
,
1000
0000
0100
0100
,
0100
0000
0010
0000
,
0100
0000
0010
0010
,
0010
0000
0001
0000
,
1001
0000
0000
0000
,
0100
0100
0100
0000
,
0220
0000
0000
0000
,
0330
0000
0000
0000
,
1000
0000
0000
0000
,
0001
0000
0000
0000
,
0100
0000
0000
0000
,
0010
0000
0000
0000
,
1000
0000
0000
0000
;

//---------------dance-double - ----------------
#NOTES:
     dance-double:
     :
     Hard:
     9:
     0.583261,0.646776,0.268503,0.331680,0.003949,517.000000,483.000000,34.000000,42.000000,0.000000,0.000000,0.583261,0.646776,0.268503,0.331680,0.003949,517.000000,483.000000,34.000000,42.000000,0.000000,0.000000:
// measure 0
00000000
00000000
00000000
00000000
,  // measure 1
00000000
00000000
00000000
00000000
,  // measure 2
00000000
00000000
00000000
00000000
,  // measure 3
00000000
00000000
00000000
00000000
,  // measure 4
00000000
00000000
00000000
00000000
,  // measure 5
00000000
00000000
00000000
00000000
,  // measure 6
00000000
00000000
00000000
00000000
,  // measure 7
00000000
00000000
00000000
00000000
,  // measure 8
10000000
10000000
01000000
01000000
,  // measure 9
00010000
00010000
00001000
00001000
,  // measure 10
00000100
00000001
00001000
00000010
,  // measure 11
00000200
00000000
00000300
00001001
,  // measure 12
00000001
00000001
00000100
00000100
,  // measure 13
00001000
00001000
00010000
00010000
,  // measure 14
01000000
10000000
00100000
01000000
,  // measure 15
00010000
00100000
01000000
10000000
00010000
00000000
01001000
00000000
,  // measure 16
00011000
00010000
00001000
00000010
00001000
00010000
00000100
00001000
,  // measure 17
00010000
00100000
01000000
10000000
00100000
00010000
00001000
01000000
,  // measure 18
00100000
01000000
00001000
00000100
00000001
00001000
00000010
00001000
,  // measure 19
00000001
00000100
00001000
00010000
,  // measure 20
00011000
00001000
00010000
00100000
00010000
00001000
01000000
00010000
,  // measure 21
00001000
00000010
00000100
00000001
00000010
00001000
00010000
00000100
,  // measure 22
00000010
00000100
00010000
01000000
10000000
00010000
00100000
00010000
,  // measure 23
10000000
01000000
00100000
00010000
00001000
00000100
00000010
00000001
,  // measure 24
00001000
00000001
00000010
00000100
00010000
00001000
00000100
00000001
,  // measure 25
00000000
00001000
00000100
00000010
00000000
00001000
00010000
00000000
,  // measure 26
01000000
10000000
01000000
00010000
00001000
00100000
00010000
01000000
,  // measure 27
00000000
00100000
00010000
00001000
00000000
00000100
00000010
00000000
,  // measure 28
00001020
00000000
00000031
00000010
00001000
00000100
00010000
00001000
,  // measure 29
00000010
00010000
00001000
01000000
00100000
00010000
10000000
01000000
,  // measure 30
00020000
00000000
00001000
00000000
00130000
00010000
00001000
00000010
,  // measure 31
00000000
00000000
00001001
00000000
00000000
00000110
00000000
00000000
,  // measure 32
00000002
00000000
00000000
00001000
00000000
00000000
00000203
00000000
,  // measure 33
00020000
00000000
00000300
00000000
00032000
00000000
00000000
00103000
,  // measure 34
02000000
00000000
00000000
10000000
00000000
00000000
03020000
00000000
,  // measure 35
00230000
00302000
00003020
00000031
,  // measure 36
00001000
00000100
00001000
00000001
00000010
00001000
00010000
00000100
,  // measure 37
00000010
00001000
00010000
00100000
10000000
00010000
01000000
00001000
,  // measure 38
00021000
00000000
00000000
00000010
00030010
00000000
00001000
00000000
,  // measure 39
00000001
00000100
00001000
00010000
01000000
10000000
00010000
00100000
,  // measure 40
00010000
01000000
00010000
10000000
00100000
00010000
00001000
01000000
,  // measure 41
00100000
00000000
00011000
00000000
00000100
00000001
00000010
00000100
,  // measure 42
00001000
00000010
00001000
00000001
00000100
00001000
00010000
00000100
,  // measure 43
00000010
00000000
00011000
00000000
00010000
00001000
00010000
01000000
,  // measure 44
00100000
00000000
00010000
00000000
01000000
00010000
00001000
00000010
,  // measure 45
00002010
00013000
01020000
00031000
,  // measure 46
00000010
00001000
00000010
00000100
00000001
00000010
00001000
00010000
,  // measure 47
00010010
00011000
01001000
01010000
,  // measure 48
10010000
00000000
10000000
00100000
10000000
00100000
01000000
00000000
,  // measure 49
00001000
00010000
01000000
00000000
00010000
00001000
00000100
00000000
,  // measure 50
00001000
00000100
00000001
00000010
00000100
00010000
00001000
00000010
,  // measure 51
00000001
00000010
00000100
00001000
00010000
00100000
01000000
10000000
,  // measure 52
10010000
01000000
00001000
00010000
,  // measure 53
00000100
00000000
00000010
00000000
00000001
00000100
00001000
00000000
,  // measure 54
00000100
00001000
00010000
00000000
00001000
00010000
01000000
00000000
,  // measure 55
10000000
01000000
00100000
00010000
00001000
00000100
00000010
00000001
,  // measure 56
00002001
00000100
00000001
00000010
,  // measure 57
00013000
00000000
00000000
00000000
00000000
00000000
10000000
00100000
10000000
00000000
00000000
00000000
00010000
00000000
00000000
00000000
,  // measure 58
10000000
01000000
00100000
00010000
01000000
00100000
10000000
01000000
,  // measure 59
00020000
00001000
00100000
00031000
,  // measure 60
00000100
00000001
00000010
00001000
00000010
00000001
00001000
00000100
,  // measure 61
00000010
00001000
00010000
00000010
00001000
00010000
01000000
00100000
,  // measure 62
10000000
01000000
00010000
00001000
01000000
00100000
00010000
00001000
,  // measure 63
00000100
00000001
00001000
00000100
00010100
00000000
00101000
00000000
,  // measure 64
00020000
20000000
00000000
00000000
00000000
00000000
30030000
00000000
,  // measure 65
20000000
00000000
00000000
00010000
00000000
00000000
32000000
00000000
,  // measure 66
00002000
00000000
03000000
00000000
00023000
00000000
00000000
00030010
,  // measure 67
00000200
00000000
00000000
00000001
00000000
00000000
00002300
00000000
,  // measure 68
00003020
00020030
00230000
10300000
,  // measure 69
00010000
01000000
00010000
10000000
00100000
00010000
00001000
01000000
,  // measure 70
00100000
00010000
00001000
00000010
00000001
00001000
00000100
00010000
,  // measure 71
00012000
00000000
00000000
00100000
00103000
00000000
00010000
00000000
,  // measure 72
10000000
01000000
00010000
00001000
00000100
00000001
00001000
00000010
,  // measure 73
00001000
00000100
00001000
00000001
00000010
00001000
00010000
00000100
,  // measure 74
00000010
00000000
00011000
00000000
01000000
10000000
00100000
01000000
,  // measure 75
00010000
00100000
00010000
10000000
01000000
00010000
00001000
01000000
,  // measure 76
00100000
00000000
00011000
00000000
00010000
00001000
00010000
00000100
,  // measure 77
00000010
00000000
00001001
00000000
00001000
00000100
00010000
00001000
,  // measure 78
01000000
00000000
10010000
00000000
10000000
01000000
00010000
00001000
,  // measure 79
00000010
00000000
00000001
00001000
00000001
00000010
00001000
00010000
,  // measure 80
01000000
10000000
00010000
01000000
00001000
00010000
00000010
00000100
,  // measure 81
00000001
00000000
00000010
00000000
00000100
00001000
00010000
00100000
,  // measure 82
00120000
00031000
00002100
00013000
,  // measure 83
00100000
00010000
00100000
01000000
10000000
00100000
00010000
00001000
,  // measure 84
00101000
00011000
00010100
00001100
,  // measure 85
00002001
00000000
00000000
00003200
00000000
00000300
00000001
00000100
,  // measure 86
00001000
00000010
00010000
00000200
00000000
00000000
00010300
00010000
,  // measure 87
00002000
00000000
00000000
02003000
00000000
03000000
10000000
01000000
,  // measure 88
00010000
00100000
00001000
02000000
00000000
03000000
00001000
00010000
,  // measure 89
00022000
00000000
00000000
00033000
00000000
00000100
00000001
00001000
,  // measure 90
00000020
00000000
00001030
00020000
00000000
02030000
00000000
00000000
,  // measure 91
03100000
00000000
00000000
00000000
;

//---------------dance-double - ----------------
#NOTES:
     dance-double:
     :
     Medium:
     7:
     0.428702,0.538980,0.102663,0.386960,0.000000,380.000000,367.000000,13.000000,49.000000,0.000000,0.000000,0.428702,0.538980,0.102663,0.386960,0.000000,380.000000,367.000000,13.000000,49.000000,0.000000,0.000000:
00000000
00000000
00000000
00000000
,
00000000
00000000
00000000
00000000
,
00000000
00000000
00000000
00000000
,
00000000
00000000
00000000
00000000
,
00000000
00000000
00000000
00000000
,
00000000
00000000
00000000
00000000
,
00000000
00000000
00000000
00000000
,
00001000
00000000
00000000
00000000
,
00010000
01000000
10000000
01000000
,
00010000
00001000
00000100
00000001
,
00000100
00001000
00010000
00100000
,
10000000
00010000
00100000
00000000
,
00001000
00000100
00000001
00000100
,
00001000
00010000
01000000
10000000
,
01000000
00010000
00001000
00000010
,
00000001
00001000
00000100
00000010
00000001
00000000
00001001
00000000
,
00000100
00000000
00010000
00000000
00001000
00000000
00000010
00001000
,
00010000
00000000
01000000
00000000
10000000
00000000
00100000
00010000
,
00001000
00000000
00000100
00000001
00000000
00001000
00000000
00000010
,
00020000
00032000
01003000
10010000
,
01000000
00000000
00001000
00000000
00010000
00000000
00100000
00010000
,
00001000
00000000
00000100
00000000
00000001
00000000
00000010
00001000
,
00010000
00000000
01000000
10000000
01000000
10000000
00010000
01000000
,
00000000
00000000
00001000
00000000
00010000
00000100
00010000
00000100
,
00002000
00000010
00000001
00000100
,
00023000
00100000
10000000
01000000
,
00031000
00000000
00000010
00000100
00000000
00000001
00000000
00001000
,
00000000
00000100
00010000
00001000
00000000
00000000
01000000
00000000
,
00020000
00100000
10000000
01000000
,
00032000
00000010
00000001
00000100
,
00013000
10000000
01000000
00010000
,
00011000
00000000
00001100
00000000
00000000
00000101
00000000
00000000
,
00000002
00000000
00000000
00000023
00000000
00000000
00001030
00000000
,
00020000
00000000
00000000
00000000
00031000
00010000
00100000
00010000
,
00002000
00000000
00000000
02003000
00000000
00000000
03100000
00000000
,
20000000
00000000
00000000
00000000
30010000
00100000
01000000
00100000
,
00010000
00000000
00010000
00000000
10000000
01000000
00010000
00000000
,
00001000
00000000
00000100
00000000
00000001
00000100
00001000
00000000
,
00020000
00000000
00000000
01000000
01030000
00000000
00010000
00000000
,
00001000
00000100
00000001
00000010
,
00000021
00000001
00000100
00001030
,
00011000
00000000
00000000
00000000
01000000
10000000
01000000
10000000
,
00200000
10000000
01000000
00310000
,
00011000
00000000
00000000
00000000
00000100
00000010
00000100
00000010
,
00002000
00000000
00003001
00000000
00000100
00001000
00000100
00001000
,
00020000
01030000
20000000
31000000
,
00020000
00000000
00031000
00000000
00000100
00000001
00000010
00000100
,
00001000
00000000
00000100
00000000
00010000
00010000
00011000
00000000
,
00100000
00000000
00100000
10000000
01000000
00000000
01000000
00010000
,
00001000
00000000
00000100
00001000
00010000
00000000
00001000
00000100
,
00000001
00000000
00000001
00000010
00000100
00000000
00000100
00010000
,
00001000
00010000
00001000
01000000
00100000
01000000
00100000
10000000
,
00020000
10000000
02030000
00010000
,
03002000
00010000
00003200
00000001
,
00000310
00000010
00000100
00000100
,
00010000
00001000
00010000
00001000
01000000
00100000
01000000
00100000
,
20000000
00000000
30020000
00000000
,
01030000
00000000
00001000
00010000
00001000
00000000
00000100
00000000
,
00000001
00000010
00001000
00000000
00000010
00001000
00010000
00000000
,
00100000
00100000
01000000
01000000
,
00010000
00000000
10000000
01000000
00010000
00000000
00001000
00100000
,
00010000
00010000
00001000
00001000
,
00000010
00001000
00000100
00000000
00000001
00000100
00001000
00000000
,
00000010
00010000
00001000
00010000
00100000
00000000
01000000
00000000
,
20020000
00000000
00000000
30030000
,
20000000
00000000
00000000
30200000
00000000
00000000
00310000
00000000
,
00002000
00000000
00000000
00000000
00013000
00001000
00000010
00001000
,
00020000
00000000
00000000
00030200
00000000
00000000
00000310
00000000
,
00000002
00000000
00000000
00000000
00001003
00000010
00000100
00000010
,
00001000
00000000
00001000
00000000
00000001
00000100
00001000
00000000
,
00010000
00000000
01000000
00000000
10000000
01000000
00010000
00000000
,
00002000
00000000
00000000
00000100
00003100
00000000
00001000
00000000
,
00010000
01000000
10000000
00100000
,
10200000
10000000
01000000
00310000
,
00011000
00000000
00000000
00000000
00000100
00000001
00000100
00000001
,
00000020
00000001
00000100
00001030
,
00011000
00000000
00000000
00000000
01000000
00100000
01000000
00100000
,
00020000
00000000
10030000
00000000
01000000
00010000
01000000
00010000
,
00002000
00003100
00000002
00000103
,
00002000
00000000
00013000
00000000
01000000
10000000
00100000
01000000
,
00010000
01000000
00001000
00010000
,
00000020
00000000
00001030
00000000
00000001
00000100
00001000
00010000
,
00000100
00010000
00001000
01000000
,
00020000
00100000
10000000
01000000
,
00032000
00000100
00000001
00000010
,
00023000
00000000
00000000
00000000
,
20030000
00000000
00000000
00000000
00000000
00000000
30100000
00100000
,
00020000
00000000
00000000
00001000
00000000
00000000
00030100
00000000
,
00000020
00000000
00000000
00000000
,
00000032
00000000
00000000
00000000
,
00002003
00000000
00000000
00000000
,
00003100
00000000
00000000
00000000
;

//---------------dance-double - ----------------
#NOTES:
     dance-double:
     :
     Easy:
     4:
     0.262862,0.359320,0.102663,0.244812,0.000000,233.000000,220.000000,13.000000,31.000000,0.000000,0.000000,0.262862,0.359320,0.102663,0.244812,0.000000,233.000000,220.000000,13.000000,31.000000,0.000000,0.000000:
00000000
00000000
00000000
00000000
,
00000000
00000000
00000000
00000000
,
00000000
00000000
00000000
00000000
,
00000000
00000000
00000000
00000000
,
00000000
00000000
00000000
00000000
,
00000000
00000000
00000000
00000000
,
00000000
00000000
00000000
00000000
,
00000000
00000000
00000000
00000000
,
00001000
00000000
00001000
00000000
,
00010000
00000000
00010000
00000000
,
01000000
01000000
10000000
10000000
,
00100000
00000000
00000000
00000000
,
00010000
00000000
00010000
00000000
,
00001000
00000000
00001000
00000000
,
00000100
00000100
00000001
00000001
,
00000010
00000000
00000000
00001001
,
00000001
00000100
00000001
00000100
,
00000010
00010000
00000010
00010000
,
00001000
01000000
00001000
01000000
,
00010000
00000000
00000000
10010000
,
10000000
01000000
10000000
01000000
,
00100000
00001000
00100000
00001000
,
00010000
00000100
00010000
00000100
,
00001000
00000000
00001001
00000000
,
00000001
00000100
00001000
00000000
,
00010000
01000000
10000000
00000000
,
00100000
00100000
10000000
10000000
,
00010000
00000000
10010000
00000000
,
10000000
01000000
00010000
00000000
,
00001000
00000100
00000001
00000000
,
00000010
00000010
00000001
00000001
,
00001000
00000000
00001010
00000000
00000000
00001001
00000000
00000000
,
00000002
00000000
00000000
00000000
,
00002003
00000000
00000000
00000000
,
00023000
00000000
00000000
00000000
,
20030000
00000000
00000000
00000000
,
30010000
00010000
10000000
10000000
,
01000000
01000000
00010000
00010000
,
00001000
00000100
00000001
00000000
,
00000001
00000010
00001000
00000000
,
00010000
00010000
00100000
00100000
,
01100000
00000000
00010000
00010000
,
00001000
00001000
00000010
00000010
,
00000110
00000000
00000001
00001000
,
00000010
00000000
00010000
00001000
,
01000000
00000000
00010000
00000000
,
20000000
00000000
00010000
30010000
,
10000000
01000000
00010000
00001000
,
00000200
00000000
00000000
00000000
,
00000001
00000000
00000000
00000001
00000000
00000000
00000001
00000000
,
00000320
00000000
00000000
00000000
,
00001000
00000000
00000000
00000000
,
00020030
00000000
00000000
00000000
,
00100000
00000000
00001000
00000000
,
02030000
00000000
00000000
00000000
,
23000000
00000000
30010000
00000000
,
12000000
00000000
10000000
00000000
,
03020000
00000000
00000000
00032000
00000000
00000000
00003200
00000000
,
00000002
00000300
00000000
00000023
00000000
00000000
00002030
00000000
,
00013000
00010000
00001000
00001000
,
00101000
00100000
00010000
00100000
,
01000000
10000000
00010000
00100000
,
00001000
00010000
00000100
00000010
,
00000002
00000000
00001000
00001003
,
00000220
00000000
00000000
00000330
,
00000002
00000000
00000000
00000000
,
00002003
00000000
00000000
00000000
,
00023000
00000000
00000000
00000000
,
20030000
00000000
00000000
00000000
,
30010000
00010000
10000000
10000000
,
01000000
01000000
00010000
00010000
,
00001000
00000100
00000001
00000000
,
00000001
00000010
00001000
00000000
,
00010000
00010000
00100000
00100000
,
01100000
00000000
00010000
00010000
,
00001000
00001000
00000010
00000010
,
00000110
00000000
00000001
00001000
,
00000010
00000000
00010000
00001000
,
01000000
00000000
00010000
10000000
,
01000000
00000000
00100000
00010000
,
10000000
00010000
01000000
00001000
,
00010000
00000000
00000100
00001000
,
00000100
00000000
00001000
00000000
,
00000002
00000000
00001000
00001003
,
00000001
00000100
00001000
00010000
,
02000000
00000000
00000000
00000000
,
23000000
00000000
00000000
00000000
,
30020000
00000000
00000000
00000000
,
00230000
00000000
00000000
00000000
,
00302000
00000000
00000000
00000000
,
00023000
00000000
00000000
00000000
,
00030010
00000000
00000000
00000000
;
