#TITLE:ULTRiX;
#SUBTITLE:;
#ARTIST:sky_delta;
#TITLETRANSLIT:;
#SUBTITLETRANSLIT:;
#ARTISTTRANSLIT:;
#GENRE:Neurostep;
#CREDIT:Telperion (Song), CuzcoBlocko (Steps);
#BANNER:ULTRiX.png;
#BACKGROUND:ULTRiX-bg.png;
#LYRICSPATH:;
#CDTITLE:;
#MUSIC:ULTRiX.ogg;
#OFFSET:-0.536000;
#SAMPLESTART:43.212002;
#SAMPLELENGTH:21.333000;
#SELECTABLE:YES;
#DISPLAYBPM:90.000000:180.000000;
#BPMS:0.000000=90.000000
,48.000000=135.000000
,69.000000=90.000000
,70.500000=180.000000
,71.000000=135.000000
,119.000000=90.000000
,119.125000=180.000000
,119.625000=270.000000
,120.000000=180.000000
,221.000000=90.000000
,228.750000=180.000000
,229.750000=90.000000
;
#STOPS:70.500000=0.167000,
150.500000=0.333000,
181.500000=0.333000
;
#BGCHANGES:;
#KEYSOUNDS:;
#ATTACKS:;

//---------------dance-single - C 09 X 14----------------
#NOTES:
     dance-single:
     C 09 X 14:
     Hard:
     9:
     0.696391,0.731122,0.367727,0.678880,1.060750,517.000000,478.000000,39.000000,72.000000,0.000000,0.000000,0.696391,0.731122,0.367727,0.678880,1.060750,517.000000,478.000000,39.000000,72.000000,0.000000,0.000000:
0000
0000
0000
0000
,
0000
0000
0000
0000
,
0000
0000
0000
0000
,
0000
0000
0000
0000
0000
0000
0000
0000
0000
0000
0000
0000
0000
0000
0000
0000
0000
0000
0000
0000
0000
0000
0000
0000
0000
0000
0000
0000
0000
0000
1000
0001
,
0010
0000
0100
0000
1000
0000
0002
0000
0100
0000
0203
0000
0000
0000
0320
0000
0000
0000
0000
0000
0000
0000
0000
0000
0130
0000
0002
0000
0000
0000
0013
0100
,
2000
0000
0000
0000
0100
0000
3001
0002
0000
0000
0000
0203
0010
0320
0000
0000
,
2030
0000
0000
0000
0100
0000
3001
2000
0000
0000
0000
0000
0100
3200
0000
0000
,
0320
0000
0000
0000
0000
0000
0000
0000
0032
0000
0000
0000
0000
0000
0000
0000
0203
0000
0001
0000
0000
0000
0310
1000
0001
0000
0010
0000
0100
0000
0000
0000
,
1200
0000
0000
1000
0000
0000
0010
0000
0000
0010
0000
0000
0001
0000
0010
0000
,
1300
0000
0000
1000
0000
0000
0010
0000
0000
0001
0000
0000
0100
0000
1000
0000
,
0010
0000
0000
0000
0000
0000
0000
0000
0000
0000
0000
0000
0000
0000
0000
0000
0100
0000
0000
0000
0000
0000
0000
0000
0000
0000
0000
0000
0000
0000
0000
0000
0001
0000
0000
0000
0000
0000
0000
0000
0000
0000
0000
0000
0000
0000
0000
0000
1000
0000
0000
0000
0000
0000
0000
0000
0000
0000
0000
0000
0000
0000
0000
0000
0100
0000
0000
0000
0000
0000
0000
0000
0000
0000
0000
0000
0000
0000
0000
0000
0010
0000
0000
0000
0000
0000
0000
0000
0000
0000
0000
0000
0000
0000
0000
0000
0000
0000
0000
0000
0000
0000
0000
0000
0000
0000
0000
0000
0001
0000
0000
0000
0000
0000
0000
0000
0000
0000
0000
0000
0100
0000
0000
0000
0000
0000
0000
0000
0000
0000
0000
0000
0010
0000
0000
0000
0000
0000
0000
0000
0000
0000
0000
0000
1000
0000
0000
0000
0000
0000
0000
0000
0000
0000
0000
0000
0000
0000
0000
0000
0100
0000
0000
0000
0000
0000
0000
0000
0000
0000
0000
0000
0000
0000
0000
0000
0000
0000
0000
0000
0010
0000
0000
0000
0000
0000
0001
0000
0000
0000
0000
0000
,
0100
0000
0000
0000
0000
0000
0100
0000
0000
0000
0000
0000
1000
0000
0000
0000
0000
0000
0010
0000
0000
0000
0001
0000
1000
0000
0001
0000
1001
0000
0000
2000
,
0100
0000
0000
0000
0000
0000
0001
0000
0000
0000
0000
0000
0100
0000
0000
0000
0000
0000
0001
0000
0000
0000
0000
0000
3100
0000
0000
1000
0000
0000
0010
0000
,
0000
0000
0010
0000
0000
0000
0000
0000
0100
0000
0000
0000
0000
0000
0110
0000
0000
0000
0000
0000
0000
0000
0000
0000
0000
0000
0100
0000
0000
0002
0000
0000
1000
0000
0000
0000
0000
0000
0000
0000
0000
0000
0000
0000
0010
0000
0000
0000
0000
0000
0000
0000
0000
0000
0000
0000
1000
0000
0000
0000
0000
0000
0000
0000
,
0000
0000
0000
0000
0010
0000
0000
0000
0000
0000
0000
0000
0000
1003
0000
0000
0010
0000
0000
0000
0000
0000
0000
0000
0000
0110
0000
0000
0000
0000
0000
0000
0000
0000
0101
0000
0000
0000
0000
0000
0001
0000
0000
0000
0000
0000
0010
0000
0000
0000
0000
0000
0100
0000
0000
0000
0000
0000
1000
0000
0000
0001
0000
0000
,
0100
0000
0000
0100
0000
0000
0010
0000
0000
1000
0000
0000
0100
0000
0000
0001
0000
0000
0100
0000
0000
1000
0000
0000
0001
0000
0000
0001
0000
0000
0100
0000
,
0000
0000
1000
0000
0000
0000
0000
0000
0100
0000
0000
0000
0000
0000
0100
0000
0000
0000
0000
0000
0001
0000
0000
0000
0000
0000
1000
0000
0000
0000
0000
0000
0100
0000
0000
0000
0000
0000
0100
0000
0000
0000
0000
0000
0010
0000
0000
0000
0000
0000
0010
0000
0000
0001
0000
0000
1000
0000
0000
0001
0000
0000
1000
0000
,
0000
0001
0000
0000
1000
0000
0000
0001
0000
0000
1000
0000
0000
0002
0000
0000
2000
0000
0000
0000
0000
0000
0000
0000
0000
0000
0000
0000
0000
0000
0000
0000
0000
0000
0000
0000
3003
0000
0000
0000
0101
0000
0000
0000
0000
0000
0000
0000
2010
0000
0000
0000
0000
0000
0000
0000
0000
0000
0000
0000
3100
0000
0000
0000
,
0000
0000
0000
0000
1002
0000
0000
0000
0000
0000
0103
0000
0000
0002
0000
0000
0000
0000
0000
0103
0000
0000
0010
0000
0000
1000
0000
0000
0100
0000
0000
0001
,
0000
0000
0000
0000
0100
0000
0000
0000
0000
0000
1000
0000
0000
0000
0000
0000
0010
0000
0000
0000
0000
0000
0002
0000
0000
0000
0000
0000
0013
0000
0000
0100
0000
0000
0010
0000
0000
0100
0000
0000
0010
0000
0000
1000
0000
0000
0010
0000
0000
1000
0000
0000
0001
0000
0000
0000
0000
0000
0010
0000
0000
0000
0000
0000
,
1000
0000
0000
0010
0000
0000
0001
0000
0000
0200
0000
0000
0000
0000
0000
0310
0000
0000
1000
0000
0000
0100
0000
0000
0001
0000
0000
0000
0000
0000
1100
0000
,
0000
0000
0000
0000
0000
0000
0000
0000
1000
0000
0000
0000
0000
0000
0010
0000
0000
0100
0000
0000
0010
0000
0000
0000
0000
0000
2010
0000
0000
0000
0000
0000
0000
0000
0000
0000
0000
0000
3000
0000
0000
0100
0000
0000
0020
0000
0000
0000
0000
0000
0001
0000
0000
0000
0000
0000
0031
0000
0000
0000
0000
0000
0201
0000
,
0000
0000
0000
0000
0000
0000
0000
0000
0000
0000
0000
0000
0000
0000
0000
0000
0310
0000
0000
0000
0000
0000
0000
0000
0000
0000
0000
0000
2010
0000
0000
0000
0000
0000
0000
0000
0000
0000
0000
0000
3001
0000
0000
0000
0000
0000
0010
0000
0000
0100
0000
0000
0010
0000
0000
0000
0000
0000
0012
0000
0000
0000
0000
0000
,
0000
0000
0000
0003
0000
0000
1000
0000
0000
2010
0000
0000
0000
0000
0000
0001
0000
0000
3002
0000
0000
0000
0000
0000
0013
0000
0000
0000
0000
0000
1100
0000
,
0000
0000
0000
0000
2001
0000
0000
0000
0000
0000
3100
0000
0000
2000
0000
0000
3020
0000
0000
0030
0000
0000
0100
0000
0000
0001
0000
0000
0010
0000
0000
1000
,
0000
0000
0000
0000
0010
0000
0000
0000
0000
0000
0001
0000
0000
0000
0000
0000
0100
0000
0000
0000
0000
0000
0010
0000
0000
0100
0000
0000
0010
0000
0000
1000
0000
0000
0010
0000
0000
1000
0000
0000
0001
0000
0000
0010
0000
0000
0001
0000
0000
0000
0000
0000
1000
0000
0000
0000
0000
0000
0010
0000
0000
0000
0000
0000
,
0001
0000
0000
0010
0000
0000
1000
0000
0000
0200
0000
0000
0000
0000
0000
0310
0000
0000
0001
0000
0000
0100
0000
0000
1000
0000
0000
0000
0000
0000
0101
0000
,
0000
0000
0000
0000
0000
0000
0000
0000
0001
0000
0000
0000
0000
0000
0010
0000
0000
0100
0000
0000
0010
0000
0000
0100
0000
0000
1000
0000
0000
0000
0000
0000
0100
0000
0000
0000
0000
0000
0100
0000
0000
0000
0000
0000
1000
0000
0000
0000
0000
0000
0000
0000
0000
0100
0000
0000
0010
0000
0000
0000
0000
0000
0001
0000
,
0000
0000
0000
0000
0100
0000
0000
0001
0000
0000
1000
0000
0000
0000
0000
0000
2010
0000
0000
0000
0000
0000
0000
0000
0000
0000
0000
0000
3100
0000
0000
0000
0000
0000
0012
0000
0000
0000
0000
0000
0000
0000
0000
0000
0000
0000
0003
0000
0000
2000
0000
0000
0020
0000
0000
0000
0000
0000
0000
0000
0000
0000
0000
0000
,
3000
0000
0000
0000
0000
0000
0000
0000
0000
0000
0000
0000
0130
0000
0000
0000
0000
0000
0001
0000
0000
0000
0000
0000
1000
0000
0000
0001
0000
0000
1000
0000
0000
0001
0000
0000
1000
0000
0000
0010
0000
0000
1000
0000
0000
0010
0000
0000
1000
0000
0000
0000
0000
0000
0000
0000
0000
0000
0000
0000
0000
0000
0000
0000
,
1100
0000
0000
0000
0002
0000
0013
0000
0100
0000
2000
0010
0000
0000
3001
0000
,
1000
0000
0010
0000
0001
0000
0010
0100
0010
1000
0000
0100
0010
0000
0002
0000
,
1003
0000
0000
0000
0010
0000
0000
0000
1000
0000
0000
0000
0001
0000
0000
0000
0010
0000
0000
0000
0100
0000
0000
0000
1000
0000
0000
0000
0000
0000
0001
0000
0000
0100
0000
0000
0010
0000
0000
0000
0000
0000
0001
0000
0000
0000
0000
0000
,
1000
0000
0100
0010
1000
0000
0100
0000
0001
0000
0000
0000
1100
0000
0000
0000
,
0002
0103
0010
0100
0001
0010
0110
0000
,
0110
0000
0010
0100
1000
0000
2010
0000
0000
0000
3001
1000
0100
0000
0001
0000
,
0001
0000
0100
0000
0100
0000
1000
0000
1000
0000
0010
0100
0010
0100
0010
0100
,
0010
2000
0002
0000
3000
0000
0013
0000
0100
0000
2200
3300
0011
0000
0001
1000
,
0000
0001
0010
0000
0100
0000
0020
0000
1000
0030
0010
0000
0001
0000
1000
0010
,
0000
0100
0010
0000
0001
0000
0010
0000
0100
0000
0010
0000
1000
0000
0100
1000
,
0100
0000
0010
0001
0010
0000
2000
0000
3010
0000
0002
0000
0203
0000
2300
0000
,
3100
0000
0001
0000
0011
0000
0020
0000
0100
0000
0000
0000
0031
0000
0100
0001
,
0000
1000
0010
0000
0100
0000
0002
0000
0010
0003
0001
0000
0010
0000
0100
1000
,
0000
1000
0001
0000
1000
0000
0020
0000
0100
0030
0010
0000
1000
0000
0100
0010
,
0000
0100
1000
0000
0010
0000
0100
0000
0101
0000
0000
0001
0010
0000
0110
0000
,
0000
0000
0100
0000
1000
0001
2000
3000
1010
0000
1000
0001
0000
1000
0010
0000
,
0100
0000
0020
0000
0001
0030
0010
0000
1000
0000
0001
0010
0000
0100
0010
0000
,
1000
0000
0020
0000
0001
0030
0010
0100
1000
0000
0010
0000
0001
0000
1000
0100
,
0000
0000
0101
0000
0000
0000
1010
0000
0000
0000
1000
0001
0010
0000
0010
0000
,
0100
0000
2100
0000
0000
0000
0000
0000
3010
0000
0100
0001
2000
0000
0000
0000
,
3100
0000
0010
0001
1000
0000
0010
0000
0100
0001
0000
1000
0100
0000
0010
0001
,
1000
0000
0010
0000
0200
0000
0001
0300
0100
0000
2000
0000
3002
0000
0023
0000
,
2030
0000
0001
0000
3002
0000
1000
0000
2003
0000
3100
0010
0100
1000
0100
1000
,
0001
1000
0001
1000
0010
0000
0000
0000
0100
0000
0101
0000
0000
0000
0001
0000
,
0011
0000
0000
0000
0010
0000
0110
0000
0000
0000
0100
1000
0001
0000
2002
0000
,
0000
0000
3003
0000
0101
0000
0000
0001
0000
0000
0010
0000
0000
0010
0000
0000
,
1000
0000
0010
0000
0001
0000
0000
0001
0000
0000
0100
0000
0010
1000
0010
0100
,
0001
0000
0010
0100
1000
0000
2002
0000
0000
0000
0000
0000
0000
0000
3003
0000
0000
0000
0000
0000
0000
0000
0000
0000
0000
0000
0000
0000
0000
0000
0000
0000
;

//---------------dance-single - C 08 X 12----------------
#NOTES:
     dance-single:
     C 08 X 12:
     Medium:
     8:
     0.511854,0.595729,0.245151,0.631736,0.674166,380.000000,354.000000,26.000000,67.000000,0.000000,0.000000,0.511854,0.595729,0.245151,0.631736,0.674166,380.000000,354.000000,26.000000,67.000000,0.000000,0.000000:
0000
0000
0000
0000
,
0000
0000
0000
0000
,
0000
0000
0000
0000
,
0000
0000
0000
0000
0000
0000
0000
0000
0000
0000
0000
0000
0000
0000
0000
0001
,
1000
0100
0010
0002
0000
0203
0000
2300
0000
0000
0000
0000
3100
0020
0000
1030
,
0002
0000
0000
0000
0103
0000
0001
2000
0000
0000
0000
3200
0000
0320
0000
0000
,
0032
0000
0000
0000
0103
0000
0010
2000
0000
0000
0000
0000
3001
0200
0000
0000
,
0320
0000
0000
0000
2030
0000
0000
0000
3200
0000
0000
0301
0200
0000
0000
0300
,
2200
0000
0000
3300
,
0100
0000
0000
0100
0000
0000
1000
0000
0000
0010
0000
0000
0100
0000
0001
0000
,
0010
0000
0000
0100
0000
0000
1000
0000
0000
1000
0000
0000
0010
0000
0100
0000
,
0001
0000
0000
0001
0000
0000
0010
0000
0000
0100
0000
0100
1000
0000
1001
0000
,
0201
0000
0000
0000
0000
0000
0001
0000
0000
0000
0000
0000
0001
0000
0000
0000
0000
0000
0001
0000
0000
0000
0000
0000
0301
0000
0000
0100
0000
0000
0010
0000
,
0000
1000
0000
0000
0100
0000
0000
0010
0000
0000
0001
0000
0000
1000
0000
0000
0200
0000
0000
0000
0000
0000
1000
0000
0000
0000
0000
0000
1000
0000
0000
0000
,
0000
0000
0000
0000
1300
0000
0000
0000
0000
0000
0000
0000
0000
0100
0000
0000
0010
0000
0000
0000
0000
0000
0000
0000
0000
0010
0000
0000
0000
0000
0000
0000
0000
0000
0010
0000
0000
0000
0000
0000
0100
0000
0000
0000
0000
0000
0010
0000
0000
0000
0000
0000
0100
0000
0000
0000
0000
0000
1000
0000
0000
0000
0000
0000
,
0001
0000
0000
0100
0000
0000
0010
0000
0000
0100
0000
0000
1000
0000
0000
0100
0000
0000
0010
0000
0000
1000
0000
0000
0001
0000
0000
0010
0000
0000
0100
0000
,
0000
0010
0000
0000
1000
0000
0000
0010
0000
0000
0100
0000
0000
0010
0000
0000
0001
0000
0000
0100
0000
0000
0010
0000
0000
1000
0000
0000
0100
0000
0000
0010
,
0000
0000
0001
0000
0000
0200
0000
0000
0020
0000
0000
0000
0000
0000
0000
0000
0000
0000
0000
0330
0000
0000
0000
0000
2001
0000
0000
0000
0000
0000
0100
0000
,
0000
0000
0000
0000
3002
0000
0000
0000
0000
0000
0103
0000
0000
0020
0000
0000
0000
0000
0000
0130
0000
0000
0001
0000
0000
1000
0000
0000
0100
0000
0000
0010
,
0000
0000
0100
0000
0000
1000
0000
0000
0020
0000
0000
0100
0000
0000
0230
0000
0000
0001
0000
0000
0302
0000
0000
1000
0000
0000
1003
0000
0000
0100
0000
0000
,
0010
0000
0000
0100
0000
0000
1000
0000
0000
0002
0000
0000
0000
0000
0000
0103
0000
0000
0010
0000
0000
0100
0000
0000
0001
0000
0000
0000
0000
0000
0011
0000
,
0000
0000
0000
0000
0010
0000
0000
0001
0000
0000
1000
0000
0000
0010
0000
0000
0000
0000
0000
0000
0000
0000
0011
0000
0000
0000
0000
0000
0000
0000
0000
0101
,
0000
0000
0000
0000
0000
0000
0000
0000
2100
0000
0000
0000
0000
0000
0001
0000
0000
0000
0000
0000
3100
0000
0000
0010
0000
0000
0100
0000
0000
2000
0000
0000
,
0000
0000
0000
0000
0000
0000
3010
0000
0000
0002
0000
0000
0000
0000
0000
0013
0000
0000
0100
0000
0000
0000
0000
0000
2001
0000
0000
0000
0000
0000
0100
0000
,
0000
0000
0000
0000
3001
0000
0000
0000
0000
0000
0001
0000
0000
0100
0000
0000
0010
0000
0000
0000
0000
0000
0010
0000
0000
1000
0000
0000
0100
0000
0000
0010
,
0000
0000
0100
0000
0000
1000
0000
0000
0002
0000
0000
0010
0000
0000
0023
0000
0000
0100
0000
0000
0230
0000
0000
1000
0000
0000
1300
0000
0000
0010
0000
0000
,
0100
0000
0000
0010
0000
0000
1000
0000
0000
0002
0000
0000
0000
0000
0000
0013
0000
0000
0100
0000
0000
0010
0000
0000
0001
0000
0000
0000
0000
0000
0101
0000
,
0000
0000
0000
0000
0100
0000
0000
0001
0000
0000
1000
0000
0000
0100
0000
0000
0010
0000
0000
0001
0000
0000
1000
0000
0000
0010
0000
0000
0100
0000
0000
0010
,
0000
0000
1000
0000
0000
0001
0000
0000
0010
0000
0000
0000
0000
0000
0000
0000
0000
1010
0000
0000
0000
0000
0000
0000
0000
0000
0012
0000
0000
0000
0000
0000
,
0000
0000
0000
0000
0000
0000
0103
0000
0000
0010
0000
0000
2000
0000
0000
0001
0000
0000
3002
0000
0000
1000
0000
0000
1003
0000
0000
0000
0000
0000
0000
0000
,
0110
0000
1002
0000
0103
0001
1000
0001
,
1000
0000
0000
0100
0000
0000
0010
0000
0000
0100
0000
0000
0001
0000
0000
0100
0000
0000
1000
0000
0000
0000
1000
0000
,
0010
0000
0000
0000
0010
0000
0001
0000
0000
0000
0001
0000
0100
0000
0000
0100
0000
0000
1000
0000
0000
0010
0000
0000
,
0100
0002
0000
0013
0100
1000
1001
0000
,
0001
0100
0010
1000
0001
0010
0100
0000
,
1100
1000
0000
1001
0001
0100
0010
0100
,
1000
0100
0010
0100
0001
2002
0000
0000
,
0000
0000
3003
0000
0000
0000
1000
0000
0100
0000
0020
0030
0011
0000
0000
0001
,
0000
0000
0100
0000
0010
0000
0020
0000
0000
0000
1030
0000
0001
0000
0000
1000
,
0000
0100
0010
0001
2000
0000
3100
0010
,
0010
0001
0001
1000
0010
0100
0001
2000
,
0000
0000
3001
0000
0100
0000
0020
0000
1000
0000
0000
0000
0130
0000
0000
0001
,
0000
0000
0010
0000
0100
0000
2000
0000
0001
0000
0000
0000
3010
0000
0000
0100
,
0000
0000
0001
0000
0010
0000
0020
0000
0100
0000
0000
0000
0031
0000
0000
1000
,
0000
0000
0100
0000
0010
0000
0100
0000
2000
0000
0000
0010
0000
0000
0001
0000
,
3100
0000
0020
0000
0000
0000
0031
0000
0101
0000
0000
0100
0000
0000
0010
0000
,
1000
0000
2000
0000
0000
0000
3100
0000
0010
0000
0000
0001
0000
0000
0100
0000
,
1000
0000
0200
0000
0000
0000
0301
0000
1000
0000
0100
0000
0002
0000
0000
2003
,
0000
3010
0000
0011
0000
0101
0000
1010
,
0000
1200
0000
0000
0310
0001
2000
0000
,
3010
0000
1000
0000
0001
0000
0010
0000
0000
0100
0000
0000
1000
0000
0000
0100
,
0000
0010
0002
0000
0103
2000
0100
0000
,
3100
0010
1000
1000
0001
0002
1000
0000
,
1003
0000
1100
0000
0100
0001
0000
0001
,
0010
0000
0010
1000
0000
1000
0200
0020
,
0000
0330
2002
0000
0000
0000
0000
0000
,
3003
0000
0000
0000
1000
0000
0000
1000
0000
0000
0100
0000
0000
0001
0000
0000
,
0010
0000
2000
0002
0000
0000
0000
3003
0000
0000
0000
0000
0000
0000
0000
0000
;

//---------------dance-single - C 06 X 10----------------
#NOTES:
     dance-single:
     C 06 X 10:
     Easy:
     6:
     0.401401,0.566176,0.584591,0.575162,0.372441,298.000000,236.000000,62.000000,61.000000,0.000000,0.000000,0.401401,0.566176,0.584591,0.575162,0.372441,298.000000,236.000000,62.000000,61.000000,0.000000,0.000000:
// measure 0
0000
0000
0000
0000
,  // measure 1
0000
0000
0000
0000
,  // measure 2
0000
0000
0000
0000
,  // measure 3
0000
0000
0000
0000
,  // measure 4
1001
0000
0000
0001
0000
0100
0000
0020
0000
0000
0000
0000
0000
1030
0000
0000
,  // measure 5
2010
0000
0000
0000
0000
0000
3002
0000
0000
0000
0000
1003
0000
0100
0000
0000
,  // measure 6
0120
0000
0000
0000
0000
0000
0032
0000
0000
0000
0000
0000
0000
0103
0000
0000
,  // measure 7
0120
0000
0000
0000
2030
0000
0000
0000
3200
0000
0000
0310
0002
0000
0000
0000
,  // measure 8
2000
0000
0000
0000
0000
0000
0000
3000
,  // measure 9
1003
0000
0000
1000
0000
0000
0100
0000
0000
0100
0000
0000
0010
0000
0000
0000
,  // measure 10
0001
0000
0000
0100
0000
0000
0010
0000
0000
0010
0000
0000
0010
0000
0000
0000
,  // measure 11
1000
0000
0000
1000
0000
0000
0100
0000
0000
0010
0000
0000
0001
0000
1000
0000
,  // measure 12
1010
0000
0000
1001
0000
0000
1010
0000
0000
0110
0000
0000
1010
0000
0000
1000
,  // measure 13
0000
0001
0000
0000
0000
0000
0000
0011
0000
0000
0000
0000
0000
0010
0000
0000
0100
0000
0000
0000
0000
0000
1100
0000
0000
0000
0000
0000
0110
0000
0000
0000
,  // measure 14
0000
0000
0000
0000
1100
0000
0000
0000
0000
0000
0000
0000
0000
0000
0000
0000
1001
0000
0000
0000
0000
0000
0000
0000
0000
0001
0000
0000
0000
0000
0000
0000
0000
0000
1000
0000
0000
0000
0000
0000
0000
0000
0000
0000
0000
0000
1001
0000
0000
0000
0000
0000
0000
0000
0000
0000
0000
0000
0000
0000
0001
0000
0000
0000
,  // measure 15
0200
0000
0000
1000
0000
0000
0010
0000
0000
0301
0000
0000
1002
0000
0000
0013
,  // measure 16
0000
0000
0210
0000
0000
1300
0000
0000
1001
0000
0000
0101
0000
0000
0110
0000
,  // measure 17
0000
0101
0000
0000
2001
0000
0000
0000
0000
0000
3100
0000
0011
0000
0000
0000
,  // measure 18
0000
0000
0000
0000
0002
0000
0000
0000
0000
0000
0000
0000
0000
2003
0000
0000
0000
0000
0000
0000
0000
0000
3100
0000
0000
0000
0000
0000
0010
0000
0000
0000
,  // measure 19
0000
0001
0000
0000
0200
0000
0000
1000
0000
0000
0001
0000
0000
0310
0000
0000
,  // measure 20
1000
0000
0000
0000
0000
0000
1000
0000
0000
0100
0000
0000
0000
0000
0000
0100
0000
0000
0001
0000
0000
0000
0000
0000
0100
0000
0000
0000
0000
0000
1100
0000
,  // measure 21
0000
0000
0000
0000
1000
0000
0000
0000
0000
0000
0000
0000
0000
1001
0000
0000
0000
0000
0000
0000
0000
0000
0101
0000
0000
0000
0000
0000
0000
0000
0000
1010
,  // measure 22
0000
0000
0000
0000
0000
0000
0000
0000
1001
0000
0000
0000
0000
0000
1000
0000
0000
0000
0000
0000
0100
0000
0000
0000
0000
0000
0020
0000
0000
0002
0000
0000
,  // measure 23
0000
0000
0000
0000
0000
0000
0033
0000
0000
2001
0000
0000
0000
0000
0000
0000
0000
0000
0010
0000
0000
0000
0000
0000
3001
0000
0000
0000
0000
0000
0101
0000
,  // measure 24
0000
0000
0000
0000
2020
0000
0000
0000
0000
0000
3030
0000
0000
1000
0000
0000
0010
0000
0000
0000
0000
0000
0100
0000
0000
0000
0000
0000
0001
0000
0000
0000
,  // measure 25
0000
1000
0000
0000
0200
0000
0000
0001
0000
0000
1000
0000
0000
0310
0000
0000
,  // measure 26
0001
0000
0000
0000
0000
0000
0001
0000
0000
0100
0000
0000
0000
0000
0000
0100
0000
0000
1000
0000
0000
0000
0000
0000
0100
0000
0000
0000
0000
0000
0101
0000
,  // measure 27
0000
0000
0000
0000
0002
0000
0000
0000
0000
0000
0000
0000
0000
0013
0000
0000
0100
0000
0000
0000
0000
0000
0020
0000
0000
0000
0000
0000
0031
0000
0000
1000
,  // measure 28
0000
0000
0001
0000
0000
0000
0000
0000
0202
0000
0000
0000
0000
0000
0303
0000
0000
2020
0000
0000
0000
0000
0000
3030
0000
0000
2200
0000
0000
0000
0000
0000
,  // measure 29
0000
0000
0000
0000
0000
0000
0000
0000
0000
3000
0000
0000
0310
0000
0000
0000
,  // measure 30
0011
0000
0002
0000
0000
2003
0000
0000
,  // measure 31
3010
0100
0001
0010
,  // measure 32
0200
0001
1000
0310
,  // measure 33
0010
0001
0000
0001
0100
0000
0210
0000
,  // measure 34
0001
0000
0001
0000
0301
1000
0100
0000
,  // measure 35
0100
0010
0000
0010
0000
0001
0100
0000
,  // measure 36
1010
0000
1100
0000
0200
0020
0300
0000
,  // measure 37
0000
0000
0002
0000
0000
0000
0000
0000
0000
0000
0033
0000
1001
0000
0000
1000
,  // measure 38
0000
0000
0100
0000
0000
0000
0021
0000
0000
0000
0000
0000
0130
0000
0000
1000
,  // measure 39
0000
0001
0200
0000
0310
0000
1000
0000
,  // measure 40
0001
0000
1000
0100
0020
0000
0130
1000
,  // measure 41
0000
0000
0010
0000
0000
0000
0120
0000
0000
0000
0000
0000
1030
0000
0000
0001
,  // measure 42
0000
0000
1000
0000
0000
0000
1200
0000
0000
0000
0000
0000
0310
0000
0000
0001
,  // measure 43
0000
0000
1000
0000
0010
0000
0200
0000
0001
0000
0000
0000
0310
0000
0000
1000
,  // measure 44
0000
0000
0001
0000
1000
0000
0000
0000
0010
0000
0000
0001
0000
0000
0010
0000
,  // measure 45
0000
0000
0120
0000
0000
0000
1030
0000
1001
0000
0000
0001
0000
0000
0100
0000
,  // measure 46
0000
0000
1020
0000
0000
0000
0000
0000
0130
0000
0000
0001
0000
0000
0010
0000
,  // measure 47
0001
0000
0020
0000
0000
0000
0000
0000
0130
0000
1000
0000
0001
0000
0000
1000
,  // measure 48
0000
1010
0000
0011
0000
0101
0000
1100
,  // measure 49
0000
1020
0000
0000
0130
0000
0002
0000
,  // measure 50
0013
0000
0000
0000
0100
0000
1000
0000
0000
0001
0000
0000
1000
0000
0000
0100
,  // measure 51
0000
0010
0002
0000
0103
2000
0000
0000
,  // measure 52
3100
0010
1000
0000
1100
0000
0101
0000
,  // measure 53
0011
0000
2020
0000
3030
2200
0000
3300
,  // measure 54
0022
0000
0033
0202
0000
0303
1001
0000
,  // measure 55
0110
2002
0000
0000
,  // measure 56
0000
0000
0000
0000
,  // measure 57
3003
0000
0000
0110
0000
0000
0000
0000
0000
0000
0000
0000
0000
0000
0000
0000
;

//---------------dance-double - ----------------
#NOTES:
     dance-double:
     :
     Hard:
     9:
     0.674839,0.731122,0.396013,0.537447,0.975890,501.000000,459.000000,42.000000,57.000000,0.000000,0.000000,0.674839,0.731122,0.396013,0.537447,0.975890,501.000000,459.000000,42.000000,57.000000,0.000000,0.000000:
00000000
00000000
00000000
00000000
,
00000000
00000000
00000000
00000000
,
00000000
00000000
00000000
00000000
,
00000000
00000000
00000000
00000000
00000000
00000000
00000000
00000000
00000000
00000000
00000000
00000000
00000000
00000000
00000000
00000000
00000000
00000000
00000000
00000000
00000000
00000000
00000000
00000000
00000000
00000000
00000000
00000000
00000000
00000000
00010000
00001000
,
00010000
00000000
00000000
00000000
00000100
00000000
00000010
00000000
00000001
00000000
00000200
00000000
00000000
00000000
00002300
00000000
00000000
00000000
00000000
00000000
00000000
00000000
00000000
00000000
00013000
00000000
00000000
00200000
00000000
00300000
10000000
00010000
,
20000000
00000000
00000000
00000000
01000000
00000000
30010000
00020000
00000000
00000000
00000000
00031000
00000010
00000020
00000000
00000000
,
00002030
00000000
00000000
00000000
00000100
00000000
00003001
00000020
00000000
00000000
00000000
00000000
00001000
00002030
00000000
00000000
,
00023000
00000000
00000000
00000000
00000000
00000000
00000000
00000000
00230000
00000000
00000000
00000000
00000000
00000000
00000000
00000000
20300000
00000000
00000000
00000000
00000000
00000000
30010000
00100000
00010000
00000000
10000000
00000000
00010000
00000000
00000000
00000000
,
01020000
00000000
00000000
10000000
00000000
00000000
00100000
00000000
00000000
00100000
00000000
00000000
00032000
00000000
00000100
00000000
,
00000001
00000000
00000000
00000001
00000000
00000000
00000010
00000000
00000000
00000010
00000000
00000000
00013000
00000000
01000000
00000000
,
00100000
00000000
00000000
00000000
00000000
00000000
00000000
00000000
00000000
00000000
00000000
00000000
00000000
00000000
00000000
00000000
10000000
00000000
00000000
00000000
00000000
00000000
00000000
00000000
00000000
00000000
00000000
00000000
00000000
00000000
00000000
00000000
00010000
00000000
00000000
00000000
00000000
00000000
00000000
00000000
00000000
00000000
00000000
00000000
00000000
00000000
00000000
00000000
10000000
00000000
00000000
00000000
00000000
00000000
00000000
00000000
00000000
00000000
00000000
00000000
00000000
00000000
00000000
00000000
01000000
00000000
00000000
00000000
00000000
00000000
00000000
00000000
00000000
00000000
00000000
00000000
00000000
00000000
00000000
00000000
00100000
00000000
00000000
00000000
00000000
00000000
00000000
00000000
00000000
00000000
00000000
00000000
00000000
00000000
00000000
00000000
00000000
00000000
00000000
00000000
00000000
00000000
00000000
00000000
00000000
00000000
00000000
00000000
00010000
00000000
00000000
00000000
00000000
00000000
00000000
00000000
00000000
00000000
00000000
00000000
00000000
00000000
00000000
00000000
00000000
00000000
00000000
00000000
00000000
00000000
00000000
00000000
01000000
00000000
00000000
00000000
00000000
00000000
00000000
00000000
00000000
00000000
00000000
00000000
00010000
00000000
00000000
00000000
00000000
00000000
00000000
00000000
00000000
00000000
00000000
00000000
00000000
00000000
00000000
00000000
00001000
00000000
00000000
00000000
00000000
00000000
00000000
00000000
00000000
00000000
00000000
00000000
00000000
00000000
00000000
00000000
00000000
00000000
00000000
00000000
00000010
00000000
00000000
00000000
00000000
00000000
00000100
00000000
00000000
00000000
00000000
00000000
,
00000010
00000000
00000000
00001000
00000000
00000000
00000001
00000000
00000000
00000010
00000000
00001000
00010000
00001000
00010000
00000000
,
00012000
00000000
00000000
00000000
00000000
00000000
01000000
00000000
00000000
00000000
00000000
00000000
00010000
00000000
00000000
00010000
00000000
00000000
00010000
00000000
00000000
00000000
00000000
00000000
00103000
00000000
00000000
00010000
00000000
00000000
01000000
00000000
,
00000000
00100000
00000000
00000000
10000000
00000000
00000000
01000000
00000000
00000000
00010000
00000000
00000000
00000000
00000000
00000000
00021000
00000000
00000000
00000000
00000000
00000000
00000100
00000000
00000000
00000000
00000000
00000000
00001000
00000000
00000000
00001000
,
00000000
00000000
00000000
00000000
00001000
00000000
00000000
00000000
00000000
00000000
00000000
00000000
00000000
00000000
00000000
00000000
00030010
00000000
00000000
00000000
00000000
00000000
00000000
00000000
00000000
00000110
00000000
00000000
00000000
00000000
00000000
00000000
00000000
00000000
00001100
00000000
00000000
00000000
00000000
00000000
00001000
00000000
00000000
00000000
00000000
00000000
00010000
00000000
00000000
00000000
00000000
00000000
00100000
00000000
00000000
00000000
00000000
00000000
10000000
00000000
00000000
00010000
00000000
00000000
,
01000000
00000000
00000000
01000000
00000000
00000000
00100000
00000000
00000000
10000000
00000000
00000000
01000000
00000000
00000000
00010000
00000000
00000000
00001000
00000000
00000000
00000010
00000000
00000000
00000100
00000000
00000000
00000100
00000000
00000000
00000010
00000000
,
00000000
00000000
00000001
00000000
00000000
00000000
00000000
00000000
00000100
00000000
00000000
00000000
00000000
00000000
00001000
00000000
00000000
00000000
00000000
00000000
00010000
00000000
00000000
00000000
00000000
00000000
00100000
00000000
00000000
00000000
00000000
00000000
10000000
00000000
00000000
00000000
00000000
00000000
10000000
00000000
00000000
00000000
00000000
00000000
01000000
00000000
00000000
00000000
00000000
00000000
01000000
00000000
00000000
00010000
00000000
00000000
00001000
00000000
00000000
00010000
00000000
00000000
00001000
00000000
,
00000000
00010000
00000000
00000000
00001000
00000000
00000000
00010000
00000000
00000000
00001000
00000000
00000000
00020000
00000000
00000000
00002000
00000000
00000000
00000000
00000000
00000000
00000000
00000000
00000000
00000000
00000000
00000000
00000000
00000000
00000000
00000000
00000000
00000000
00000000
00000000
00033000
00000000
00000000
00000000
00010100
00000000
00000000
00000000
00000000
00000000
00000000
00000000
00002010
00000000
00000000
00000000
00000000
00000000
00000000
00000000
00000000
00000000
00000000
00000000
00003100
00000000
00000000
00000000
,
00000000
00000000
00000000
00000000
00000012
00000000
00000000
00000000
00000000
00000000
00000103
00000000
00000000
00002000
00000000
00000000
00000000
00000000
00000000
00013000
00000000
00000000
00100000
00000000
00000000
10000000
00000000
00000000
01000000
00000000
00000000
00010000
,
00000000
00000000
00000000
00000000
01000000
00000000
00000000
00000000
00000000
00000000
10000000
00000000
00000000
00000000
00000000
00000000
00100000
00000000
00000000
00000000
00000000
00000000
00010000
00000000
00000000
00000000
00000000
00000000
00001000
00000000
00000000
00010000
00000000
00000000
00001000
00000000
00000000
00010000
00000000
00000000
00000100
00000000
00000000
00010000
00000000
00000000
00000100
00000000
00000000
00010000
00000000
00000000
00001000
00000000
00000000
00000000
00000000
00000000
00000010
00000000
00000000
00000000
00000000
00000000
,
00000001
00000000
00000000
00000010
00000000
00000000
00001000
00000000
00000000
00020000
00000000
00000000
00000000
00000000
00000000
00031000
00000000
00000000
00100000
00000000
00000000
01000000
00000000
00000000
10000000
00000000
00000000
00000000
00000000
00000000
01010000
00000000
,
00000000
00000000
00000000
00000000
00000000
00000000
00000000
00000000
00010000
00000000
00000000
00000000
00000000
00000000
00100000
00000000
00000000
00001000
00000000
00000000
00100000
00000000
00000000
00000000
00000000
00000000
00020000
00000000
00000000
00000000
00000000
00000000
00000000
00000000
00000000
00000000
00000000
00000000
00031000
00000000
00000000
00000000
00000000
00000000
00000200
00000000
00000000
00000000
00000000
00000000
00000000
00000000
00000000
00000000
00000000
00000000
00000310
00000000
00000000
00000000
00000000
00000000
00000002
00000000
,
00000000
00000000
00000000
00000000
00000000
00000000
00000000
00000000
00001003
00000000
00000000
00000000
00000000
00000000
00002010
00000000
00000000
00000000
00000000
00000000
00003001
00000000
00000000
00000010
00000000
00000000
00001000
00000000
00000000
00022000
00000000
00000000
,
00000000
00000000
00000000
00033000
00000000
00000000
01000000
00000000
00000000
01020000
00000000
00000000
00000000
00000000
00000000
10000000
00000000
00000000
20030000
00000000
00000000
00000000
00000000
00000000
30100000
00000000
00000000
00000000
00000000
00000000
10100000
00000000
,
00000000
00000000
00000000
00000000
10010000
00000000
00000000
00000000
00000000
00000000
10000000
00000000
00000000
00100000
00000000
00000000
00020000
00000000
00000000
00000000
00000000
00000000
00031000
00000000
00000000
00000010
00000000
00000000
00000001
00000000
00000000
00000100
,
00000000
00000000
00000000
00000000
00001000
00000000
00000000
00000000
00000000
00000000
00000200
00000000
00000000
00000000
00000000
00000000
00000300
00000000
00000000
00000000
00000000
00000000
00000010
00000000
00000000
00001000
00000000
00000000
00000010
00000000
00000000
00001000
00000000
00000000
00000010
00000000
00000000
00010000
00000000
00000000
00000010
00000000
00000000
00010000
00000000
00000000
00001000
00000000
00000000
00000000
00000000
00000000
00010000
00000000
00000000
00000000
00000000
00000000
00100000
00000000
00000000
00000000
00000000
00000000
,
10000000
00000000
00000000
00100000
00000000
00000000
00010000
00000000
00000000
00002000
00000000
00000000
00000000
00000000
00000000
00013000
00000000
00000000
01000000
00000000
00000000
10000000
00000000
00000000
00100000
00000000
00000000
00000000
00000000
00000000
00110000
00000000
,
00000000
00000000
00000000
00000000
00000000
00000000
00000000
00000000
00001000
00000000
00000000
00000000
00000000
00000000
00010000
00000000
00000000
00000010
00000000
00000000
00010000
00000000
00000000
00000000
00000000
00000000
00001000
00000000
00000000
00000000
00000000
00000000
00000010
00000000
00000000
00000000
00000000
00000000
00000010
00000000
00000000
00000000
00000000
00000000
00000011
00000000
00000000
00000000
00000000
00000000
00000000
00000000
00000000
00000000
00000000
00000000
00000100
00000000
00000000
00000000
00000000
00000000
00001000
00000000
,
00000000
00000000
00010000
00000000
00000000
00100000
00000000
00000000
02200000
00000000
00000000
00000000
00000000
03300000
00000000
00000000
00000000
20020000
00000000
00000000
00000000
00000000
30030000
00000000
00000000
00000000
22000000
00000000
00000000
00000000
00000000
33000000
,
00000000
00000000
00000000
00000000
00000000
00000000
00000000
00000000
00000000
00000000
00000000
00000000
01000000
00000000
00000000
00000000
00000000
00000000
00010000
00000000
00000000
00000000
00000000
00000000
00001000
00000000
00000000
00010000
00000000
00000000
00001000
00000000
00000000
00010000
00000000
00000000
00000100
00000000
00000000
00010000
00000000
00000000
00000100
00000000
00000000
00010000
00000000
00000000
00001000
00000000
00000000
00000000
00000000
00000000
00000000
00000000
00000000
00000000
00000000
00000000
00000000
00000000
00000000
00000000
,
00011000
00000000
00000000
00000000
00001000
00000000
00000100
00000000
00000001
00000000
00002000
00000010
00000000
00000000
00003001
00000000
,
00000100
00000000
00001000
00000000
00010000
00000000
00100000
01000000
00100000
10000000
00000000
01000000
00100000
00000000
00020000
00000000
,
10030000
00000000
00000000
00000000
00100000
00000000
00000000
00000000
10000000
00000000
00000000
00000000
00010000
00000000
00000000
00000000
00100000
00000000
00000000
00000000
01000000
00000000
00000000
00000000
10000000
00000000
00000000
00000000
00000000
00000000
00010000
00000000
00000000
01000000
00000000
00000000
00100000
00000000
00000000
00000000
00000000
00000000
00010000
00000000
00000000
00000000
00000000
00000000
,
00001000
00000000
00000100
00000010
00001000
00000000
00000100
00000000
00000001
00000000
00000000
00000000
00001100
00000000
00000000
00000000
,
00000001
00000100
00000010
00000100
00000001
00000010
00001000
00010000
,
00011000
00000000
00011000
00000000
00000000
00000000
00110000
00000000
01000000
00000000
10000000
00010000
10000000
00000000
01000000
00000000
,
01000000
00000000
00010000
00000000
00010000
00000000
00001000
00000000
00001000
00000000
00000010
00000100
00000010
00000100
00000010
00000100
,
00000010
00000002
00002000
00000000
00000003
00000000
00003010
00000000
00000100
00000000
00000202
00000303
00001010
00000000
00001000
00000001
,
00000000
00001000
00000010
00000000
00000100
00000000
00001000
00000000
00010000
00000000
00100000
00000000
10000000
00000000
00010000
00000000
,
00100000
00000000
00010000
00000000
10000000
00000000
01000000
00000000
00100000
00000000
01000000
00000000
00010000
00000000
00001000
00010000
,
00001000
00000000
00000010
00000100
00000010
00000000
00000002
00000000
00000103
00000000
00002000
00000000
00003100
00000000
00000002
00000000
,
00000013
00000000
00001000
00000000
00011000
00000000
00020000
00000000
00100000
00000000
00000000
00000000
00031000
00000000
01000000
00010000
,
00000000
10000000
00100000
00000000
01000000
00000000
00020000
00000000
00031000
00000000
00000010
00000000
00000100
00000000
00000001
00000000
,
00001000
00000000
00000100
00000000
00000001
00000000
00000100
00000000
00001000
00000000
00000010
00000000
00001000
00000000
00010000
01000000
,
00000000
00100000
01000000
00000000
00010000
00000000
10000000
00000000
11000000
00000000
00000000
01000000
00010000
00000000
00011000
00000000
,
00000000
00000000
00001000
00000000
00010000
00000100
00020000
00030000
00011000
00000000
00000000
00001100
00000000
00000000
00000110
00000000
,
00000001
00000000
00000010
00000000
00000100
00000000
00000010
00000000
00001000
00000000
00010000
00000100
00000000
00010000
00001000
00000000
,
00010000
00000000
00100000
00000000
10000000
00000000
00100000
01000000
10000000
00000000
01000000
00000000
00010000
00000000
00000000
00101000
,
00000000
00000000
00011000
00000000
00000000
00000000
00010010
00000000
00000000
00000000
00001000
00000001
00001000
00000000
00000100
00000000
,
00000010
00000000
00002010
00000000
00000000
00000000
00000000
00000000
00013000
00000000
01000000
10000000
00020000
00000000
00000000
00000000
,
01030000
00000000
00100000
10000000
00010000
00000000
10000000
00000000
01000000
00100000
00000000
01000000
00100000
00000000
00010000
00000000
,
00001000
00000010
00000100
00000001
00000100
00001000
00000001
00000010
,
00001000
00000000
00010000
00000000
01000000
00000000
10000000
00000000
00010000
00000000
00100000
00000000
10000000
01000000
10000000
01000000
,
00100000
00010000
00100000
00010000
10000000
00000000
00000000
00000000
01000000
00000000
01010000
00000000
00000000
00000000
00001000
00000000
,
00011000
00000000
00000000
00000000
00010000
00000000
00010010
00000000
00000000
00000000
00000010
00001000
00000001
00000000
00002002
00000000
,
00000000
00000000
00003003
00000000
00000101
00000000
00000000
00000001
00000000
00000000
00000010
00000000
00000000
00000010
00000000
00000000
,
00001000
00000000
00010000
00000000
00100000
00000000
00000000
00100000
00000000
00000000
10000000
00000000
00100000
01000000
00100000
10000000
,
00010000
00000000
00100000
01000000
10000000
00000000
20020000
00000000
00000000
00000000
00000000
00000000
00000000
00000000
30030000
00000000
00000000
00000000
00000000
00000000
00000000
00000000
00000000
00000000
00000000
00000000
00000000
00000000
00000000
00000000
00000000
00000000
;

//---------------dance-double - ----------------
#NOTES:
     dance-double:
     :
     Medium:
     8:
     0.507813,0.595081,0.226293,0.612878,0.669451,377.000000,353.000000,24.000000,65.000000,0.000000,0.000000,0.507813,0.595081,0.226293,0.612878,0.669451,377.000000,353.000000,24.000000,65.000000,0.000000,0.000000:
00000000
00000000
00000000
00000000
,
00000000
00000000
00000000
00000000
,
00000000
00000000
00000000
00000000
,
00000000
00000000
00000000
00000000
00000000
00000000
00000000
00000000
00000000
00000000
00000000
00000000
00000000
00000000
00000000
10000000
,
02000000
00000000
03100000
00020000
00000000
02030000
00000000
03200000
00000000
00000000
00000000
00300000
00010000
00002000
00000000
00013000
,
00000020
00000000
00000000
00000000
00000130
00000000
00000001
00002000
00000000
00000000
00000000
00003200
00000000
00000320
00000000
00000000
,
00002030
00000000
00000000
00000000
00013000
00000000
00100000
20000000
00000000
00000000
00000000
00000000
30010000
02000000
00000000
00000000
,
03200000
00000000
00000000
00000000
20300000
00000000
00000000
00000000
32000000
00000000
00000000
03010000
00001000
00000000
00000000
00000000
,
00022000
00000000
00000000
00033000
,
00000100
00000000
00000000
00000100
00000000
00000000
00000001
00000000
00000000
00000010
00000000
00000000
00000100
00000000
00001000
00000000
,
00010000
00000000
00000000
00010000
00000000
00000000
01000000
00000000
00000000
01000000
00000000
00000000
00100000
00000000
10000000
00000000
,
00010000
00000000
00000000
00010000
00000000
00000000
00100000
00000000
00000000
01000000
00000000
01000000
00010000
00000000
00011000
00000000
,
00002100
00000000
00000000
00000000
00000000
00000000
00000001
00000000
00000000
00000000
00000000
00000000
00000001
00000000
00000000
00000000
00000000
00000000
00000001
00000000
00000000
00000000
00000000
00000000
00003001
00000000
00000000
00000100
00000000
00000000
00000010
00000000
,
00000000
00001000
00000000
00000000
00000100
00000000
00000000
00010000
00000000
00000000
00001000
00000000
00000000
00100000
00000000
00000000
00020000
00000000
00000000
00000000
00000000
00000000
10000000
00000000
00000000
00000000
00000000
00000000
10000000
00000000
00000000
00000000
,
00000000
00000000
00000000
00000000
10030000
00000000
00000000
00000000
00000000
00000000
00000000
00000000
00000000
01000000
00000000
00000000
00100000
00000000
00000000
00000000
00000000
00000000
00000000
00000000
00000000
00100000
00000000
00000000
00000000
00000000
00000000
00000000
00000000
00000000
00100000
00000000
00000000
00000000
00000000
00000000
00001000
00000000
00000000
00000000
00000000
00000000
00010000
00000000
00000000
00000000
00000000
00000000
00001000
00000000
00000000
00000000
00000000
00000000
01000000
00000000
00000000
00000000
00000000
00000000
,
00001000
00000000
00000000
00000100
00000000
00000000
00000010
00000000
00000000
00000100
00000000
00000000
00000001
00000000
00000000
00000100
00000000
00000000
00000010
00000000
00000000
00001000
00000000
00000000
00010000
00000000
00000000
00100000
00000000
00000000
01000000
00000000
,
00000000
00100000
00000000
00000000
10000000
00000000
00000000
00100000
00000000
00000000
00010000
00000000
00000000
10000000
00000000
00000000
01000000
00000000
00000000
00010000
00000000
00000000
00001000
00000000
00000000
00000010
00000000
00000000
00000001
00000000
00000000
00000100
,
00000000
00000000
00000010
00000000
00000000
00002000
00000000
00000000
00000002
00000000
00000000
00000000
00000000
00000000
00000000
00000000
00000000
00000000
00000000
00000000
00003003
00000000
00000000
00000000
00002001
00000000
00000000
00000000
00000000
00000000
00000100
00000000
,
00000000
00000000
00000000
00000000
00003002
00000000
00000000
00000000
00000000
00000000
00000103
00000000
00000000
00000020
00000000
00000000
00000000
00000000
00000000
00000130
00000000
00000000
00001000
00000000
00000000
00010000
00000000
00000000
01000000
00000000
00000000
00100000
,
00000000
00000000
01000000
00000000
00000000
10000000
00000000
00000000
00100000
00000000
00000000
01000000
00000000
00000000
02000000
00000000
00000000
00010000
00000000
00000000
03020000
00000000
00000000
10000000
00000000
00000000
10030000
00000000
00000000
01000000
00000000
00000000
,
00100000
00000000
00000000
01000000
00000000
00000000
00010000
00000000
00000000
00002000
00000000
00000000
00000000
00000000
00000000
00003100
00000000
00000000
00000010
00000000
00000000
00000100
00000000
00000000
00000001
00000000
00000000
00000000
00000000
00000000
00000011
00000000
,
00000000
00000000
00000000
00000000
00000010
00000000
00000000
00000001
00000000
00000000
00001000
00000000
00000000
00000010
00000000
00000000
00000000
00000000
00000000
00000000
00000000
00000000
00000110
00000000
00000000
00000000
00000000
00000000
00000000
00000000
00000000
00001100
,
00000000
00000000
00000000
00000000
00000000
00000000
00000000
00000000
00012000
00000000
00000000
00000000
00000000
00000000
01000000
00000000
00000000
00000000
00000000
00000000
00013000
00000000
00000000
00100000
00000000
00000000
10000000
00000000
00000000
00200000
00000000
00000000
,
00000000
00000000
00000000
00000000
00000000
00000000
00310000
00000000
00000000
00002000
00000000
00000000
00000000
00000000
00000000
00013000
00000000
00000000
01000000
00000000
00000000
00000000
00000000
00000000
20010000
00000000
00000000
00000000
00000000
00000000
01000000
00000000
,
00000000
00000000
00000000
00000000
30010000
00000000
00000000
00000000
00000000
00000000
00010000
00000000
00000000
01000000
00000000
00000000
00100000
00000000
00000000
00000000
00000000
00000000
00100000
00000000
00000000
00010000
00000000
00000000
00001000
00000000
00000000
00000010
,
00000000
00000000
00000001
00000000
00000000
00001000
00000000
00000000
00000002
00000000
00000000
00000010
00000000
00000000
00000023
00000000
00000000
00000100
00000000
00000000
00000230
00000000
00000000
00001000
00000000
00000000
00001300
00000000
00000000
00010000
00000000
00000000
,
01000000
00000000
00000000
00010000
00000000
00000000
10000000
00000000
00000000
02000000
00000000
00000000
00000000
00000000
00000000
03100000
00000000
00000000
00010000
00000000
00000000
00100000
00000000
00000000
01000000
00000000
00000000
00000000
00000000
00000000
01010000
00000000
,
00000000
00000000
00000000
00000000
00010000
00000000
00000000
00001000
00000000
00000000
00000100
00000000
00000000
00000010
00000000
00000000
00000100
00000000
00000000
00000001
00000000
00000000
00001000
00000000
00000000
00000010
00000000
00000000
00000100
00000000
00000000
00001000
,
00000000
00000000
00010000
00000000
00000000
00100000
00000000
00000000
10000000
00000000
00000000
00000000
00000000
00000000
00000000
00000000
00000000
10100000
00000000
00000000
00000000
00000000
00000000
00000000
00000000
00000000
00120000
00000000
00000000
00000000
00000000
00000000
,
00000000
00000000
00000000
00000000
00000000
00000000
00031000
00000000
00000000
00000100
00000000
00000000
00000010
00000000
00000000
00000100
00000000
00000000
00000002
00000000
00000000
00001000
00000000
00000000
00001003
00000000
00000000
00000000
00000000
00000000
00000000
00000000
,
00000110
00000000
00001002
00000000
00000103
00000001
00001000
00000001
,
00001000
00000000
00000000
00000100
00000000
00000000
00000010
00000000
00000000
00001000
00000000
00000000
00010000
00000000
00000000
01000000
00000000
00000000
10000000
00000000
00000000
00000000
10000000
00000000
,
00100000
00000000
00000000
00000000
00100000
00000000
01000000
00000000
00000000
00000000
01000000
00000000
00010000
00000000
00000000
00010000
00000000
00000000
00100000
00000000
00000000
00001000
00000000
00000000
,
00010000
00000020
00000000
00000130
00000001
00001000
00001001
00000000
,
00000001
00000100
00000010
00001000
00000001
00000100
00001000
00000000
,
00010000
00001000
00000000
00100000
00010000
10000000
01000000
00100000
,
01000000
00010000
00001000
00000010
00001000
00022000
00000000
00000000
,
00000000
00000000
00033000
00000000
00000000
00000000
00001000
00000000
00000100
00000000
00000020
00000030
00001010
00000000
00000000
00001000
,
00000000
00000000
00000001
00000000
00000010
00000000
00000020
00000000
00000000
00000000
00000031
00000000
00001000
00000000
00000000
00000001
,
00000000
00000010
00001000
00010000
00200000
00000000
10300000
00010000
,
00010000
01000000
01000000
00100000
10000000
01000000
00010000
00002000
,
00000000
00000000
01003000
00000000
00010000
00000000
00200000
00000000
00001000
00000000
00000000
00000000
00310000
00000000
00000000
01000000
,
00000000
00000000
00100000
00000000
00010000
00000000
00002000
00000000
00000100
00000000
00000000
00000000
00013000
00000000
00000000
00001000
,
00000000
00000000
00000010
00000000
00000001
00000000
00000002
00000000
00000100
00000000
00000000
00000000
00001003
00000000
00000000
00000001
,
00000000
00000000
00000100
00000000
00000010
00000000
00000100
00000000
00002000
00000000
00000000
00100000
00000000
00000000
00013000
00000000
,
00001000
00000000
00020000
00000000
00000000
00000000
01030000
00000000
11000000
00000000
00000000
10000000
00000000
00000000
00100000
00000000
,
00010000
00000000
00020000
00000000
00000000
00000000
00031000
00000000
00100000
00000000
00000000
00010000
00000000
00000000
01000000
00000000
,
10000000
00000000
02000000
00000000
00000000
00000000
03010000
00000000
10000000
00000000
01000000
00000000
00020000
00000000
00000000
00032000
,
00000000
00003010
00000000
00000011
00000000
00000101
00000000
00001010
,
00000000
00001200
00000000
00000000
00000310
00000001
00002000
00000000
,
00003010
00000000
00001000
00000000
00000001
00000000
00000010
00000000
00000000
00001000
00000000
00000000
00010000
00000000
00000000
01000000
,
00000000
00100000
20000000
00000000
30100000
00020000
00100000
00000000
,
00130000
00001000
00010000
00010000
00000010
00000020
00001000
00000000
,
00001030
00000000
00001100
00000000
00000100
00010000
00000000
00010000
,
00001000
00000000
00001000
00100000
00000000
00100000
00020000
02000000
,
00000000
03030000
20020000
00000000
00000000
00000000
00000000
00000000
,
30030000
00000000
00000000
00000000
10000000
00000000
00000000
10000000
00000000
00000000
01000000
00000000
00000000
00010000
00000000
00000000
,
00001000
00000000
00000200
00000002
00000000
00000000
00000303
00000000
00000000
00000000
00000000
00000000
00000000
00000000
00000000
00000000
;

//---------------dance-double - ----------------
#NOTES:
     dance-double:
     :
     Easy:
     6:
     0.401401,0.566176,0.584591,0.575162,0.372441,298.000000,236.000000,62.000000,61.000000,0.000000,0.000000,0.401401,0.566176,0.584591,0.575162,0.372441,298.000000,236.000000,62.000000,61.000000,0.000000,0.000000:
00000000
00000000
00000000
00000000
,
00000000
00000000
00000000
00000000
,
00000000
00000000
00000000
00000000
,
00000000
00000000
00000000
00000000
,
00001001
00000000
00000000
00000001
00000000
00000100
00000000
00000020
00000000
00000000
00000000
00000000
00000000
00001030
00000000
00000000
,
00020100
00000000
00000000
00000000
00000000
00000000
00032000
00000000
00000000
00000000
00000000
00013000
00000000
01000000
00000000
00000000
,
01200000
00000000
00000000
00000000
00000000
00000000
00320000
00000000
00000000
00000000
00000000
00000000
00000000
10030000
00000000
00000000
,
01200000
00000000
00000000
00000000
20300000
00000000
00000000
00000000
32000000
00000000
00000000
03010000
00002000
00000000
00000000
00000000
,
00020000
00000000
00000000
00033000
,
00000010
00000000
00000000
00000010
00000000
00000000
00000100
00000000
00000000
00000100
00000000
00000000
00000001
00000000
00000000
00000000
,
00001000
00000000
00000000
00000100
00000000
00000000
00000010
00000000
00000000
00000010
00000000
00000000
00000010
00000000
00000000
00000000
,
00001000
00000000
00000000
00001000
00000000
00000000
00010000
00000000
00000000
00100000
00000000
00000000
10000000
00000000
00010000
00000000
,
00110000
00000000
00000000
10010000
00000000
00000000
10100000
00000000
00000000
01100000
00000000
00000000
01010000
00000000
00000000
01000000
,
00000000
00001000
00000000
00000000
00000000
00000000
00000000
00011000
00000000
00000000
00000000
00000000
00000000
00010000
00000000
00000000
00000100
00000000
00000000
00000000
00000000
00000000
00000110
00000000
00000000
00000000
00000000
00000000
00000011
00000000
00000000
00000000
,
00000000
00000000
00000000
00000000
00000110
00000000
00000000
00000000
00000000
00000000
00000000
00000000
00000000
00000000
00000000
00000000
00001001
00000000
00000000
00000000
00000000
00000000
00000000
00000000
00000000
00000000
00000000
00000001
00000000
00000000
00000000
00000000
00000000
00000000
00001000
00000000
00000000
00000000
00000000
00000000
00000000
00000000
00000000
00000000
00000000
00000000
00001001
00000000
00000000
00000000
00000000
00000000
00000000
00000000
00000000
00000000
00000000
00000000
00000000
00000000
00001000
00000000
00000000
00000000
,
00000200
00000000
00000000
00010000
00000000
00000000
00000010
00000000
00000000
00001300
00000000
00000000
00020100
00000000
00000000
00031000
,
00000000
00000000
00201000
00000000
00000000
00310000
00000000
00000000
10010000
00000000
00000000
11000000
00000000
00000000
01100000
00000000
,
00000000
11000000
00000000
00000000
10020000
00000000
00000000
00000000
00000000
00000000
01030000
00000000
10100000
00000000
00000000
00000000
,
00000000
00000000
00000000
00000000
20000000
00000000
00000000
00000000
00000000
00000000
00000000
00000000
00000000
30020000
00000000
00000000
00000000
00000000
00000000
00000000
00000000
00000000
01030000
00000000
00000000
00000000
00000000
00000000
00100000
00000000
00000000
00000000
,
00000000
00010000
00000000
00000000
00002000
00000000
00000000
00000010
00000000
00000000
00010000
00000000
00000000
00003100
00000000
00000000
,
00000001
00000000
00000000
00000000
00000000
00000000
00000001
00000000
00000000
00000100
00000000
00000000
00000000
00000000
00000000
00000100
00000000
00000000
00001000
00000000
00000000
00000000
00000000
00000000
00010000
00000000
00000000
00000000
00000000
00000000
01100000
00000000
,
00000000
00000000
00000000
00000000
10000000
00000000
00000000
00000000
00000000
00000000
00000000
00000000
00000000
10010000
00000000
00000000
00000000
00000000
00000000
00000000
00000000
00000000
01010000
00000000
00000000
00000000
00000000
00000000
00000000
00000000
00000000
10100000
,
00000000
00000000
00000000
00000000
00000000
00000000
00000000
00000000
10010000
00000000
00000000
00000000
00000000
00000000
10000000
00000000
00000000
00000000
00000000
00000000
01000000
00000000
00000000
00000000
00000000
00000000
00020000
00000000
00000000
00002000
00000000
00000000
,
00000000
00000000
00000000
00000000
00033000
00000000
00000000
00000000
00000000
00021000
00000000
00000000
00000000
00000000
00000000
00000000
00000000
00000000
00000010
00000000
00000000
00000000
00000000
00000000
00031000
00000000
00000000
00000000
00000000
00000000
00001100
00000000
,
00000000
00000000
00000000
00000000
00000202
00000000
00000000
00000000
00000000
00000000
00000303
00000000
00000000
00000001
00000000
00000000
00000010
00000000
00000000
00000000
00000000
00000000
00000100
00000000
00000000
00000000
00000000
00000000
00001000
00000000
00000000
00000000
,
00000000
00000001
00000000
00000000
00000200
00000000
00000000
00001000
00000000
00000000
00000010
00000000
00000000
00000301
00000000
00000000
,
00001000
00000000
00000000
00000000
00000000
00000000
00001000
00000000
00000000
00000100
00000000
00000000
00000000
00000000
00000000
00000100
00000000
00000000
00010000
00000000
00000000
00000000
00000000
00000000
00001000
00000000
00000000
00000000
00000000
00000000
01001000
00000000
,
00000000
00000000
00000000
00000000
02000000
00000000
00000000
00000000
00000000
00000000
00000000
00000000
00000000
03100000
00000000
00000000
00010000
00000000
00000000
00000000
00000000
00000000
00200000
00000000
00000000
00000000
00000000
00000000
10300000
00000000
00000000
00010000
,
00000000
00000000
10000000
00000000
00000000
00000000
00000000
00000000
22000000
00000000
00000000
00000000
00000000
00000000
33000000
00000000
00000000
00220000
00000000
00000000
00000000
00000000
00000000
00330000
00000000
00000000
00022000
00000000
00000000
00000000
00000000
00000000
,
00000000
00000000
00000000
00000000
00000000
00000000
00000000
00000000
00000000
00030000
00000000
00000000
00003010
00000000
00000000
00000000
,
00000011
00000000
00000002
00000000
00000000
00002003
00000000
00000000
,
00003010
00000100
00000001
00000010
,
00002000
00010000
00000100
00013000
,
00010000
00001000
00000000
00001000
00100000
00000000
02100000
00000000
,
10000000
00000000
10000000
00000000
13000000
00010000
01000000
00000000
,
01000000
00100000
00000000
00100000
00000000
00010000
00001000
00000000
,
00001010
00000000
00000110
00000000
00000200
00000020
00000300
00000000
,
00000000
00000000
00000002
00000000
00000000
00000000
00000000
00000000
00000000
00000000
00000033
00000000
00001001
00000000
00000000
00001000
,
00000000
00000000
00000100
00000000
00000000
00000000
00000021
00000000
00000000
00000000
00000000
00000000
00000130
00000000
00000000
00001000
,
00000000
00000001
00000200
00000000
00001300
00000000
00010000
00000000
,
00100000
00000000
10000000
01000000
00200000
00000000
01300000
10000000
,
00000000
00000000
00100000
00000000
00000000
00000000
00120000
00000000
00000000
00000000
00000000
00000000
00031000
00000000
00000000
00000100
,
00000000
00000000
00000001
00000000
00000000
00000000
00000201
00000000
00000000
00000000
00000000
00000000
00000310
00000000
00000000
00001000
,
00000000
00000001
00000010
00000200
00001000
00000000
00010000
00000000
,
00001300
00000000
00000000
00000010
00000000
00000000
00010000
00000000
00001000
00000000
00000000
00010000
00000000
00000000
00100000
00000000
,
00000000
00000000
01200000
00000000
00000000
00000000
10300000
00000000
10010000
00000000
00000000
00010000
00000000
00000000
01000000
00000000
,
00000000
00000000
10200000
00000000
00000000
00000000
00000000
00000000
01300000
00000000
00000000
00010000
00000000
00000000
00100000
00000000
,
00001000
00000000
00020000
00000000
00000000
00000000
00000000
00000000
00030100
00000000
00001000
00000000
00000001
00000000
00000000
00001000
,
00000000
00001010
00000000
00000011
00000000
00000101
00000000
00001100
,
00000000
00021000
00000000
00000000
00031000
00000000
00200000
00000000
,
00310000
00000000
00000000
00000000
01000000
00000000
00100000
00000000
00000000
10000000
00000000
00000000
01000000
00000000
00000000
00010000
,
00000000
00001000
00000020
00000000
00000031
00000200
00000000
00000000
,
00001300
00010000
00000100
00000000
00001100
00000000
00000101
00000000
,
00000011
00000000
00002020
00000000
00003030
02020000
00000000
03030000
,
00220000
00000000
00330000
20200000
00000000
30300000
10010000
00000000
,
01100000
20020000
00000000
00000000
,
00000000
00000000
00000000
00000000
,
30030000
00000000
00000000
01100000
00000000
00000000
00000000
00000000
00000000
00000000
00000000
00000000
00000000
00000000
00000000
00000000
;

//---------------dance-single - ----------------
#NOTES:
     dance-single:
     :
     Beginner:
     2:
     0.098330,0.161941,0.037716,0.066002,0.000000,73.000000,69.000000,4.000000,7.000000,0.000000,0.000000,0.098330,0.161941,0.037716,0.066002,0.000000,73.000000,69.000000,4.000000,7.000000,0.000000,0.000000:
// measure 0
0000
0000
0000
0000
,  // measure 1
0000
0000
0000
0000
,  // measure 2
0000
0000
0000
0000
,  // measure 3
0000
0000
0000
0000
,  // measure 4
0010
0000
0000
0000
,  // measure 5
0010
0000
0000
0000
,  // measure 6
0010
0000
0000
0000
,  // measure 7
0010
1000
0001
0010
,  // measure 8
0200
0000
0000
0000
,  // measure 9
0000
0000
0000
0000
,  // measure 10
2000
0000
0000
0000
,  // measure 11
0000
0000
0000
3300
,  // measure 12
0001
0000
0000
0001
0000
0000
0001
0000
,  // measure 13
0000
0000
0000
0000
1000
0000
0000
1000
,  // measure 14
0000
1000
0000
0000
,  // measure 15
0010
0000
0000
0010
,  // measure 16
0000
0000
0020
0000
,  // measure 17
0000
0130
0000
1001
,  // measure 18
0000
1000
0000
0000
0100
0000
0000
1000
,  // measure 19
0000
0000
0000
0000
0000
0001
0000
0000
,  // measure 20
0100
0000
0000
0001
0000
0000
0000
0000
,  // measure 21
0000
1000
0000
0000
0010
0000
0000
1000
,  // measure 22
0000
0000
0000
0000
,  // measure 23
1001
0000
0000
0000
,  // measure 24
0000
0001
0000
0000
0100
0000
0000
0001
,  // measure 25
0000
0000
0000
0000
0000
1000
0000
0000
,  // measure 26
0100
0000
0000
1000
0000
0000
0000
0000
,  // measure 27
0000
0010
0000
0000
0000
0000
0000
0010
,  // measure 28
0000
2002
0000
0000
,  // measure 29
0000
0000
3003
0000
,  // measure 30
0010
0000
0010
0000
,  // measure 31
0010
0000
0000
0000
,  // measure 32
0100
0000
0100
0000
,  // measure 33
0100
0000
0000
0000
,  // measure 34
0001
0000
0001
0000
,  // measure 35
0001
0000
0000
0000
,  // measure 36
1000
0000
1000
0000
,  // measure 37
1000
0000
0000
0010
,  // measure 38
0000
0000
0000
0010
,  // measure 39
0000
0000
0000
1000
,  // measure 40
0000
0000
0000
1000
,  // measure 41
0000
0000
0000
0001
,  // measure 42
0000
0000
0000
0001
,  // measure 43
0000
0000
0000
0010
,  // measure 44
0000
0000
0000
0010
,  // measure 45
0000
0000
0001
0000
,  // measure 46
0000
0000
0001
0000
,  // measure 47
0000
0000
0100
0000
,  // measure 48
0000
0000
0100
0000
,  // measure 49
0000
0000
1000
0000
,  // measure 50
0000
0000
1000
0000
,  // measure 51
0000
0000
0010
0000
,  // measure 52
0000
0000
0010
0000
,  // measure 53
0000
0000
0001
0000
,  // measure 54
0000
0000
0000
0000
,  // measure 55
0000
2002
0000
0000
,  // measure 56
0000
0000
0000
0000
,  // measure 57
0000
3003
0000
0000
;
