#TITLE:Todestrieb;
#SUBTITLE:;
#ARTIST:Rche;
#TITLETRANSLIT:;
#SUBTITLETRANSLIT:;
#ARTISTTRANSLIT:;
#GENRE:;
#CREDIT:;
#BANNER:Todestrieb.png;
#BACKGROUND:Todestrieb-bg.png;
#LYRICSPATH:;
#CDTITLE:;
#MUSIC:Todestrieb.ogg;
#OFFSET:0.910297;
#SAMPLESTART:41.901001;
#SAMPLELENGTH:15.000000;
#SELECTABLE:YES;
#BPMS:0.000000=185.000000
;
#STOPS:
;
#BGCHANGES:;
#KEYSOUNDS:;
#ATTACKS:;

//---------------dance-single - InklingBear----------------
#NOTES:
     dance-single:
     InklingBear:
     Beginner:
     2:
     0.149559,0.261343,0.038489,0.130864,0.000000,136.000000,131.000000,5.000000,17.000000,0.000000,0.000000,0.149559,0.261343,0.038489,0.130864,0.000000,136.000000,131.000000,5.000000,17.000000,0.000000,0.000000:
0000
0000
0000
0000
,
0000
0000
0000
0000
,
0000
0000
0000
0000
,
0000
0000
0000
0000
,
0000
0000
0000
0000
,
0000
0000
0000
0000
,
0000
0000
0000
0000
,
0000
0000
0000
0000
,
0000
0000
0000
0000
,
1000
0000
0000
0000
,
0010
0000
0000
0000
,
0100
0000
0000
0000
,
0001
0000
0000
0000
,
0010
0000
0000
0000
,
0100
0000
0000
0000
,
1000
0000
0000
0000
,
0001
0000
0000
0000
,
0100
0000
0000
0000
,
0100
0000
0000
0000
,
0010
0000
0000
0000
,
0010
0000
0000
0000
,
1000
0000
0000
0000
,
1000
0000
0000
0000
,
0001
0000
0000
0000
,
0001
0000
0000
0000
,
2002
0000
0000
0000
,
3003
0000
0000
0000
,
0020
0000
0030
0000
,
0200
0000
0300
0000
,
0002
0000
0000
0000
,
0003
0000
0000
0000
,
2000
0000
0000
0000
,
3000
0000
0000
0000
,
0001
0000
1000
0000
,
0001
0000
0001
0000
,
0100
0000
0010
0000
,
0100
0000
0100
0000
,
0010
0000
1000
0000
,
0010
0000
0010
0000
,
1000
0000
0001
0000
,
1000
0000
1000
0000
,
1001
0000
0100
0000
,
0010
0000
0010
0000
,
0100
0000
1000
0000
,
0001
0000
0001
0000
,
0100
0000
0010
0000
,
1000
0000
1000
0000
,
0001
0000
0100
0000
,
0010
0000
0010
0000
,
2002
0000
3003
0000
,
0020
0000
0030
0000
,
0200
0000
0300
0000
,
0002
0000
0003
0000
,
0020
0000
0030
0000
,
0200
0000
0300
0000
,
2000
0000
3000
0000
,
0002
0000
0003
0000
,
0000
1000
1000
0000
,
0000
0010
0010
0000
,
0000
0100
0100
0000
,
0000
0001
0001
0000
,
0000
0010
0010
0000
,
0000
0100
0100
0000
,
0000
1000
1000
0000
,
0000
0001
0001
0000
,
1001
0000
0100
0000
,
0001
0001
0001
0000
,
0010
0000
0100
0000
,
1000
1000
1000
0000
,
0010
0000
0100
0000
,
0010
0010
0010
0000
,
1000
0000
0001
0000
,
0100
0100
0100
0000
,
0010
0000
1000
0000
,
0010
0000
0010
0000
,
0100
0000
0001
0000
,
0100
0000
0100
0000
,
0001
0000
0010
0000
,
0100
0000
1000
0000
,
0010
0000
0100
0000
,
0001
0000
1000
0000
,
0010
0000
0100
0000
,
0001
0000
0001
0000
,
1000
0000
0100
0000
,
1000
0000
1000
0000
,
0010
0000
0100
0000
,
0001
0000
0001
0000
,
1000
0000
0010
0000
,
0100
0100
0100
0000
,
2002
0000
0000
0000
,
0000
0000
0000
0000
,
0000
0000
0000
0000
,
0000
0000
0000
0000
,
0000
0000
0000
0000
,
0000
0000
0000
0000
,
0000
0000
0000
0000
,
0000
0000
0000
0000
,
3003
0000
0000
0000
;

//---------------dance-single - InklingBear----------------
#NOTES:
     dance-single:
     InklingBear:
     Easy:
     5:
     0.325510,0.522686,0.338706,0.238634,0.000000,296.000000,252.000000,44.000000,31.000000,0.000000,0.000000,0.325510,0.522686,0.338706,0.238634,0.000000,296.000000,252.000000,44.000000,31.000000,0.000000,0.000000:
0000
0000
0000
0000
,
0000
0000
0000
0000
,
0000
0000
0000
0000
,
0000
0000
0000
0000
,
0000
0000
0000
0000
,
0000
0000
0000
0000
,
0000
0000
0000
0000
,
0000
0000
0000
0000
,
0000
0000
0000
0000
,
1000
0000
0000
1000
0000
0000
0010
0000
,
0000
0010
0000
0000
0100
0000
0001
0000
,
0010
0000
0000
0010
0000
0000
0100
0000
,
0000
0100
0000
0000
1000
0000
0001
0000
,
0100
0000
0000
0100
0000
0000
0001
0000
,
0000
0001
0000
0000
1000
0000
0010
0000
,
0100
0000
0000
0100
0000
0000
0010
0000
,
0000
0010
0000
0000
1000
0000
0001
0000
,
1000
0100
1000
0100
,
1000
0010
1000
0010
,
0100
0001
0100
0001
,
0010
0001
0010
0001
,
0100
0010
0100
0010
,
1000
0001
1000
0001
,
0100
0010
1000
0001
,
0011
0100
1100
0010
,
2002
0000
3003
0000
,
0020
0000
0030
0000
,
0200
0000
0300
0000
,
0002
0000
2003
0000
,
3200
0000
0300
0000
,
0020
0000
0030
0000
,
0002
0000
0003
0000
,
1000
0001
1000
1001
,
0010
1000
0100
0100
,
1100
0001
0101
0000
,
0010
1000
0001
0001
,
0011
1000
1010
0000
,
0010
0100
0001
0001
,
0101
0010
1010
0000
,
0010
1000
0100
0100
,
1100
0010
0011
0000
,
0001
1000
0010
0100
,
0101
0010
0101
0000
,
0010
1000
0100
0010
,
1100
0010
1100
0000
,
0010
1000
0001
0100
,
1001
0010
1001
0000
,
0001
1000
0010
0100
,
0110
0001
0110
1000
,
2001
0000
0000
0000
,
3200
0000
0000
0000
,
0320
0000
0032
0000
,
0023
0000
0000
0000
,
0230
0000
0000
0000
,
2300
0000
3020
0000
,
2030
0000
3002
0000
,
0200
0000
0000
0000
,
0303
0010
0100
1000
,
0000
0010
0100
0001
,
0000
0010
0001
1000
,
0000
0010
1000
0100
,
0000
1000
0001
0100
,
0000
0001
0010
0100
,
0000
1000
0001
0100
,
0000
0010
1000
0001
,
0100
0010
0110
0110
,
1000
0001
1001
1001
,
0001
0010
0110
0110
,
0100
1000
0001
0000
,
0100
0001
0101
0101
,
0010
1000
1100
1100
,
1000
0001
1001
1001
,
0010
0100
0001
0000
,
0010
0001
0100
0100
,
0020
0000
1030
0000
,
0010
0100
0001
0001
,
2000
0000
3100
0000
,
0010
0001
0100
0100
,
0002
0000
0013
0000
,
0100
1000
0010
0100
,
0001
1000
1001
0000
,
1000
0010
0100
0001
,
0101
1000
1100
0000
,
0010
0001
0100
0010
,
1010
0001
0011
0000
,
0010
0100
1000
0010
,
0110
0001
1001
0000
,
0010
1000
0001
0100
,
0110
0110
1001
1001
,
0200
0000
0000
0000
,
0320
0000
0000
0000
,
2030
0000
0000
0000
,
3002
0000
0000
0000
,
0023
0000
0000
0000
,
0230
0000
0000
0000
,
2300
0000
0000
0000
,
3002
0000
0000
0000
,
0003
0000
0000
0000
;

//---------------dance-single - InklingBear----------------
#NOTES:
     dance-single:
     InklingBear:
     Medium:
     7:
     0.436579,0.560020,0.300217,0.207843,0.000000,397.000000,358.000000,39.000000,27.000000,0.000000,0.000000,0.436579,0.560020,0.300217,0.207843,0.000000,397.000000,358.000000,39.000000,27.000000,0.000000,0.000000:
0000
0000
0000
0000
,
0000
0000
0000
0000
,
0000
0000
0000
0000
,
0000
0000
0000
0000
,
0000
0000
0000
0000
,
0000
0000
0000
0000
,
0000
0000
0000
0000
,
0000
0000
0000
0000
,
0000
0000
0000
0000
,
0010
0000
1000
0100
0000
0001
0100
0000
,
1000
0100
0000
0001
0100
0000
1000
0000
,
0010
0000
0100
0001
0000
0010
0001
0000
,
0100
0001
0000
0010
0001
0000
0100
0000
,
0010
0000
1000
0010
0000
0001
0010
0000
,
1000
0010
0000
0001
0010
0000
1000
0000
,
0100
0000
0010
0001
0000
0100
0010
0000
,
1000
0100
0000
0010
0001
0000
0100
0000
,
0010
0000
0100
0010
0100
0001
1000
0000
,
0100
1000
0000
0001
0100
0000
0010
0000
,
0100
0000
0001
0010
0001
1000
0100
0000
,
1000
0010
0000
0100
0010
0000
1000
0000
,
0100
0000
1000
0100
1000
0001
1000
0000
,
0010
0100
0000
0001
0100
0000
0010
0000
,
1000
0000
0001
0100
0010
0100
0001
0000
,
0101
1001
1100
1001
,
0020
0000
0000
0000
,
0230
0000
0000
0000
,
0302
0000
0000
0000
,
2003
0000
3200
0000
,
2300
0000
0000
0000
,
3020
0000
0000
0000
,
0230
0000
0000
0000
,
0310
0000
1001
0000
0100
0001
1000
0000
,
0100
1000
0010
0000
0100
0000
1001
0000
,
0001
0010
0100
0000
0010
0000
0011
0000
,
0001
0100
0010
0000
1000
0000
0101
0000
,
0001
1000
0100
0000
0110
0000
1001
0000
,
0010
1000
0001
0000
0100
0000
1010
0000
,
0010
0100
0001
0000
1000
0000
1100
0000
,
0010
0001
0100
0000
0010
0000
0101
0000
,
0001
1000
0100
0000
0110
0000
1001
0000
,
0001
0100
0010
0000
1000
0000
1001
0000
,
0001
0010
0100
0000
1000
0000
1001
0000
,
0001
1000
0010
0000
0100
0000
1001
0000
,
0001
0100
0010
0000
0101
0000
1001
0000
,
0010
0100
0001
0000
1000
0000
1100
0000
,
1000
0010
0100
0000
0010
0000
1001
0000
,
0001
0010
0100
0000
0010
0000
0100
0000
,
0110
0000
1001
0000
0010
1000
0010
0100
,
1002
0000
0000
0000
,
0203
0000
0000
0000
,
0320
0000
2030
0000
,
3020
0000
0000
0000
,
0230
0000
0000
0000
,
0302
0000
0023
0000
,
0230
0000
2300
0000
,
0002
0000
0000
0000
,
3003
0000
1000
0001
0100
0000
0010
0000
,
0000
0000
0100
0001
1000
0000
0010
0000
,
0000
0000
1000
0100
0010
0000
0001
0000
,
0000
0000
0001
0100
0010
0000
1000
0000
,
0000
0000
0100
1000
0001
0000
0100
0000
,
0000
0000
0001
1000
0010
0000
0100
0000
,
0000
0000
0001
0010
0100
0000
1000
0000
,
0000
0000
0010
0100
0001
0000
1000
0000
,
0001
0000
0100
0000
0010
1000
0010
1000
,
0010
0000
0100
0000
0001
0010
0001
0010
,
0001
0000
0100
0000
0010
0100
0010
0100
,
0010
0000
1000
0000
0001
0010
0100
0000
,
1000
0000
0010
0000
0100
0001
0100
0001
,
1000
0000
0100
0000
1000
0010
1000
0010
,
0100
0000
0001
0000
0010
0001
0010
0001
,
0100
0000
0010
0000
1000
0001
0100
0000
,
0010
0000
0100
0000
0001
1000
0001
1000
,
0100
0000
1000
0000
0010
0100
0010
0100
,
0001
0000
0010
0000
0001
1000
0001
1000
,
0010
0000
0100
0000
0001
1000
0010
0000
,
0100
0000
0010
0000
1000
0010
1000
0010
,
0100
0000
0001
0000
0010
0001
0010
0001
,
0100
0000
0010
0000
1000
0001
1000
0001
,
0100
0101
1100
1001
,
0010
0001
1000
0000
0010
0000
1001
0000
,
1000
0001
0010
0000
0100
0000
1100
0000
,
1000
0010
0100
0000
0001
0000
1010
0000
,
0100
0001
1000
0000
0110
0000
1001
0000
,
0010
1000
0100
0000
0010
0000
0011
0000
,
0100
0010
1000
0000
0001
0000
1001
0000
,
0100
1000
0010
0000
0100
0000
0010
0000
,
1010
0101
0110
1001
,
0200
0000
0000
0000
,
0320
0000
0000
0000
,
0032
0000
0000
0000
,
2003
0000
0000
0000
,
3020
0000
0000
0000
,
0230
0000
0000
0000
,
0302
0000
0000
0000
,
2000
0000
0000
0000
,
3003
0000
0000
0000
;

//---------------dance-single - InklingBear----------------
#NOTES:
     dance-single:
     InklingBear:
     Hard:
     9:
     0.566344,0.672024,0.384894,0.207843,0.177051,515.000000,465.000000,50.000000,27.000000,0.000000,0.000000,0.566344,0.672024,0.384894,0.207843,0.177051,515.000000,465.000000,50.000000,27.000000,0.000000,0.000000:
// measure 0
0000
0000
0000
0000
,  // measure 1
0000
0000
0000
0000
,  // measure 2
0000
0000
0000
0000
,  // measure 3
0000
0000
0000
0000
,  // measure 4
0000
0000
0000
0000
,  // measure 5
0000
0000
0000
0000
,  // measure 6
0000
0000
0000
0000
,  // measure 7
0000
0000
0000
0000
,  // measure 8
0000
0000
0000
0000
,  // measure 9
1000
0100
0010
0100
0010
0001
0010
0001
,  // measure 10
0100
0001
0100
0010
1000
0010
0100
0001
,  // measure 11
0010
0001
0100
0001
0100
0010
0100
0010
,  // measure 12
1000
0010
1000
0100
1000
0010
0100
0001
,  // measure 13
1000
0001
0100
0001
0100
0010
0100
0010
,  // measure 14
1000
0010
1000
0100
0010
0001
1000
0100
,  // measure 15
0010
0001
1000
0001
1000
0010
1000
0010
,  // measure 16
0100
0010
0100
0001
0010
0100
1000
0010
,  // measure 17
0100
0000
0101
1000
0100
1000
0100
0000
,  // measure 18
0010
0000
1100
0001
0100
0001
0100
0000
,  // measure 19
0010
0000
1001
0100
0010
0100
0010
0000
,  // measure 20
0001
0000
0110
1000
0001
1000
0001
0000
,  // measure 21
0100
0000
1010
0100
0001
0100
0001
0000
,  // measure 22
0010
0000
0011
0100
1000
0100
1000
0000
,  // measure 23
0010
0000
0101
1000
0100
1000
0100
0000
,  // measure 24
0011
0000
1100
0000
0010
0100
0001
0000
,  // measure 25
2001
0000
0000
0000
,  // measure 26
3020
0000
0000
0000
,  // measure 27
0230
0000
0000
0000
,  // measure 28
0302
0000
2003
0000
,  // measure 29
3200
0000
0000
0000
,  // measure 30
0320
0000
0000
0000
,  // measure 31
0230
0000
0000
0300
,  // measure 32
0110
0000
1001
0000
0010
0100
1001
0000
,  // measure 33
1000
0000
0100
0000
0010
0000
0100
0000
1000
0000
0000
0100
0000
0000
1100
0000
,  // measure 34
1000
0000
0001
0000
0100
0000
0010
0000
0100
0000
0000
0001
0000
0000
0101
0000
,  // measure 35
0010
0000
1000
0000
0001
0000
0100
0000
0010
0000
0000
0100
0000
0000
0110
0000
,  // measure 36
0100
0000
0001
0000
0010
0000
0100
0000
1000
0000
0000
0001
0000
0000
1001
0000
,  // measure 37
0001
0000
0100
0000
0010
0000
0100
0000
0001
0000
0000
0010
0000
0000
0011
0000
,  // measure 38
0001
0000
1000
0000
0010
0000
0100
0000
0010
0000
0000
1000
0000
0000
1010
0000
,  // measure 39
0100
0000
0001
0000
1000
0000
0010
0000
0100
0000
0000
0010
0000
0000
0110
0000
,  // measure 40
0010
0000
0100
0000
0001
0000
0010
0000
0100
0000
0000
0010
0000
0000
1001
0000
,  // measure 41
1000
0000
0100
0000
0001
0000
0100
0000
1000
0000
0000
0001
0000
0000
1100
0000
,  // measure 42
0001
0000
0010
0000
1000
0000
0010
0000
0001
0000
0000
1000
0000
0000
0011
0000
,  // measure 43
0100
0000
1000
0000
0100
0000
0001
0000
0010
0000
0000
0100
0000
0000
1100
0000
,  // measure 44
0001
0000
0100
0000
1000
0000
0100
0000
0001
0000
0000
1000
0000
0000
0110
0000
,  // measure 45
0001
0000
0010
0000
1000
0000
0010
0000
0001
0000
0000
1000
0000
0000
0011
0000
,  // measure 46
1000
0000
0100
0000
0001
0000
0100
0000
1000
0000
0000
0001
0000
0000
1100
0000
,  // measure 47
0010
0000
0001
0000
0010
0000
1000
0000
0100
0000
0000
0010
0000
0000
0110
0000
,  // measure 48
0001
0000
0010
0000
0001
0000
1000
0000
0100
0000
1000
0001
0000
0000
0100
0000
,  // measure 49
0120
0000
0000
0000
,  // measure 50
2030
0000
0000
0000
,  // measure 51
3002
0000
0023
0000
,  // measure 52
0032
0000
0000
0000
,  // measure 53
2003
0000
0000
0000
,  // measure 54
3020
0000
0230
0000
,  // measure 55
0302
0000
2003
0000
,  // measure 56
0200
0000
0000
0000
,  // measure 57
3300
0000
0000
1000
0100
1000
0001
0000
0000
1001
0000
0000
,  // measure 58
0000
0000
0000
0001
0100
0001
1000
0000
0000
1001
0000
0000
,  // measure 59
0000
0000
0000
1000
0010
1000
0001
0000
0000
1001
0000
0000
,  // measure 60
0000
0000
0000
0001
0010
0001
1000
0000
0000
1001
0000
0000
,  // measure 61
0000
0000
0000
1000
0010
0100
0001
0000
0000
0101
0000
0000
,  // measure 62
0000
0000
0000
0001
0010
0100
1000
0000
0000
1100
0000
0000
,  // measure 63
0000
0000
0000
0010
0100
0001
1000
0000
0000
0110
0000
0000
,  // measure 64
0000
0000
0000
0100
1000
0001
0010
0000
0000
1001
0000
0000
,  // measure 65
0100
1000
0010
0100
0010
1000
0100
0000
,  // measure 66
0010
0001
0100
0010
0100
0001
0010
0000
,  // measure 67
0100
1000
0010
0100
0001
0100
0010
0000
,  // measure 68
1000
0001
0010
0001
0100
0010
1000
0000
,  // measure 69
0010
0100
0001
0100
0010
1000
0100
0000
,  // measure 70
0010
0100
1000
0010
0100
0001
0010
0000
,  // measure 71
0001
0100
0001
1000
0010
1000
0001
0000
,  // measure 72
0100
0010
1000
0100
1000
0001
0110
0000
,  // measure 73
0100
0010
0100
0010
1000
0001
1000
0001
,  // measure 74
0100
0010
0100
0001
1000
0100
0010
0000
,  // measure 75
0001
0100
0001
0100
0010
1000
0010
1000
,  // measure 76
0100
1000
0010
1000
0001
0100
0001
0000
,  // measure 77
0010
0001
0010
0001
0100
0001
0100
0001
,  // measure 78
0100
0010
1000
0001
1000
0010
0100
0000
,  // measure 79
0010
1000
0010
1000
0001
0100
0001
0100
,  // measure 80
0010
0100
0001
1000
0100
0010
1001
0000
,  // measure 81
0001
0000
0100
0000
0001
0100
0000
0000
0010
0000
0000
1000
0000
0000
1010
0000
,  // measure 82
0100
0000
0001
0000
0010
0001
0000
0000
1000
0000
0000
0010
0000
0000
1010
0000
,  // measure 83
0010
0000
0100
0000
0001
1000
0000
0000
0100
0000
0000
0010
0000
0000
1001
0000
,  // measure 84
0100
0000
1000
0000
0001
0100
0000
0000
0010
0000
0000
1000
0000
0000
1001
0000
,  // measure 85
0100
0000
0010
0000
1000
0010
0000
0000
0100
0000
0000
0001
0000
0000
0101
0000
,  // measure 86
0010
0000
1000
0000
0100
1000
0000
0000
0001
0000
0000
0100
0000
0000
0101
0000
,  // measure 87
0100
0000
0010
0000
1000
0001
0000
0000
0010
0000
0000
0100
0000
0000
1000
0000
,  // measure 88
1010
0101
0011
1100
,  // measure 89
1002
0000
0000
0000
,  // measure 90
0203
0000
0000
0000
,  // measure 91
0320
0000
0000
0000
,  // measure 92
2030
0000
0000
0000
,  // measure 93
3200
0000
0000
0000
,  // measure 94
0320
0000
0000
0000
,  // measure 95
0032
0000
0000
0000
,  // measure 96
2000
0000
0000
0000
,  // measure 97
3003
0000
0000
0000
;

//---------------dance-double - ----------------
#NOTES:
     dance-double:
     :
     Hard:
     9:
     0.520156,0.672024,0.169353,0.215540,0.088526,473.000000,451.000000,22.000000,28.000000,0.000000,0.000000,0.520156,0.672024,0.169353,0.215540,0.088526,473.000000,451.000000,22.000000,28.000000,0.000000,0.000000:
00000000
00000000
00000000
00000000
,
00000000
00000000
00000000
00000000
,
00000000
00000000
00000000
00000000
,
00000000
00000000
00000000
00000000
,
00000000
00000000
00000000
00000000
,
00000000
00000000
00000000
00000000
,
00000000
00000000
00000000
00000000
,
00000000
00000000
00000000
00000000
,
00000000
00000000
00000000
00000000
,
00011000
00000000
00100000
00010000
10000000
00010000
01000000
00000000
,
00011000
00000000
00000100
00001000
00000001
00000100
00000010
00000000
,
00001001
00000000
00000010
00000001
00001000
00000010
00010000
00001000
,
00010000
01000000
10000000
00010000
00100000
01000000
00010000
00000000
,
00011000
00000000
00000010
00001000
00000001
00001000
00000100
00000000
,
00011000
00000000
01000000
00010000
10000000
01000000
00100000
00000000
,
10010000
00000000
00100000
10000000
00010000
00100000
00001000
00010000
,
00001000
00000100
00000001
00001000
00000010
00000100
00001000
00000000
,
00010000
00100000
10000000
01000000
,
00010000
00001000
00100000
00010000
00001000
00000100
00000001
00000000
,
00001000
00000010
00000001
00000100
,
00001000
00010000
00000010
00001000
00010000
01000000
10000000
00000000
,
01000000
00010000
10000000
01000000
00010000
00001000
00100000
01000000
,
00100000
00001000
00010000
00000010
00001000
00000001
00000010
00000000
,
00000100
00001000
00000001
00000100
00001000
00010000
00100000
10000000
,
10100000
00000000
00110000
00000000
00010000
00001000
00100000
00010000
,
20000000
00000000
00000000
00000000
,
30200000
00000000
00000000
00000000
,
00320000
00000000
00000000
00000000
,
00032000
00000000
00003200
00000000
,
00000302
00000000
00000000
00000000
,
00000203
00000000
00000000
00000000
,
00000320
00000000
00000000
00000030
,
00000110
00000000
00001001
00000000
00000001
00000100
00001000
00000000
,
00010000
00000000
01000000
00000000
10000000
00000000
00000000
00000000
00100000
00000000
00000000
01000000
00000000
00000000
00010000
00000000
,
00000000
00000000
10000000
00000000
00100000
00000000
00010000
00000000
00001000
00000000
00000000
00000100
00000000
00000000
00000001
00000000
,
00000000
00000000
00000010
00000000
00000001
00000000
00000000
00000000
00000100
00000000
00000000
00001000
00000000
00000000
00010000
00000000
,
00000000
00000000
00001000
00000000
00000100
00000000
00000010
00000000
00010000
00000000
00000000
00001000
00000000
00000000
00011000
00000000
,
00000000
00000000
00000100
00000000
00000001
00000000
00000000
00000000
00000010
00000000
00000000
00000100
00000000
00000000
00001000
00000000
,
00000000
00000000
00000001
00000000
00000010
00000000
00001000
00000000
00010000
00000000
00000000
01000000
00000000
00000000
10000000
00000000
,
00000000
00000000
00100000
00000000
10000000
00000000
00000000
00000000
01000000
00000000
00000000
00010000
00000000
00000000
00001000
00000000
,
00000000
00000000
00010000
00000000
01000000
00000000
00100000
00000000
00001000
00000000
00000000
00010000
00000000
00000000
00011000
00000000
,
00001000
00000100
00000001
00001000
00000010
00000001
00000010
00001000
,
00000100
00010000
00001000
00100000
00010000
10000000
01000000
00010000
,
00000000
00001000
00100000
00010000
10000000
00100000
00010000
00001000
,
00000010
00000000
00001000
00000000
00010000
00000000
00001000
00000000
00000100
00000000
00000000
00001000
00000000
00000000
00011000
00000000
,
00000000
01000000
10000000
00010000
00100000
10000000
00100000
00010000
,
01000000
00001000
00010000
00000010
00001000
00000001
00000100
00001000
,
00000000
00010000
00000010
00001000
00000001
00000010
00001000
00010000
,
00100000
00000000
00010000
00000000
00001000
00000000
00010000
00000000
01000000
00000000
00000000
00010000
00000000
00000000
00001000
00000000
,
00021000
00000000
00000000
00000000
,
02030000
00000000
00000000
00000000
,
23000000
00000000
30100000
00010000
,
00012000
00000000
00000000
00000000
,
00003200
00000000
00000000
00000000
,
00000302
00000000
00000023
00000000
,
00000032
00000000
00000203
00000000
,
00002300
00000000
00000000
00000000
,
00013000
00000000
00000000
00001000
00100000
00001000
00010000
00000000
00000000
00100000
00000000
00000000
,
00000000
00000000
00000000
10000000
00100000
01000000
00010000
00000000
00000000
01000000
00000000
00000000
,
00000000
00000000
00000000
00001000
01000000
00001000
00010000
00000000
00000000
00001000
00000000
00000000
,
00000000
00000000
00000000
00000010
00000100
00001000
00000001
00000000
00000000
00000100
00000000
00000000
,
00001000
00000000
00000000
00010000
00001000
00000100
00001000
00000000
00000000
00010000
00000000
00000000
,
00011000
00000000
00000000
00001000
00010000
01000000
00010000
00000000
00000000
00001000
00000000
00000000
,
00020000
00000000
00000000
00000000
,
00002000
00000000
00000000
00033000
,
00001000
00010000
01000000
10000000
00010000
10000000
00100000
01000000
,
00010000
10000000
01000000
00100000
00010000
00001000
00010000
00100000
,
00001000
00010000
01000000
00010000
00001000
00000100
00000010
00001000
,
00010000
00001000
00000010
00000100
00000001
00001000
00000100
00000000
,
00010000
00001000
00000100
00000001
00001000
00000001
00000010
00000100
,
00001000
00000001
00000100
00000010
00001000
00010000
00001000
00000010
,
00010000
00001000
00000100
00001000
00010000
01000000
00100000
00010000
,
00001000
00010000
00100000
01000000
10000000
00010000
01000000
00000000
,
00100000
10000000
01000000
00010000
00001000
00000100
00000001
00000000
,
00000010
00000001
00000100
00001000
00010000
01000000
10000000
00000000
,
00100000
01000000
00010000
10000000
00100000
00010000
00001000
00100000
,
00010000
00100000
00001000
00000010
00000001
00001000
00000100
00000000
,
00000010
00000001
00000100
00001000
00010000
01000000
10000000
00000000
,
00100000
10000000
01000000
00010000
00001000
00000100
00000001
00000000
,
00000010
00000100
00001000
00000001
00000010
00001000
00010000
00000010
,
00001000
00000010
00010000
00100000
10000000
00010000
01000000
00000000
,
00001000
00000100
00000001
00001000
00000010
00000001
00000010
00001000
,
00000100
00010000
00001000
00100000
00010000
10000000
01000000
00010000
,
00000000
00001000
00100000
00010000
10000000
00100000
00010000
00001000
,
00000010
00000000
00001000
00000000
00010000
00000000
00001000
00000000
00000100
00000000
00000000
00001000
00000000
00000000
00011000
00000000
,
00000000
01000000
10000000
00010000
00100000
10000000
00100000
00010000
,
01000000
00001000
00010000
00000010
00001000
00000001
00000100
00001000
,
00000000
00010000
00000010
00001000
00000001
00000010
00001000
00010000
,
00110000
10100000
11000000
01010000
,
00012000
00000000
00000000
00000000
,
00003020
00000000
00000000
00000000
,
00000032
00000000
00000000
00000000
,
00000203
00000000
00000000
00000000
,
00002300
00000000
00000000
00000000
,
00023000
00000000
00000000
00000000
,
00230000
00000000
00000000
00000000
,
20300000
00000000
00000000
00000000
,
30000000
00000000
00000000
00000000
;

//---------------dance-double - ----------------
#NOTES:
     dance-double:
     :
     Medium:
     7:
     0.422283,0.597355,0.130864,0.207843,0.000000,384.000000,367.000000,17.000000,27.000000,0.000000,0.000000,0.422283,0.597355,0.130864,0.207843,0.000000,384.000000,367.000000,17.000000,27.000000,0.000000,0.000000:
00000000
00000000
00000000
00000000
,
00000000
00000000
00000000
00000000
,
00000000
00000000
00000000
00000000
,
00000000
00000000
00000000
00000000
,
00000000
00000000
00000000
00000000
,
00000000
00000000
00000000
00000000
,
00000000
00000000
00000000
00000000
,
00000000
00000000
00000000
00000000
,
00000000
00000000
00000000
00000000
,
00100000
00000000
10000000
01000000
00000000
00010000
01000000
00000000
,
00010000
00001000
00000000
00000100
00001000
00000000
00010000
00000000
,
00000010
00000000
00000100
00000001
00000000
00000010
00000001
00000000
,
00000010
00001000
00000000
00010000
00001000
00000000
00100000
00000000
,
00010000
00000000
01000000
00010000
00000000
01000000
10000000
00000000
,
01000000
00100000
00000000
00010000
00001000
00000000
00000100
00000000
,
00000010
00000000
00001000
00000100
00000000
00000001
00000100
00000000
,
00001000
00010000
00000000
00100000
10000000
00000000
00010000
00000000
,
00100000
00000000
00001000
00010000
00001000
01000000
00010000
00000000
,
10000000
01000000
00010000
00000000
00001000
00000000
00000100
00000000
,
00000010
00000000
00010000
00001000
00010000
00000100
00001000
00000000
,
00000001
00000100
00001000
00000000
00010000
00000000
00100000
00000000
,
01000000
00000000
00001000
00010000
00001000
00100000
00010000
00000000
,
10000000
00100000
00010000
00000000
00001000
00000000
00000010
00000000
,
00000100
00000000
00010000
00001000
00010000
00000010
00001000
00000000
,
00001010
00000011
00000101
00001100
,
00021000
00000000
00000000
00000000
,
00032000
00000000
00000000
00000000
,
02003000
00000000
00000000
00000000
,
03200000
00000000
20300000
00000000
,
30200000
00000000
00000000
00000000
,
00320000
00000000
00000000
00000000
,
00032000
00000000
00000000
00000000
,
00003010
00001001
00000100
00001001
,
00000100
00000001
00001000
00000000
00000100
00000010
00000000
00001000
,
00000000
00001000
00010000
00000000
00100000
00000000
10010000
00000000
,
01000000
10000000
00010000
00000000
01000000
00100000
00000000
00010000
,
00000000
00010000
00001000
00000000
00000010
00000000
00001001
00000000
,
00000010
00000001
00001000
00000000
00000010
00000100
00000000
00001000
,
00000000
00001000
00010000
00000000
01000000
00000000
10010000
00000000
,
00100000
10000000
00010000
00000000
00100000
01000000
00000000
00010000
,
00000000
00010000
00001000
00000000
00000100
00000000
00001001
00000000
,
00000001
00000010
00001000
00000000
00010000
00000000
00001000
00000000
,
00010000
00001000
00000100
00000000
00001000
00010000
01000000
00000000
,
10000000
00100000
00010000
00000000
00001000
00000000
00010000
00000000
,
00001000
00010000
01000000
00000000
00010000
00001000
00000100
00000000
,
00000001
00001000
00000100
00000000
00000010
00000000
00001000
00000000
,
00010000
00100000
10000000
00000000
00010000
10000000
01000000
00000000
,
10000000
00010000
01000000
00000000
00100000
00000000
00010000
00000000
,
00001000
00000010
00000001
00000000
00001000
00000001
00000100
00001000
,
00020000
00000000
00000000
00000000
,
02030000
00000000
00000000
00000000
,
03020000
00000000
00032000
00000000
,
00003020
00000000
00000000
00000000
,
00000230
00000000
00000000
00000000
,
00002300
00000000
00023000
00000000
,
00230000
00000000
02300000
00000000
,
00200000
00000000
00000000
03300000
,
10010000
00000000
00010000
10000000
01000000
00000000
00100000
00000000
,
00000000
00000000
00001000
00010000
00000100
00000000
00000010
00000000
,
00000000
00000000
00000001
00000100
00001000
00000000
00010000
00000000
,
00000000
00000000
00001000
00000010
00000001
00000000
00000100
00000000
,
00001001
00000000
00001000
00000001
00000100
00000000
00000010
00000000
,
00000000
00000000
00010000
00001000
01000000
00000000
00100000
00000000
,
00000000
00000000
10000000
01000000
00010000
00000000
00001000
00000000
,
00000000
00000000
00010000
00100000
10000000
00000000
01000000
00000000
,
00010000
00000000
00001000
00010000
00001000
00010000
00001000
00000000
,
00000010
00000000
00000001
00000010
00000001
00000010
00000001
00000000
,
00000100
00000000
00001000
00000100
00001000
00000100
00001000
00000000
,
00010000
00000000
00001000
00010000
00001000
00000000
00010000
00000000
,
00100000
00000000
10000000
01000000
10000000
01000000
10000000
00000000
,
01000000
00000000
00010000
01000000
00010000
01000000
00010000
00000000
,
00001000
00000000
00010000
00001000
00010000
00001000
00010000
00000000
,
00001000
00000000
00000010
00000100
00000010
00000000
00001000
00000000
,
00000001
00000100
00000001
00000000
00000100
00001000
00000100
00000000
,
00001000
00010000
00001000
00000000
00010000
01000000
00010000
00000000
,
01000000
10000000
01000000
00000000
10000000
00100000
10000000
00000000
,
00100000
00010000
00100000
00000000
00010000
00001000
00010000
00000000
,
00001000
00000000
00010000
00001000
00000100
00001000
00010000
00000000
,
00001000
00000000
00001000
00010000
01000000
00010000
00001000
00000000
,
00001000
00000000
00010000
00001000
00000010
00001000
00010000
00000000
,
00001000
00000000
00001000
00010000
00100000
00010000
00001000
00000000
,
00000100
00000001
00001000
00000000
00000100
00000010
00000000
00001000
,
00000000
00001000
00010000
00000000
00100000
00000000
10010000
00000000
,
01000000
10000000
00010000
00000000
01000000
00100000
00000000
00010000
,
00000000
00010000
00001000
00000000
00000010
00000000
00001001
00000000
,
00000010
00000001
00001000
00000000
00000010
00000100
00000000
00001000
,
00000000
00001000
00010000
00000000
01000000
00000000
10010000
00000000
,
00100000
10000000
00010000
00000000
00100000
01000000
00000000
00010000
,
00000000
00010000
00001000
00000000
00000100
00000000
00001001
00000000
,
00000200
00000000
00000000
00000000
,
00000320
00000000
00000000
00000000
,
00002030
00000000
00000000
00000000
,
00023000
00000000
00000000
00000000
,
02030000
00000000
00000000
00000000
,
03200000
00000000
00000000
00000000
,
00320000
00000000
00000000
00000000
,
00002000
00000000
00000000
00000000
,
00033000
00000000
00000000
00000000
;

//---------------dance-double - ----------------
#NOTES:
     dance-double:
     :
     Easy:
     4:
     0.294719,0.410682,0.123166,0.238634,0.000000,268.000000,252.000000,16.000000,31.000000,0.000000,0.000000,0.294719,0.410682,0.123166,0.238634,0.000000,268.000000,252.000000,16.000000,31.000000,0.000000,0.000000:
00000000
00000000
00000000
00000000
,
00000000
00000000
00000000
00000000
,
00000000
00000000
00000000
00000000
,
00000000
00000000
00000000
00000000
,
00000000
00000000
00000000
00000000
,
00000000
00000000
00000000
00000000
,
00000000
00000000
00000000
00000000
,
00000000
00000000
00000000
00000000
,
00000000
00000000
00000000
00000000
,
00001000
00000000
00000000
00001000
00000000
00000000
00000010
00000000
,
00000000
00000010
00000000
00000000
00000100
00000000
00000001
00000000
,
00000010
00000000
00000000
00000010
00000000
00000000
00000100
00000000
,
00000000
00000100
00000000
00000000
00010000
00000000
00001000
00000000
,
01000000
00000000
00000000
01000000
00000000
00000000
00010000
00000000
,
00000000
00010000
00000000
00000000
10000000
00000000
00100000
00000000
,
01000000
00000000
00000000
01000000
00000000
00000000
00100000
00000000
,
00000000
00100000
00000000
00000000
10000000
00000000
00010000
00000000
,
10000000
01000000
10000000
01000000
,
10000000
00100000
10000000
00100000
,
01000000
00010000
01000000
00010000
,
00100000
00001000
00100000
00001000
,
00010000
00000100
00010000
00000100
,
00001000
00000001
00001000
00000001
,
00000100
00000010
00010000
00001000
,
00011000
01000000
10000000
00100000
,
20020000
00000000
30030000
00000000
,
00200000
00000000
00300000
00000000
,
02000000
00000000
03000000
00000000
,
00020000
00000000
00032000
00000000
,
00003200
00000000
00000300
00000000
,
00000020
00000000
00000030
00000000
,
00002000
00000000
00003000
00000000
,
00000001
00001000
00000001
00000000
,
00000010
00000001
00000100
00000100
,
00001000
00010000
00011000
00000000
,
00100000
10000000
01000000
01000000
,
00010000
00001000
00011000
00000000
,
00000010
00000001
00000100
00000100
,
00001000
00010000
00011000
00000000
,
00100000
10000000
01000000
01000000
,
00010000
00001000
00011000
00000000
,
00001000
00000010
00001000
00010000
,
00100000
00010000
00011000
00000000
,
00010000
00100000
00010000
00001000
,
00000010
00001000
00011000
00000000
,
00010000
01000000
00010000
00001000
,
00000100
00001000
00011000
00000000
,
00001000
00000100
00001000
00010000
,
01000000
00010000
00011000
00001000
,
00021000
00000000
00000000
00000000
,
02030000
00000000
00000000
00000000
,
23000000
00000000
30020000
00000000
,
20030000
00000000
00000000
00000000
,
32000000
00000000
00000000
00000000
,
03020000
00000000
00032000
00000000
,
00023000
00000000
00030200
00000000
,
00000020
00000000
00000000
00000000
,
00000330
00000001
00000100
00001000
,
00000000
00000100
00001000
00010000
,
00000000
00001000
00010000
01000000
,
00000000
00010000
01000000
10000000
,
00000000
10000000
00100000
00010000
,
00000000
00100000
00010000
00001000
,
00000000
00010000
00001000
00000010
,
00000000
00001000
00000010
00000001
,
00000000
00000100
00001000
00010000
,
00001000
00000010
00001000
00010000
,
01000000
00010000
00001000
00010000
,
00100000
00010000
00001000
00010000
,
00000000
01000000
00010000
00001000
,
00010000
00100000
00010000
00001000
,
00000100
00001000
00010000
00001000
,
00000010
00001000
00010000
00001000
,
00000020
00000000
00000031
00000000
,
00000001
00000100
00001000
00010000
,
00200000
00000000
10300000
00000000
,
10000000
01000000
00010000
00001000
,
00000020
00000000
00000031
00000000
,
00000100
00000010
00001000
00000100
,
00010000
00001000
01000000
00010000
,
10000000
01000000
00010000
00001000
,
00000010
00000001
00000100
00000100
,
00001000
00010000
00011000
00000000
,
00100000
10000000
01000000
01000000
,
00010000
00001000
00011000
00000000
,
00000010
00000001
00000100
00000100
,
00001000
00010000
00011000
00000000
,
00100000
10000000
01000000
01000000
,
00010000
00001000
00011000
00011000
,
00020000
00000000
00000000
00000000
,
00032000
00000000
00000000
00000000
,
00203000
00000000
00000000
00000000
,
00320000
00000000
00000000
00000000
,
02030000
00000000
00000000
00000000
,
03200000
00000000
00000000
00000000
,
20300000
00000000
00000000
00000000
,
30020000
00000000
00000000
00000000
,
00030000
00000000
00000000
00000000
;
