#TITLE:The Carpal Tunnel of Love;
#SUBTITLE:;
#ARTIST:Fall Out Boy;
#TITLETRANSLIT:;
#SUBTITLETRANSLIT:;
#ARTISTTRANSLIT:;
#GENRE:;
#CREDIT:;
#BANNER:The Carpal Tunnel of Love.png;
#BACKGROUND:The Carpal Tunnel of Love-bg.png;
#LYRICSPATH:;
#CDTITLE:;
#MUSIC:The Carpal Tunnel of Love.ogg;
#OFFSET:-0.180000;
#SAMPLESTART:81.819954;
#SAMPLELENGTH:15.520000;
#SELECTABLE:YES;
#DISPLAYBPM:141.000000;
#BPMS:0.000000=141.000000
,72.500000=138.000000
,73.000000=141.000000
,144.000000=140.000000
,148.000000=141.000000
,152.000000=140.500000
,160.000000=141.000000
,175.000000=140.750000
;
#STOPS:
;
#BGCHANGES:;
#KEYSOUNDS:;
#ATTACKS:;

//---------------dance-single - ----------------
#NOTES:
     dance-single:
     :
     Beginner:
     1:
     0.090228,0.163026,0.041013,0.008203,0.000000,77.000000,72.000000,5.000000,1.000000,0.000000,0.000000,0.090228,0.163026,0.041013,0.008203,0.000000,77.000000,72.000000,5.000000,1.000000,0.000000,0.000000:
0000
0000
0000
0000
,
0000
0000
0000
0000
,
0000
0000
0000
0000
,
0000
0000
0000
0000
,
0000
0010
0000
0000
,
0000
0010
0000
0000
,
0000
1000
0000
0000
,
1000
0000
0000
0000
,
0000
0001
0000
0000
,
0000
0001
0000
0000
,
0000
0100
0000
0000
,
0100
0000
0000
0000
,
0000
0010
0000
0000
,
0000
0010
0000
0000
,
0000
1000
0000
0000
,
0000
0100
0000
0010
,
0000
0001
0001
0000
,
0000
1000
1000
0000
,
0000
0010
0010
0000
,
0100
0100
0000
0000
,
0000
0001
0000
0000
,
0000
0001
0000
0000
,
0000
0010
0000
0000
,
0010
0000
0100
0000
,
0000
0100
0000
0000
,
0000
1000
0000
0000
,
1000
0000
0000
0000
,
0010
0000
0000
0000
,
0000
0010
0000
0000
,
0000
0000
0000
0100
,
0000
0000
0000
0000
,
1000
0000
0000
0000
,
0000
0001
0000
0000
,
0000
0100
0000
0000
,
0000
0100
0000
0000
,
0000
0000
0000
0000
,
1001
0000
0000
0010
,
0000
0000
0000
0000
,
1001
0000
0000
0010
,
0000
0000
0100
0000
,
1001
0000
0100
0000
,
0000
0000
0010
0000
,
0000
0001
0000
0000
,
0100
0000
0000
0000
,
0100
0000
0000
0000
,
0100
0000
0000
0000
,
0010
0000
0000
0010
,
0000
0000
0000
0000
,
1000
0000
1000
0000
,
0001
0000
0001
0000
,
0000
0010
0000
0000
,
0010
0000
0100
0000
,
0000
0010
0000
0010
,
0000
0100
0000
0100
,
0000
0000
0001
0000
,
0000
0001
0000
0000
,
1001
0000
0000
0000
,
0000
1001
0000
0000
,
0000
0010
0000
0000
,
0000
0100
0000
0000
,
0000
0010
0000
0000
,
1000
0000
0000
0000
,
0000
1000
0000
0000
,
0000
0010
0000
0000
,
0020
0000
0000
0000
,
0000
0000
0000
0000
,
0000
0030
0000
0000
;

//---------------dance-single - ----------------
#NOTES:
     dance-single:
     :
     Easy:
     4:
     0.229672,0.271710,0.057418,0.188659,0.000000,196.000000,189.000000,7.000000,23.000000,0.000000,0.000000,0.229672,0.271710,0.057418,0.188659,0.000000,196.000000,189.000000,7.000000,23.000000,0.000000,0.000000:
0000
0000
0000
0000
,
0000
0000
0000
0000
,
0000
0000
0000
0000
,
0000
0000
0000
0000
,
0000
0010
1000
0010
,
0000
0001
0100
0001
,
0100
0100
0000
1000
,
0001
0010
0100
0000
,
0000
0001
0001
0001
,
0100
0001
0000
1000
,
0001
2000
3100
0002
,
0010
1000
0010
0013
,
0000
2000
0100
0010
,
3100
0020
1000
0100
,
1030
1000
0010
0000
,
0100
0001
0000
0010
,
0000
0001
0010
0001
,
0010
1000
0100
1000
,
0000
0100
0010
0000
,
0001
0100
0000
1000
,
1000
0001
0000
0100
,
0000
0010
0000
0100
,
0000
0000
1001
0000
,
1001
0000
0100
0000
,
0100
0000
0100
0000
,
0001
0100
0000
0010
,
1000
0000
0110
0000
,
0110
0000
0002
1000
,
0000
0023
0100
0000
,
0130
2000
0001
0000
,
3001
0020
1000
0000
,
1030
0000
0100
0000
,
0100
0002
1000
0000
,
1003
0200
0010
0000
,
0310
0002
1000
0000
,
1003
0010
0100
0010
,
0110
0000
0001
0000
,
0001
0000
0001
0000
,
1001
0000
1000
0000
,
1000
0000
1000
0000
,
1000
0001
0100
1000
,
0001
0100
0100
0000
,
0010
0010
0100
0001
,
0010
0100
0010
0000
,
0001
0100
0001
0100
,
0001
0010
0100
1000
,
0000
0001
0001
0100
,
0100
0010
0010
1000
,
2000
0010
0001
0010
,
3001
0200
0001
1000
,
0001
1300
0002
0010
,
1000
0010
1003
0000
,
0020
1000
0100
1000
,
0130
0001
0001
0100
,
2000
0010
0100
3010
,
0020
0100
0001
0130
,
2002
0000
0000
3003
,
0010
0100
1000
0100
,
0020
1000
0001
1030
,
0002
0010
1000
0013
,
2000
0010
0000
3010
,
1000
1000
0001
0100
,
0010
0010
0010
1000
,
1000
1000
0001
0001
,
0200
0000
0000
0000
,
0000
0000
0000
0000
,
0000
0300
0000
0000
;

//---------------dance-single - ----------------
#NOTES:
     dance-single:
     :
     Medium:
     7:
     0.330446,0.380394,0.147646,0.139444,0.000000,282.000000,264.000000,18.000000,17.000000,0.000000,0.000000,0.330446,0.380394,0.147646,0.139444,0.000000,282.000000,264.000000,18.000000,17.000000,0.000000,0.000000:
0000
0000
0000
0000
,
0000
0000
0000
0000
,
0000
0000
0000
0000
,
0000
0000
0000
0000
,
0000
1000
0001
0010
,
0100
0000
1000
0001
0100
0000
0001
0000
,
0100
0001
0010
0100
,
1000
0000
0010
1000
0100
0000
1000
0010
,
1000
1001
1001
1001
,
1000
0001
0100
0010
,
1000
0001
0100
0001
,
0010
0000
0001
1000
0010
0000
0100
0010
,
1000
0010
2000
0000
3100
0000
0020
0000
,
0130
0200
1300
0001
,
1001
1000
0010
0000
,
0100
0000
0001
0000
1000
0000
0100
0010
,
0100
1000
0001
0001
,
1000
0000
1000
0000
1000
0000
1000
0001
,
1000
0010
0100
0000
0010
0000
0000
0000
,
1000
0100
0000
0010
,
0001
0000
0100
0000
0000
0010
0100
0000
,
0000
0000
0010
0000
0000
1000
0100
0000
,
0010
0000
0100
0010
0010
0000
0000
0100
,
0100
0000
0000
1000
1000
0000
0000
0001
,
0001
1000
0100
0010
,
0001
1000
0010
0100
,
0001
0000
0000
0100
0010
0000
0000
0010
,
0001
0000
0100
1000
0010
0000
1000
0000
,
0010
1002
0010
0000
,
0013
0000
1000
0000
0010
0000
0001
0100
,
0001
0012
0100
0000
,
0103
0000
0001
0001
0100
0000
0010
0010
,
1000
2100
0001
0000
,
3001
0000
0001
0000
0100
0000
0010
1000
,
0010
0012
0100
0000
,
0103
0000
0110
0110
,
0110
0100
0010
1000
,
1000
0100
0100
0010
,
0010
0000
0010
0100
1000
0000
0100
0010
,
0001
0100
0100
0100
,
0001
1000
0001
0000
1000
0100
1000
0000
,
0001
2000
3001
0000
,
0010
0000
0010
0000
0010
0100
1000
0000
,
0100
1000
0100
0000
0002
0000
0103
0000
,
1000
0000
1000
0000
1000
0000
1000
0100
,
0000
0010
0010
0001
,
0001
0000
1000
0000
0010
0100
0000
0100
,
0010
0000
1001
0000
1000
0001
1000
0000
,
0102
1000
0100
1000
,
0103
0000
0100
0000
0001
0100
0001
0000
,
0100
1000
0100
0010
,
1000
0001
0010
0000
0100
1000
0001
0000
,
2001
0100
0001
3100
,
0100
1000
0010
0000
0001
0010
0100
0000
,
2010
0010
0100
3010
,
0001
0010
0100
0000
0001
1000
0100
0000
,
0001
0100
0100
0200
0000
0000
0300
0000
,
0001
0000
0100
0000
1000
0100
0010
0000
,
0021
0001
1000
0031
,
1002
0010
1000
0013
,
2100
0010
0000
3010
,
1000
0000
0010
0000
0010
1000
0100
0000
,
0010
0010
0010
0001
,
1000
0100
1000
0100
0001
0100
0001
0000
,
0020
0000
0000
0000
,
0000
0000
0000
0000
,
0000
0030
0000
0000
;

//---------------dance-single - ----------------
#NOTES:
     dance-single:
     :
     Hard:
     8:
     0.447626,0.516249,0.213267,0.139444,0.000000,382.000000,356.000000,26.000000,17.000000,0.000000,0.000000,0.447626,0.516249,0.213267,0.139444,0.000000,382.000000,356.000000,26.000000,17.000000,0.000000,0.000000:
0000
0000
0000
0000
,
0000
0000
0000
0000
,
0000
0000
0000
0000
,
0000
0000
0000
0000
,
0000
0001
1000
0001
,
0100
0000
0001
1000
0100
0000
0010
0100
,
1000
0000
0100
0000
0010
0001
1000
0000
,
0100
0000
1000
0010
0001
0000
0001
0010
,
1000
0001
1000
0001
,
0100
0000
0001
0010
0100
0000
0010
0000
,
0002
1003
0100
0001
,
0100
0000
1000
0001
0010
0000
0001
0100
,
0002
0000
1003
0010
0100
0010
2000
0000
,
3100
0000
0010
0001
0010
0100
2000
0000
,
3001
0000
1000
0001
0010
0001
0000
0010
,
0001
0000
0001
0010
0100
1000
0010
0001
,
0010
1000
2000
0000
3001
0010
0001
0000
,
0010
0000
0100
0000
1000
0100
1000
0000
,
0100
0010
0001
0100
0020
0000
0031
0010
,
0001
0010
0200
0000
0300
0000
0010
1000
,
0001
0000
0102
0000
0000
0103
0001
0010
,
0000
0001
0000
0010
0000
0001
0100
0001
,
0010
0001
0100
0110
0110
0000
0000
1100
,
1100
0000
0000
1010
1010
0000
0000
1001
,
1002
0000
0013
0001
0100
0000
1000
0000
,
0100
0000
0001
0010
0001
0100
1000
0100
,
0010
0001
0010
0011
0011
0000
0000
0110
,
0110
0000
0100
0010
1000
0010
1000
0010
,
1000
0000
0001
1000
0010
0000
0100
0000
,
0110
0000
1000
0001
0010
0100
0010
0100
,
1000
0000
0001
0010
0100
1000
0100
0010
,
0001
0000
0001
0100
0101
0000
0010
1000
,
1100
0000
0100
0010
0001
0000
0100
0000
,
0101
0000
0001
0001
0010
1000
0010
1000
,
0010
0001
1000
0100
0010
0001
0010
0100
,
1000
0100
0010
0100
1010
0000
1010
0000
,
1001
0000
0001
0100
0001
0000
0001
0010
,
0100
0000
0010
0000
0001
0000
0010
0001
,
0010
0000
0100
1000
0100
0000
0100
1000
,
0001
0000
0010
0001
0010
0000
0110
0000
,
0010
0001
0100
0010
1000
0000
1000
0100
,
0000
0100
0001
0000
0101
0000
0200
0000
,
1300
0000
0010
1000
0010
0000
0010
0000
,
0001
0010
0100
1000
0100
0000
0020
0000
,
1030
0010
1000
0010
1000
0000
1000
0010
,
0000
0010
1000
0000
0010
0000
1000
0000
,
1000
0100
0010
0001
0010
0000
0100
1000
,
0000
1000
0001
0000
1002
0000
0000
0000
,
1003
0010
0100
0000
0001
0000
2000
0000
,
3010
0000
0010
1000
0001
0100
0001
1000
,
0100
0010
0001
0010
0100
1000
0100
0010
,
0001
0010
0010
0000
0100
1000
0001
0000
,
1000
0100
0010
0000
0001
0000
0200
0000
,
0301
0001
0100
0001
1000
0010
0100
0000
,
0001
0010
1000
0010
0001
0010
0100
1000
,
0100
1000
0001
0000
0100
0001
1000
0000
,
0001
0100
0010
0010
0000
0000
1002
0000
,
0013
0001
0100
0000
0001
0010
0100
1000
,
0001
0010
0100
1000
0100
0010
0001
1000
,
0010
0100
0001
0010
1000
0000
0010
0001
,
1000
0010
0100
0000
0001
0000
0101
0000
,
0100
0001
1000
0001
0010
0001
0100
0000
,
0100
0001
0100
0001
0100
0001
1000
0010
,
1000
0010
1000
0100
0001
0100
0001
0100
,
0220
0000
0000
0000
,
0000
0000
0000
0000
,
0000
0330
0000
0000
;

//---------------dance-double - ----------------
#NOTES:
     dance-double:
     :
     Hard:
     8:
     0.475749,0.494615,0.360913,0.155849,0.000000,406.000000,362.000000,44.000000,19.000000,0.000000,0.000000,0.475749,0.494615,0.360913,0.155849,0.000000,406.000000,362.000000,44.000000,19.000000,0.000000,0.000000:
00000000
00000000
00000000
00000000
,
00000000
00000000
00000000
00000000
,
00000000
00000000
00000000
00000000
,
00000000
00000000
00000000
00000000
,
00001000
00000000
00010000
00001000
00000100
00000000
00001000
00010000
,
01000000
00000000
10000000
00010000
00000000
00010000
01000000
00001000
,
00010000
00000000
00001000
00010000
00100000
00000000
00010000
00001000
,
00000010
00000000
00000001
00000100
00000010
00001000
00000001
00000000
,
00000100
00010010
00011000
00101000
,
00001000
01000000
00010000
00100000
00001000
00000000
00010000
00001000
,
00000100
00000000
00001000
00010000
01000000
00000000
10000000
00000000
,
10010000
00000000
00100000
00001000
00000000
00001000
00010000
00000100
,
00000010
00000000
00001001
00000000
00000001
00000100
00001000
01000000
,
00100000
00000000
10010000
00000000
10000000
01000000
00010000
00000100
,
00000010
00000000
00000001
00000000
00000001
00000010
00000000
00000100
,
00001000
00000000
00010000
00100000
01000000
10000000
00010000
10000000
,
01000000
00010000
00001000
00000000
00000010
00000001
00000100
00000000
,
00001000
00000000
00010000
00000000
00100000
10000000
01000000
00000000
,
00100000
00000000
00010000
10000000
01000000
00000000
00010000
00000000
,
00001000
00000100
00000001
00001000
00000000
00001000
00000100
00010000
,
00001000
00000000
00200000
00000000
00310000
10000000
01000000
00010000
,
00001000
00000020
00000000
00000032
00000000
00002003
00000000
00003100
,
00000010
00000010
00000001
00001001
00001001
00000000
00000000
00010100
,
00010100
00000000
00000000
01001000
01001000
00000000
00100000
00000000
,
10010000
00000000
10000000
01000000
00000000
00010000
00001000
00100000
,
00010000
00002000
00000000
00003200
00000000
00000320
00000000
00000031
,
00001000
00000010
00000000
00010010
00010010
00000000
00000000
00101000
,
00101000
00110000
10010000
01100000
,
10010000
00000000
10000000
01000000
00010000
00000000
00001000
00000100
,
00000001
00000010
00000000
00000110
00000000
00001001
00000001
00000100
,
00001000
00010000
00001000
00000010
00001000
00010000
00100000
00010000
,
00001000
01000000
00010000
10000000
02000000
00000000
03010000
00001000
,
00000010
00000000
00000001
00000100
00001000
00000000
00010000
01000000
,
10000000
00100000
10000000
10000000
01000000
00010000
00001000
00200000
,
00000000
00301000
00010000
00100000
00010000
00001000
00000010
00001000
,
00010000
00000100
00001000
00000001
00000200
00000000
00001300
00000000
,
00012000
00100000
00010000
00100000
,
00023000
00000010
00001000
00000010
,
00032000
01000000
00010000
01000000
,
00023000
00000100
00001000
00000100
,
00031000
00010000
01000000
10000000
00010000
00000000
10010000
01000000
,
00000000
00100000
01100000
00000000
00010000
00001000
00011000
00000000
,
00010000
00001000
00000100
00000001
00001000
00000000
00001001
00000100
,
00000000
00000010
00000110
00000000
00001000
00010000
00011000
00000000
,
00001000
00101000
00000000
00100000
01010000
00000000
10000000
10100000
,
00000000
01000000
10010000
00000000
00100000
00001000
00011000
00000000
,
00010000
00010010
00000000
00000010
00001100
00000000
00000001
00000011
,
00001000
00000100
00000001
00000100
00001000
00000001
00000010
00000000
,
00000001
00000100
00001000
00000000
00010000
01000000
10000000
00100000
,
00000000
01100000
00000000
10010000
10000000
01000000
00010000
00001000
,
00010000
00100000
00010000
00001000
00000010
00001000
00010000
00000100
,
00001000
00000001
00000200
00000000
00001300
00010000
00100000
00000000
,
10000000
01000000
00010000
00000000
00001000
00000100
00000001
00000010
,
00000001
00000001
00000100
00001000
00010000
00000020
00000000
00010030
,
00001000
00000010
00001000
00010000
00100000
00010000
00001000
01000000
,
00010000
10000000
02000000
00000000
03010000
00000000
00011000
00000000
,
00001000
00010000
00000100
00000010
00000000
00000000
00000000
00000000
,
00000001
00000110
00000000
00001001
00000001
00000010
00001000
00010000
,
00001000
00000100
00001000
00010000
01000000
00010000
00001000
00100000
,
00010000
10000000
00100000
00010000
00001000
00000000
00000110
00000000
,
00000001
00000010
00001000
00000000
00010000
00100000
10000000
01000000
,
10000000
10000000
00100000
00010000
00001000
02000000
00000000
03001000
,
00010000
01000000
00010000
00001000
00000100
00001000
00010000
00000010
,
00001000
00000001
00000010
00001000
00010000
00100000
00010000
00001000
,
00000020
00000000
00000000
00000000
,
00000000
00000000
00000000
00000000
,
00000000
00000000
00000000
00000000
,
00000030
00000000
00000000
00000000
;

//---------------dance-double - ----------------
#NOTES:
     dance-double:
     :
     Medium:
     6:
     0.382005,0.412179,0.278887,0.114836,0.000000,326.000000,292.000000,34.000000,14.000000,0.000000,0.000000,0.382005,0.412179,0.278887,0.114836,0.000000,326.000000,292.000000,34.000000,14.000000,0.000000,0.000000:
00000000
00000000
00000000
00000000
,
00000000
00000000
00000000
00000000
,
00000000
00000000
00000000
00000000
,
00000000
00000000
00000000
00000000
,
00010000
00000000
00000100
00000000
00001000
00000010
00000100
00000000
,
00000001
00000000
00000010
00001000
00010000
00000000
00001000
00000000
,
00011000
00000000
01000000
00000000
00010000
00100000
01000000
00000000
,
10000000
00000000
00100000
00010000
00001000
00000000
00010000
00000000
,
00011000
00000100
00011000
01000000
,
00011000
00000000
00000100
00000010
00000001
00000000
00001000
00000000
,
00000100
00000000
00010000
00001000
00010000
00000000
00001000
01000000
,
00010000
00000000
10000000
00000000
01000000
00100000
00001000
00000000
,
00011000
00000000
00010100
00000000
00000100
00000010
00000001
00000000
,
00000100
00000000
00000110
00000000
00000010
00000100
00001000
00000000
,
00011000
00000000
01001000
00000000
01000000
00010000
00000000
01000000
,
00010000
00000000
10000000
00000000
01000000
00100000
00001000
00010000
,
00000100
00000000
00000010
00000000
00000001
00000100
00001000
00000000
,
00010000
00000000
00100000
00000000
10000000
01000000
00010000
00000000
,
00001000
00000000
00000100
00000010
00000100
00000000
00001000
00000000
,
00010000
00000000
01000000
00100000
00000000
00100000
00010000
10000000
,
00010000
00000000
10000000
00000000
01000000
00000000
00010000
00001000
,
00010000
00000100
00001000
00000010
,
00000100
00000000
00000001
00000010
00000001
00000000
00001000
00000010
,
00001000
00000000
00000100
00010000
00000100
00000000
00000010
00000000
,
00001001
00000000
00000001
00000000
00000100
00000000
00001000
00010000
,
00001000
01000000
00010000
00100000
,
01000000
00000000
10000000
00100000
10000000
00000000
00010000
00100000
,
00010000
00000000
01000000
00001000
01000000
00000000
00100000
00000000
,
10010000
00000000
20000000
00000000
00000000
32000000
00000000
00000000
,
03010000
00000000
00001000
00100000
00000000
00100000
00001000
00010000
,
00000100
00000010
00001001
00000100
,
00010010
00000000
00001000
01000000
00010000
00000000
10000000
00000000
,
10010000
00000000
20000000
00000000
00000000
30200000
00000000
00000000
,
00310000
00000000
00001000
00010000
00000100
00010000
00000100
00001000
,
00000000
00000001
00000100
00000000
00001001
00000000
00000010
00000000
,
00010100
00001000
01001000
00100000
,
20010000
00100000
00000000
30100000
,
00020000
00001000
00000000
00031000
,
00000020
00000001
00000000
00000031
,
00000100
00000001
00001000
00000000
00001100
00000000
00010100
00000000
,
00010000
00001000
00000000
00010000
00001000
00000000
01000000
00010000
,
00000000
10000000
00010000
00000000
00100000
00001000
00010000
00000000
,
00001000
00010000
00000000
00001000
00010000
00000000
00000100
00001000
,
00000000
00000001
00001000
00000000
00000010
00010000
00001000
00000000
,
00010000
00001000
00000000
00010000
00001000
00000000
00100000
00010000
,
00000000
10000000
00010000
00000000
01000000
00001000
00010000
00000000
,
00001000
00010000
00000000
00001000
00010000
00000000
00000010
00001000
,
00000000
00000001
00001000
00000001
00001000
00000000
00001001
00000000
,
00000002
00000000
00000000
00000203
00000000
00000000
00001300
00000000
,
00010000
00000010
00000000
00000010
00010000
00001000
01000000
00000000
,
00100000
10010000
01000000
00101000
,
00010000
00000100
00001000
00000000
00000001
00000000
00001001
00000000
,
00000002
00000000
00000000
00000023
00000000
00000000
00001030
00000000
,
00010000
00001000
01000000
00001000
01000000
00010000
00000000
10000000
,
01000000
10010000
00100000
01001000
,
00010000
00010100
00000010
00001001
,
00000100
00000100
00000100
00000010
00000000
00000000
00000000
00000000
,
00010000
00000100
00000000
00000100
00010000
00001000
00100000
00000000
,
01000000
10010000
00100000
01001000
,
00010000
00000010
00001000
00000001
00000100
00000000
00001001
00000000
,
00000002
00000000
00000000
00000203
00000000
00000000
00001300
00000000
,
00010000
00001000
00100000
00001000
00100000
00010000
00000000
10000000
,
00000000
10010000
01000000
00101000
,
00010000
00000000
00010010
00000000
00000010
00001000
00000010
00001000
,
00000002
00000000
00000000
00000000
,
00000000
00000000
00000000
00000000
,
00000000
00000000
00000000
00000000
,
00000003
00000000
00000000
00000000
;

//---------------dance-double - ----------------
#NOTES:
     dance-double:
     :
     Easy:
     4:
     0.237875,0.274786,0.073823,0.262482,0.000000,203.000000,194.000000,9.000000,32.000000,0.000000,0.000000,0.237875,0.274786,0.073823,0.262482,0.000000,203.000000,194.000000,9.000000,32.000000,0.000000,0.000000:
// measure 0
00000000
00000000
00000000
00000000
,  // measure 1
00000000
00000000
00000000
00000000
,  // measure 2
00000000
00000000
00000000
00000000
,  // measure 3
00000000
00000000
00000000
00000000
,  // measure 4
00000000
00010000
00001000
00010000
,  // measure 5
00000000
00000100
00001000
00000100
,  // measure 6
00000000
00010000
00001000
00010000
,  // measure 7
00000000
01000000
00100000
01000000
,  // measure 8
00000000
10000000
10000000
10000000
,  // measure 9
01000000
00020000
00000000
00001000
,  // measure 10
00031000
00000000
00000100
00000000
00000000
00000001
00000000
00002000
,  // measure 11
00000000
00000000
00003000
00000010
,  // measure 12
00000010
00020000
00000100
00032000
,  // measure 13
00000100
00023000
00100000
00032000
,  // measure 14
00100000
00013000
01000000
10000000
,  // measure 15
00010000
00100000
00001000
00010000
,  // measure 16
00000000
00002000
01000000
00023000
,  // measure 17
01000000
00032000
00000010
00023000
,  // measure 18
00000010
00031000
00000100
00000001
,  // measure 19
00001000
00000020
00000000
00010000
,  // measure 20
00010030
00002000
00100000
00023000
,  // measure 21
00000100
00032000
01000000
00023000
,  // measure 22
00000010
00031000
00011000
00000000
,  // measure 23
01001000
00000000
00011000
00000000
,  // measure 24
00010010
00020000
00000010
00032000
,  // measure 25
01000000
00023000
00000100
00032000
,  // measure 26
00100000
00013000
00011000
00000000
,  // measure 27
00010100
00010000
00010000
00001000
,  // measure 28
00001000
02000000
00010000
00000000
,  // measure 29
03001000
00020000
00001000
00000000
,  // measure 30
00031000
00000100
00000001
00000100
,  // measure 31
00001000
00010000
00000000
00010000
,  // measure 32
00010000
00000200
00001000
00000000
,  // measure 33
00010300
00002000
00010000
00000000
,  // measure 34
00013000
01000000
10000000
01000000
,  // measure 35
00010000
00001000
00000000
00010000
,  // measure 36
00011000
00000000
00000100
00000000
,  // measure 37
00000100
00000000
00000100
00000000
,  // measure 38
00011000
00000000
01000000
00000000
,  // measure 39
01000000
00000000
01000000
00000000
,  // measure 40
00010000
10000000
01000000
00010000
,  // measure 41
00001000
00000000
00000100
00000010
,  // measure 42
00001000
00000001
00000100
00001000
,  // measure 43
00010000
00000000
01000000
00100000
,  // measure 44
00010000
10000000
00100000
00010000
,  // measure 45
00001000
00000000
00000010
00000100
,  // measure 46
00001000
00000001
00000010
00001000
,  // measure 47
00020000
00000000
00000000
01030000
,  // measure 48
00200000
00010000
00000000
00301000
,  // measure 49
00020000
00001000
00000000
00031000
,  // measure 50
00000010
00000001
00000010
00001000
,  // measure 51
00010000
00000000
00010000
00010000
,  // measure 52
00000020
00001000
00000000
00010030
,  // measure 53
00002000
00010000
00000000
00013000
,  // measure 54
00100000
10000000
00100000
00010000
,  // measure 55
00001000
00000000
00010000
00001000
,  // measure 56
00011000
00000000
00000000
00000000
,  // measure 57
00002000
00010000
00000000
00013000
,  // measure 58
00100000
10000000
00100000
00010000
,  // measure 59
00001000
00000000
00001000
00001000
,  // measure 60
00200000
00010000
00000000
00301000
,  // measure 61
00020000
00001000
00000000
00031000
,  // measure 62
00000010
00000001
00000010
00001000
,  // measure 63
00010000
00010000
00001000
00001000
,  // measure 64
02000000
00000000
00000000
00000000
,  // measure 65
00000000
00000000
00000000
00000000
,  // measure 66
00000000
00000000
00000000
00000000
,  // measure 67
03000000
00000000
00000000
00000000
;
