#TITLE:Techno Kitty;
#SUBTITLE:;
#ARTIST:S3RL feat. Sara;
#TITLETRANSLIT:;
#SUBTITLETRANSLIT:;
#ARTISTTRANSLIT:;
#GENRE:;
#CREDIT:;
#BANNER:TECHNO KITTY.png;
#BACKGROUND:TECHNO KITTY-bg.png;
#LYRICSPATH:;
#CDTITLE:;
#MUSIC:TECHNO KITTY.ogg;
#OFFSET:-0.955000;
#SAMPLESTART:33.868999;
#SAMPLELENGTH:15.000000;
#SELECTABLE:YES;
#DISPLAYBPM:175.000000;
#BPMS:0.000000=175.000000
;
#STOPS:
;
#BGCHANGES:;
#KEYSOUNDS:;
#ATTACKS:;

//---------------dance-single - ----------------
#NOTES:
     dance-single:
     :
     Hard:
     8:
     0.538165,0.597673,0.494332,0.178982,0.000000,442.000000,384.000000,58.000000,21.000000,0.000000,0.000000,0.538165,0.597673,0.494332,0.178982,0.000000,442.000000,384.000000,58.000000,21.000000,0.000000,0.000000:
0000
0000
0000
0000
,
0000
0000
0000
0000
,
0000
0000
0000
0000
,
0000
0000
0000
0000
,
0002
0000
0000
0003
,
0200
0000
0000
0300
,
2000
0000
0000
3000
,
0020
0000
0000
0030
,
2001
0000
0000
3002
0000
0000
0013
0000
,
0200
0000
0000
2300
0000
0000
3001
0000
,
1002
0000
0000
2003
0000
0000
3010
0100
,
0002
0000
0000
0023
0000
0000
0130
0000
,
1000
0000
0001
0200
0000
0000
0310
0000
,
1000
0000
0100
0001
0000
0000
0100
0000
,
1000
0000
0010
0100
0000
0000
0001
1000
,
0010
0000
0100
0001
0000
0000
0010
0000
,
1001
0000
0001
0100
0000
0010
1000
0100
,
0001
0000
0100
0010
0000
0001
1000
0000
,
0001
0010
0100
1000
0001
0000
0010
0000
,
0001
0000
1000
0100
0000
0001
0100
1000
,
0010
0000
1000
0100
0000
0010
0001
0100
,
1000
0000
0100
0010
1000
0010
0100
0010
,
1000
0100
0010
0001
1000
0010
0100
0001
,
1000
0000
0000
0000
,
0011
0000
0101
0000
0010
1000
0010
1000
,
0000
0110
0000
0001
1000
0100
1000
0100
,
0010
0000
1001
0000
0010
1000
0100
0001
,
0101
1100
1001
0000
,
1010
0000
0101
0000
0010
0001
0010
0001
,
0000
0110
0000
1000
0001
0100
0001
0100
,
0010
0000
1001
0000
0010
0001
0100
1000
,
1100
0101
1001
0000
,
0010
0001
0100
0000
0010
1000
0100
0002
,
0000
0203
0000
2300
0000
3001
0010
0100
,
1000
0000
1010
0000
0101
0000
0100
0010
,
1000
0110
0001
0110
,
1100
0000
1010
0000
0001
0010
1000
0010
,
0000
0110
0000
0001
1000
0010
0001
0010
,
0100
0000
1001
0000
0001
0100
1000
0100
,
0110
1001
0110
0000
,
0001
0000
0001
0000
0001
0000
0001
0100
,
0010
0000
0010
0000
0010
0000
0010
1000
,
0100
0000
0100
0000
0100
0000
0100
0010
,
0001
1000
0100
0001
0000
0001
0100
1000
,
0001
0100
1000
0000
1000
0100
0001
0000
,
0001
0010
1000
0000
1000
0010
0001
0000
,
1000
0100
1000
0100
0010
0001
0010
0001
,
0100
0000
0000
0000
,
0001
0000
0001
0100
0000
0100
0010
1000
,
0100
0000
0001
0100
0000
1000
0100
0010
,
0001
0000
0100
0010
0000
0001
0010
1000
,
0100
1001
0010
1001
,
1000
0000
1000
0100
0000
0100
0010
0001
,
0100
0000
1000
0100
0000
0001
0100
0010
,
1000
0000
0100
0010
0000
1000
0010
0001
,
0100
0110
1001
0000
,
0001
0100
1000
0100
0000
0010
1000
0100
,
0010
0001
0100
0010
0000
1000
0100
0001
,
0100
0010
0001
1000
0000
0010
0100
0001
,
1000
0100
0010
0000
0001
0100
0010
0000
,
1000
0100
0010
0001
0000
0100
0010
0100
,
1000
0100
0001
0010
0000
0100
1000
0100
,
0010
0001
0100
0010
1000
0100
0010
0001
,
0100
0000
0000
0000
,
1010
0000
1100
0000
0010
0001
0010
0001
,
0000
0110
0000
1000
0001
0100
0001
0100
,
0010
0000
1001
0000
0010
0001
0100
1000
,
1100
0101
1001
0000
,
0011
0000
0101
0000
0010
1000
0010
1000
,
0000
0110
0000
0001
1000
0100
1000
0100
,
0010
0000
1001
0000
0010
1000
0100
0001
,
0101
1100
1001
0000
,
0010
1000
0100
0000
0010
0001
0100
2000
,
0000
3200
0000
0302
0000
1003
0010
0100
,
0001
0000
0011
0000
1100
0000
0100
0010
,
0001
0110
1000
0110
,
0101
0000
0011
0000
1000
0010
0001
0010
,
0000
0110
0000
1000
0001
0010
1000
0010
,
0100
0000
1001
0000
1000
0100
0001
0100
,
0110
1001
0110
0000
,
2002
0000
0000
0000
,
0000
0000
0000
0000
,
0000
0000
3003
0000
;

//---------------dance-double - ----------------
#NOTES:
     dance-double:
     :
     Hard:
     9:
     0.566169,0.632831,0.750021,0.127845,0.000000,465.000000,377.000000,88.000000,15.000000,0.000000,0.000000,0.566169,0.632831,0.750021,0.127845,0.000000,465.000000,377.000000,88.000000,15.000000,0.000000,0.000000:
// measure 0
00000000
00000000
00000000
00000000
,  // measure 1
00000000
00000000
00000000
00000000
,  // measure 2
00000000
00000000
00000000
00000000
,  // measure 3
00000000
00000000
00000000
00000000
,  // measure 4
00000020
00000000
00000000
00000030
,  // measure 5
00002000
00000000
00000000
00003000
,  // measure 6
00020000
00000000
00000000
00030000
,  // measure 7
00000200
00000000
00000000
00000300
,  // measure 8
00011000
00000000
00000000
00020000
00000000
00000000
00130000
00000000
,  // measure 9
20000000
00000000
00000000
30020000
00000000
00000000
00130000
00000000
,  // measure 10
00021000
00000000
00000000
00032000
00000000
00000000
00003010
00000000
,  // measure 11
00000002
00000000
00000000
00002003
00000000
00000000
00003010
00000000
,  // measure 12
00011000
00000000
00010000
01000000
00000000
00000000
00100000
00000000
,  // measure 13
02200000
00000000
03300000
00010000
,  // measure 14
00011000
00000000
00000000
00000110
00000000
00000000
00001000
00000000
,  // measure 15
00001001
00000000
00000000
00000100
00000000
00000000
00001000
00000000
,  // measure 16
00011000
00000000
00100000
00000000
10000000
01000000
00010000
00000000
,  // measure 17
00011000
00000000
00000010
00000000
00000001
00000100
00001000
00000000
,  // measure 18
00011000
01010000
00011000
00001100
,  // measure 19
00001000
00010000
01000000
10000000
00000000
01000000
00100000
00001000
,  // measure 20
00011000
00000000
00000010
00000000
00000001
00000100
00001000
00000000
,  // measure 21
00011000
00000000
00100000
00000000
10000000
01000000
00010000
01000000
,  // measure 22
00010000
00001000
00010000
00001000
00000100
00000001
00000100
00000001
,  // measure 23
00000010
00000000
00000000
00000000
,  // measure 24
00001100
00000000
00000101
00000000
00000001
00000010
00001000
00010000
,  // measure 25
00100000
10000000
00000000
00010000
10000000
01000000
00010000
00001000
,  // measure 26
00000100
00000001
00001000
00000010
00010000
00001000
00000100
00000010
,  // measure 27
00000110
00010010
00011000
00000000
,  // measure 28
01010000
00000000
11000000
00000000
10000000
00100000
00010000
00001000
,  // measure 29
00000010
00000001
00000000
00001000
00000001
00000100
00001000
00010000
,  // measure 30
01000000
10000000
00010000
00100000
00001000
00010000
01000000
00100000
,  // measure 31
01100000
00101000
00011000
00000000
,  // measure 32
00000110
00001001
00011000
10010000
,  // measure 33
00011000
00001001
00011000
00101000
,  // measure 34
00010010
00011000
01001000
00010100
,  // measure 35
00011000
00101000
00010010
00000101
,  // measure 36
00000011
00000000
00001010
00000000
00000001
00000010
00000100
00010000
,  // measure 37
00001000
00000010
00000000
00001000
00100000
01000000
10000000
01000000
,  // measure 38
00010000
00000000
00011000
00000000
00001000
00010000
00001000
00000100
,  // measure 39
00000110
00001001
00010010
00000000
,  // measure 40
00001000
00000000
00001000
00000000
00001000
00000000
00001000
00010000
,  // measure 41
00100000
00000000
00100000
00000000
00100000
00000000
00100000
10000000
,  // measure 42
00010000
00000000
00010000
00000000
00010000
00000000
00010000
01000000
,  // measure 43
00001000
00010000
01000000
10000000
00000000
10000000
01000000
00100000
,  // measure 44
00001000
00010000
00100000
00000000
00010000
00001000
00000010
00000000
,  // measure 45
00001000
00010000
01000000
00000000
00010000
00001000
00000100
00000000
,  // measure 46
00000001
00000100
00000010
00001000
00010000
01000000
00100000
10000000
,  // measure 47
00010000
00000000
00000000
00000000
,  // measure 48
00010000
00000000
00010000
01000000
00000000
01000000
00100000
10000000
,  // measure 49
01000000
00000000
00010000
00001000
00000000
00001000
00010000
00100000
,  // measure 50
00010000
00000000
00010000
00001000
00000000
00000010
00000001
00000010
,  // measure 51
00001000
00101000
00010000
00010010
,  // measure 52
00001000
00000000
00001000
00000100
00000000
00000100
00000010
00000001
,  // measure 53
00000100
00000000
00001000
00010000
00000000
00010000
00001000
00000010
,  // measure 54
00001000
00010000
01000000
00000000
10000000
00100000
00010000
00001000
,  // measure 55
00010000
00011000
00011000
00000000
,  // measure 56
00000110
00000000
00000001
00001000
00000100
00000010
00000100
00010000
,  // measure 57
00001000
00000000
00100000
00010000
01000000
00100000
10000000
01000000
,  // measure 58
00010000
00000000
00001000
00000100
00000001
00000010
00000100
00010000
,  // measure 59
00000010
00011000
00100000
00011000
,  // measure 60
01100000
00000000
10000000
00010000
01000000
00100000
01000000
00001000
,  // measure 61
00010000
00000000
00000010
00001000
00000001
00000100
00000001
00000100
,  // measure 62
00001000
00010000
00001000
00010000
01000000
10000000
01000000
10000000
,  // measure 63
00100000
00000000
00000000
00000000
,  // measure 64
01010000
00000000
11000000
00000000
10000000
00100000
00010000
00001000
,  // measure 65
00000010
00000001
00000000
00001000
00000001
00000100
00001000
00010000
,  // measure 66
01000000
10000000
00010000
00100000
00001000
00010000
01000000
00100000
,  // measure 67
01100000
00101000
00011000
00000000
,  // measure 68
00001100
00000000
00000101
00000000
00000001
00000010
00001000
00010000
,  // measure 69
00100000
10000000
00000000
00010000
10000000
01000000
00010000
00001000
,  // measure 70
00000100
00000001
00001000
00000010
00010000
00001000
00000100
00000010
,  // measure 71
00000110
00010010
00011000
00000000
,  // measure 72
01100000
10010000
00011000
00001001
,  // measure 73
00011000
10010000
00011000
00010010
,  // measure 74
00101000
00011000
00010100
01001000
,  // measure 75
00011000
00010010
00101000
11000000
,  // measure 76
00110000
00000000
10100000
00000000
10000000
00100000
01000000
00001000
,  // measure 77
00010000
00100000
00000000
00010000
00000010
00000100
00000001
00000100
,  // measure 78
00001000
00000000
00011000
00000000
00010000
00001000
00010000
01000000
,  // measure 79
01100000
10010000
00101000
00000000
,  // measure 80
00022000
00000000
00000000
00000000
,  // measure 81
00000000
00000000
00000000
00000000
,  // measure 82
00000000
00000000
00033000
00000000
;

//---------------dance-single - ----------------
#NOTES:
     dance-single:
     :
     Medium:
     6:
     0.412755,0.490710,0.196028,0.051138,0.000000,339.000000,316.000000,23.000000,6.000000,0.000000,0.000000,0.412755,0.490710,0.196028,0.051138,0.000000,339.000000,316.000000,23.000000,6.000000,0.000000,0.000000:
0000
0000
0000
0000
,
0000
0000
0000
0000
,
0000
0000
0000
0000
,
0000
0000
0000
0000
,
2000
0000
0000
3000
,
0002
0000
0000
0003
,
0200
0000
0000
0300
,
0020
0000
0000
0030
,
1000
0000
0000
0100
0000
0000
0010
0000
,
0001
0000
0000
0110
,
0001
0000
0000
0100
0000
0000
0010
0000
,
1000
0000
0000
0010
,
1000
0000
0001
0100
0001
0000
0010
0000
,
1001
0000
0000
0010
,
0001
0000
0000
0100
0000
0000
1000
0000
,
0100
0000
0000
0010
,
1001
0000
1000
0000
0010
0100
0010
0000
,
1000
0000
0001
0000
0010
0100
0010
0000
,
0001
1000
1000
0010
,
0100
0000
0000
0010
,
1001
0000
0001
0000
0010
0100
0010
0000
,
0001
0000
1000
0000
0010
0100
0010
0000
,
1000
0000
0001
0010
0001
0010
0100
1000
,
0100
0000
0000
0000
,
1000
0000
0001
0000
0100
0010
0100
0000
,
0001
0000
1000
0000
0100
0010
0100
0000
,
1000
0000
0001
0000
0010
0100
0010
0100
,
1000
0001
1001
0000
,
0001
0000
1000
0000
0100
0010
0100
0000
,
1000
0000
0001
0000
0100
0010
0100
0000
,
0001
0000
1000
0000
0010
0100
0010
0100
,
0001
1000
1001
0000
,
0011
0010
0110
0100
,
1100
1000
1010
0010
,
0110
0000
0001
0000
1000
0000
0100
1000
,
0000
0010
0000
0100
0000
0001
0000
0000
,
1000
0000
0010
0000
0100
0001
1000
0000
,
0001
0000
0010
0000
0100
1000
0001
0000
,
0010
0000
1001
0000
1000
0100
0010
0001
,
1000
0100
0110
0000
,
0001
0001
0001
0001
,
1000
1000
1000
1000
,
0010
0010
0010
0010
,
0100
0100
0100
0100
,
0001
0000
1000
0000
0010
0000
0100
0001
,
1000
0000
0001
0000
0010
0000
0100
1000
,
0001
1000
0001
0000
1000
0001
1000
0000
,
0010
0000
0000
0000
,
1000
0000
0100
0000
0010
0001
0010
0001
,
0010
0000
0100
0000
1000
0010
1000
0010
,
1000
0001
0100
0100
,
0010
0100
0001
1000
,
0001
0000
0100
0000
0010
1000
0010
1000
,
0010
0000
0100
0000
0001
0010
0001
0010
,
0001
1000
0100
0100
,
0010
0100
1000
0000
,
0001
0000
0100
0000
0001
0000
0100
0010
,
1000
0000
0100
0000
1000
0000
0100
0010
,
0001
0000
0100
0000
0001
1000
0010
1000
,
0001
0100
0100
0010
,
1000
0000
0100
0000
0001
0100
1000
0000
,
0001
0000
0100
0000
1000
0100
0001
0000
,
0010
0100
0010
0000
0001
1000
0001
0000
,
0100
0000
0000
0000
,
0001
0000
1000
0000
0100
0010
0100
0000
,
1000
0000
0001
0000
0100
0010
0100
0000
,
0001
0000
1000
0000
0010
0100
0010
0100
,
0001
1000
1001
0000
,
1000
0000
0001
0000
0100
0010
0100
0000
,
0001
0000
1000
0000
0100
0010
0100
0000
,
1000
0000
0001
0000
0010
0100
0010
0100
,
1000
0001
1001
0000
,
1010
0010
0110
0100
,
0101
0001
0011
0010
,
0110
0000
1000
0000
0001
0000
0100
0001
,
0000
0010
0000
0100
0000
1000
0000
0000
,
0001
0000
0010
0000
0100
1000
0001
0000
,
1000
0000
0010
0000
0100
0001
1000
0000
,
0010
0000
1001
0000
0001
0100
0010
1000
,
0001
0100
0110
0000
,
2002
0000
0000
0000
,
0000
0000
0000
0000
,
0000
3003
0000
0000
;

//---------------dance-double - ----------------
#NOTES:
     dance-double:
     :
     Medium:
     6:
     0.360400,0.457044,0.051138,0.017046,0.000000,296.000000,290.000000,6.000000,2.000000,0.000000,0.000000,0.360400,0.457044,0.051138,0.017046,0.000000,296.000000,290.000000,6.000000,2.000000,0.000000,0.000000:
00000000
00000000
00000000
00000000
,
00000000
00000000
00000000
00000000
,
00000000
00000000
00000000
00000000
,
00000000
00000000
00000000
00000000
,
00010000
00000000
00000000
00000000
,
00001000
00000000
00000000
00000000
,
00010000
00000000
00000000
00000000
,
00001000
00000000
00000000
00000000
,
01000000
00000000
00000000
01000000
00000000
00000000
00010000
00000000
,
00001000
00000000
00000000
00011000
,
00000100
00000000
00000000
00000100
00000000
00000000
00001000
00000000
,
00010000
00000000
00000000
00100000
,
10000000
00000000
01000000
00100000
01000000
00000000
00010000
00000000
,
00001000
00000000
00000000
00000010
,
00000001
00000000
00000000
00000001
00000000
00000000
00000100
00000000
,
00001000
00000000
00000000
00010000
,
00011000
00001000
01000000
00100000
,
10100000
10000000
01000000
00010000
,
00001000
00000100
00000001
00000010
,
00000100
00000000
00000000
00010000
,
00011000
00001000
01000000
00100000
,
10100000
10000000
01000000
00010000
,
00001000
00000100
00000001
00000010
,
00000100
00000000
00000000
00000000
,
00010000
00000000
00001000
00000000
01000000
00100000
01000000
00000000
,
00001000
00000000
00010000
00000000
00000100
00000010
00000100
00000000
,
00010000
00001000
00000010
00000001
,
00000100
00000010
00010000
00000000
,
00001000
00000000
00010000
00000000
00000100
00000010
00000100
00000000
,
00010000
00000000
00001000
00000000
01000000
00100000
01000000
00000000
,
00001000
00010000
00100000
10000000
,
01000000
00100000
00001000
00000000
,
00010000
00010000
00000100
00000100
,
00000010
00000010
00000001
00000001
,
00001000
00001000
00000100
00000100
,
00010000
00010000
00001000
00001000
,
00010000
00000000
00001000
00000000
01000000
00100000
01000000
00000000
,
00001000
00000000
00010000
00000000
00000100
00000010
00000100
00000000
,
00010000
00001000
00000010
00000001
,
00000100
00000010
00010000
00000000
,
00001000
00001000
00001000
00010000
,
01000000
01000000
01000000
10000000
,
00100000
00100000
00100000
00010000
,
00001000
00001000
00001000
00001000
,
00010000
00010000
00010000
00001000
,
00000100
00000100
00000100
00000001
,
00000010
00000010
00000010
00001000
,
00010000
00010000
00010000
00000000
,
00001000
00000000
01000000
00000000
00010000
00100000
00001000
00000000
,
00010000
00000000
00000100
00000000
00001000
00000010
00010000
00000000
,
00001000
01000000
01000000
00010000
,
00100000
00001000
00010000
00000010
,
00010000
00000000
00000100
00000000
00001000
00000010
00010000
00000000
,
00001000
00000000
01000000
00000000
00010000
00100000
00001000
00000000
,
00010000
00000100
00000100
00001000
,
00000010
00010000
00001000
00000000
,
01000000
00000000
01000000
00000000
01000000
00000000
01000000
00001000
,
00010000
00000000
00010000
00000000
00010000
00000000
00010000
00000010
,
00001000
00000000
00001000
00000000
00001000
00000000
00001000
00000001
,
00000010
00000010
00000010
00000010
,
00000100
00000000
00000100
00000000
00000100
00000000
00000100
00010000
,
00001000
00000000
00001000
00000000
00001000
00000000
00001000
00100000
,
00010000
10000000
00010000
00000000
10000000
00010000
10000000
00000000
,
00100000
00000000
00000000
00000000
,
00010000
00000000
00001000
00000000
01000000
00100000
01000000
00000000
,
00001000
00000000
00010000
00000000
00000100
00000010
00000100
00000000
,
00010000
00001000
00000010
00000001
,
00000100
00000010
00010000
00000000
,
00001000
00000000
00010000
00000000
01000000
00100000
01000000
00000000
,
00010000
00000000
00001000
00000000
00000100
00000010
00000100
00000000
,
00001000
00010000
00100000
10000000
,
01000000
00100000
00001000
00000000
,
00010000
00010000
00000100
00000100
,
00000010
00000010
00000001
00000001
,
00001000
00001000
00000100
00000100
,
00010000
00010000
00001000
00001000
,
00010000
00000000
00001000
00000000
01000000
00100000
01000000
00000000
,
00001000
00000000
00010000
00000000
00000100
00000010
00000100
00000000
,
00010000
00001000
00000010
00000001
,
00000100
00000010
00010000
00000000
,
00022000
00000000
00000000
00000000
,
00000000
00000000
00000000
00000000
,
00000000
00000000
00033000
00000000
;

//---------------dance-single - ----------------
#NOTES:
     dance-single:
     :
     Easy:
     4:
     0.303174,0.350507,0.247166,0.102276,0.000000,249.000000,220.000000,29.000000,12.000000,0.000000,0.000000,0.303174,0.350507,0.247166,0.102276,0.000000,249.000000,220.000000,29.000000,12.000000,0.000000,0.000000:
0000
0000
0000
0000
,
0000
0000
0000
0000
,
0000
0000
0000
0000
,
0000
0000
0000
0000
,
1000
0000
0000
0000
,
0100
0000
0000
0000
,
0001
0000
0000
0000
,
0010
0000
0000
0000
,
1001
0000
0010
0000
,
0001
0001
0001
1000
,
1001
0000
0010
0000
,
1000
0001
1000
0001
,
1001
0000
0100
0000
,
0001
1000
0001
1000
,
1001
0000
0100
0000
,
0010
1000
0001
0000
,
0100
0100
0010
0010
,
0110
0000
1001
0000
,
0010
0100
0010
0100
,
0110
0000
1001
0000
,
0011
0000
1100
0000
,
0001
1000
0100
1000
,
0001
0010
0100
1000
,
1001
0000
0000
0000
,
0001
0010
0001
0010
,
0000
0100
1000
0010
,
0000
0100
0001
0010
,
0100
0100
1001
0000
,
1000
0010
1000
0010
,
0000
0100
0001
0010
,
0000
0100
1000
0010
,
0100
0100
1001
0000
,
0011
0000
1100
0000
,
1000
0100
0001
0100
,
1000
1000
0010
0000
,
0110
0000
1001
0000
,
0001
0100
1000
0100
,
0001
1000
0010
0001
,
0010
1000
0100
0010
,
0001
0100
0110
0000
,
2000
0000
0000
3000
,
0200
0000
0000
0300
,
0002
0000
0000
0003
,
0020
0000
0000
0030
,
2000
0000
0001
3001
,
0200
0000
0010
0310
,
2002
0000
0000
3003
,
1001
0000
0000
0000
,
0001
0001
1000
1000
,
0010
0010
0100
0100
,
0002
0000
1000
1003
,
0010
0100
0010
0000
,
1000
1000
0001
0001
,
0010
0010
0100
0100
,
2000
0000
0001
3001
,
0010
0100
0010
0000
,
0001
0100
1000
0000
,
1000
0100
0001
0000
,
1000
0010
0001
0000
,
0001
0010
1000
0000
,
0010
0010
0100
0100
,
0001
0001
1000
1000
,
0001
0100
0010
1000
,
1001
0000
0000
0000
,
1000
0010
1000
0010
,
0000
0100
0001
0010
,
0000
0100
1000
0010
,
0100
0100
1001
0000
,
0001
0010
0001
0010
,
0000
0100
1000
0010
,
0000
0100
0001
0010
,
0100
0100
1001
0000
,
1010
0000
0101
0000
,
0001
0100
1000
0100
,
0001
0001
0010
0000
,
0110
0000
1001
0000
,
1000
0100
0001
0100
,
1000
0001
0010
1000
,
0010
0001
0100
0010
,
1000
0100
0110
0000
,
2002
0000
0000
0000
,
0000
0000
0000
0000
,
0000
3003
0000
0000
;

//---------------dance-single - ----------------
#NOTES:
     dance-single:
     :
     Beginner:
     2:
     0.157066,0.245355,0.042615,0.059661,0.000000,129.000000,124.000000,5.000000,7.000000,0.000000,0.000000,0.157066,0.245355,0.042615,0.059661,0.000000,129.000000,124.000000,5.000000,7.000000,0.000000,0.000000:
0000
0000
0000
0000
,
0000
0000
0000
0000
,
0000
0000
0000
0000
,
0000
0000
0000
0000
,
0001
0000
0000
0000
,
0100
0000
0000
0000
,
0010
0000
0000
0000
,
1000
0000
0000
0000
,
0001
0000
0000
0000
,
1000
0000
0000
0100
,
0100
0000
0000
0010
,
0010
0000
0000
0000
,
0001
0000
0000
0000
,
1000
0000
0000
0001
,
0001
0000
0000
1000
,
1000
0000
0000
0000
,
1001
0000
0000
0000
,
1001
0000
0000
0000
,
0010
0000
0010
0000
,
0100
0000
0000
0000
,
1001
0000
0000
0000
,
1001
0000
0000
0000
,
0100
0000
0100
0000
,
0010
0000
0000
0000
,
1000
0000
0000
0000
,
0001
0000
0000
0000
,
0100
0000
0000
0000
,
0010
0010
0010
0000
,
1000
0000
0000
0000
,
0001
0000
0000
0000
,
0010
0000
0000
0000
,
0100
0100
0100
0000
,
1000
0000
1000
0000
,
0100
0000
0100
0000
,
0001
0000
0001
0000
,
0010
0000
0010
0000
,
1000
0000
1000
0000
,
0001
0000
0001
0000
,
0100
0000
0100
0000
,
0010
0010
0010
0000
,
2000
0000
0000
0000
,
0000
0000
0000
3000
,
0002
0000
0000
0000
,
0000
0000
0000
0003
,
2000
0000
0000
3000
,
0002
0000
0000
0003
,
0200
0000
0000
0300
,
0000
0000
0000
0000
,
0001
0000
0001
0000
,
0100
0000
0100
0000
,
1000
0000
1000
0000
,
0100
0000
0100
0000
,
0001
0000
0001
0000
,
1000
0000
1000
0000
,
0100
0000
0100
0000
,
0010
0010
0010
0000
,
0001
0000
0001
0000
,
1000
0000
1000
0000
,
0010
0000
0010
0000
,
0100
0000
0100
0000
,
0001
0000
0001
0000
,
1000
0000
1000
0000
,
0010
0010
0010
0000
,
0100
0000
0000
0000
,
0001
0000
0000
0000
,
1000
0000
0000
0000
,
0100
0000
0000
0000
,
0010
0010
0010
0000
,
0001
0000
0000
0000
,
1000
0000
0000
0000
,
0100
0000
0000
0000
,
0010
0010
0010
0000
,
0001
0000
0001
0000
,
1000
0000
1000
0000
,
0010
0000
0010
0000
,
0100
0100
0100
0000
,
0001
0000
0001
0000
,
0100
0000
0100
0000
,
1000
0000
1000
0000
,
0010
0010
0010
0000
,
2002
0000
0000
0000
,
0000
0000
0000
0000
,
0000
3003
0000
0000
;

//---------------dance-double - ----------------
#NOTES:
     dance-double:
     :
     Easy:
     4:
     0.255689,0.351572,0.196028,0.119322,0.000000,210.000000,187.000000,23.000000,14.000000,0.000000,0.000000,0.255689,0.351572,0.196028,0.119322,0.000000,210.000000,187.000000,23.000000,14.000000,0.000000,0.000000:
00000000
00000000
00000000
00000000
,
00000000
00000000
00000000
00000000
,
00000000
00000000
00000000
00000000
,
00000000
00000000
00000000
00000000
,
10000000
00000000
00000000
00000000
,
00010000
00000000
00000000
00000000
,
00001000
00000000
00000000
00000000
,
00000001
00000000
00000000
00000000
,
00002200
00000000
00000000
00000000
,
00000000
00000000
00003300
00000000
,
00000022
00000000
00000000
00000000
,
00000000
00000000
00000033
00000000
,
00002020
00000000
00000000
00000000
,
00000000
00000000
00003030
00000000
,
00022000
00000000
00000000
00000000
,
00000000
00000000
00033000
00000000
,
00100000
00000000
00000000
10000000
,
00100000
00000000
00000000
10000000
,
01000000
00000000
00010000
00001000
,
00000100
00000000
00000000
00000001
,
00000010
00000000
00000000
00001000
,
00000010
00000000
00000000
00000100
,
00001000
00000000
00010000
00001000
,
00011000
00000000
00000000
00000000
,
00100000
10000000
00010000
00100000
,
00000000
00100000
00010000
00001000
,
00000100
00001000
00000001
00001000
,
00000100
00000010
00000001
00000000
,
00000010
00000001
00001000
00000010
,
00000000
00000010
00001000
00010000
,
01000000
00010000
10000000
00010000
,
01000000
00100000
10000000
00000000
,
10100000
00000000
01010000
00000000
,
00101000
00000000
00010100
00000000
,
00001010
00000000
00000101
00000000
,
00000110
00000000
00001001
00000000
,
00000100
00000001
00001000
00000100
,
00000000
00000100
00001000
00010000
,
00100000
00010000
10000000
00010000
,
00100000
01000000
10000000
00000000
,
00020000
00000000
00000000
00030000
,
02000000
00000000
00000000
03000000
,
00020000
00000000
00000000
00030000
,
00002000
00000000
00000000
00003000
,
00000001
00000000
00000001
00000000
,
00000100
00000000
00000100
00000000
,
00001000
00001000
00010000
00100000
,
10000000
00000000
00000000
00000000
,
00010000
10000000
00010000
00000000
,
10000000
01000000
10000000
00000000
,
01000000
00010000
01000000
00000000
,
00010000
00001000
00010000
00000000
,
00001000
00000010
00001000
00000000
,
00000010
00000001
00000010
00000000
,
00000001
00000100
00000001
00001000
,
00000100
00001000
00000001
00000000
,
00001000
00000001
00001000
00000000
,
00000001
00000100
00000001
00000000
,
00000100
00001000
00000100
00000000
,
00001000
00010000
00001000
00000000
,
00010000
00100000
00010000
00000000
,
00100000
10000000
00100000
00000000
,
10000000
01000000
10000000
00010000
,
10010000
00000000
00000000
00000000
,
00100000
10000000
00010000
00100000
,
00000000
00100000
00010000
00001000
,
00000100
00001000
00000001
00001000
,
00000100
00000010
00000001
00000000
,
00000010
00000001
00001000
00000010
,
00000000
00000010
00001000
00010000
,
01000000
00010000
10000000
00010000
,
00100000
01000000
10000000
00000000
,
10100000
00000000
01010000
00000000
,
00101000
00000000
00010100
00000000
,
00001010
00000000
00000101
00000000
,
00000110
00000000
00001001
00000000
,
00000100
00000001
00001000
00000100
,
00000000
00000100
00001000
00010000
,
00100000
00010000
10000000
00010000
,
00100000
01000000
10000000
00000000
,
20020000
00000000
00000000
00000000
,
00000000
00000000
00000000
00000000
,
00000000
00000000
30030000
00000000
;
