#TITLE:THE SHINING POLARIS (kors k mix);
#SUBTITLE:;
#ARTIST:L.E.D. feat. Sana;
#TITLETRANSLIT:;
#SUBTITLETRANSLIT:;
#ARTISTTRANSLIT:;
#GENRE:;
#CREDIT:mf32892 & DDRDAIKENKAI;
#BANNER:THE SHINING POLARIS (kors k mix).png;
#BACKGROUND:THE SHINING POLARIS (kors k mix)-bg.png;
#LYRICSPATH:;
#CDTITLE:;
#MUSIC:THE SHINING POLARIS (kors k mix).ogg;
#OFFSET:-0.060664;
#SAMPLESTART:103.113312;
#SAMPLELENGTH:10.999996;
#SELECTABLE:YES;
#BPMS:0.000000=172.000000
;
#STOPS:197.937500=0.698000
;
#BGCHANGES:;
#KEYSOUNDS:;
#ATTACKS:;

//---------------dance-single - ----------------
#NOTES:
     dance-single:
     :
     Challenge:
     10:
     0.631454,0.814730,0.215618,0.261822,0.508244,574.000000,546.000000,28.000000,34.000000,0.000000,0.000000,0.631454,0.814730,0.215618,0.261822,0.508244,574.000000,546.000000,28.000000,34.000000,0.000000,0.000000:
0000
0000
0000
0000
,
0000
0000
0000
0000
,
0000
0000
0000
0000
,
0000
0000
0000
0000
,
0000
0000
0000
0000
,
0000
0000
0000
0000
,
1000
0000
0001
0000
1000
0100
0000
0000
0010
0000
0100
0000
1000
0010
0000
0000
,
0100
0000
0001
0000
0010
0000
0100
0010
0100
0000
1000
0001
1000
0100
1000
0000
,
0100
0000
0010
0000
0001
0010
0001
0000
1000
0100
0000
0000
0010
0001
0000
0000
,
2000
0000
3010
0100
0010
0100
0001
0000
0010
0000
1000
0000
0010
0000
0001
0000
,
0110
0000
0001
0000
1000
0010
0000
0000
0100
0000
0001
0000
1000
0100
0000
0000
,
1000
0000
0001
0000
0010
0100
0000
0000
1000
0000
0001
0100
0000
0100
0010
0000
,
1000
0000
0100
0000
0010
0001
0000
0000
1000
0010
1000
0000
1000
0000
0001
0000
,
0001
0010
0010
0001
0100
1000
0100
0001
,
1001
0000
0001
0000
1000
0100
1000
0000
0000
0000
0010
0000
0100
0001
0100
0000
,
1001
0000
1000
0000
0001
0100
0001
0000
0000
0000
0010
0000
0100
1000
0100
0000
,
1001
1000
0010
1000
1100
0000
0010
0001
,
0101
0000
0000
0000
0011
0000
0010
0000
1010
0000
0010
0000
0011
0000
1000
0010
,
0100
0000
0001
1000
0001
0010
0100
2000
,
0000
3010
0001
0020
0000
1030
0001
0020
,
0000
0130
2000
0010
0000
3001
0010
0100
,
1000
0001
1000
0001
1000
0000
0001
0010
0100
0000
1000
0010
0000
0010
0100
0000
,
0001
0000
1000
0001
0100
0001
0010
0200
,
0000
1300
0001
0200
0000
1300
0100
0020
,
0000
1030
0100
0020
0000
0031
1000
0100
,
0010
0100
0010
0100
0010
0000
0100
1000
0001
0000
0010
0001
0000
0001
0100
0010
,
1000
0000
0001
0010
0001
0100
0010
1000
,
0001
0010
0100
1000
0000
0001
0100
0010
,
0000
1000
0100
0010
0001
0100
0010
1000
,
0001
1000
0001
1000
0001
0000
1000
0100
0010
0000
0001
1000
0000
0100
0010
0000
,
1100
0001
0010
1000
,
0100
0001
1000
0010
,
0101
0000
0000
0000
0010
0000
1000
0000
0100
0000
1000
0000
0001
0010
0001
0010
,
0100
0000
1000
1100
0000
0110
0000
0000
,
1002
0000
0000
0000
,
0020
0000
0000
0030
,
2003
0000
0000
0000
,
3200
0000
0320
0000
,
0032
0000
0000
0000
,
2003
0000
0000
0000
,
0020
0000
0000
0000
,
0000
0000
0000
3030
,
2001
0100
0010
0100
,
3002
0010
1000
0100
,
0203
0010
1000
0010
,
0302
0010
1003
0000
,
1002
0100
0010
0100
,
2003
0010
0001
0100
,
3200
0010
0001
0010
,
2300
3010
2001
0100
,
0000
0001
0000
0010
,
0000
0001
3200
0010
,
0000
1000
0000
0001
,
0000
0000
0010
0000
1300
0100
1000
0100
,
0010
0001
0010
0001
0100
0010
0100
0010
,
1000
0000
0001
0000
1000
0000
0001
0000
0010
0100
0010
0000
0100
1000
0100
0000
,
0010
0001
0010
0000
0001
0100
0001
0000
2000
0000
0000
0000
0000
0000
0000
0000
,
0000
0000
0000
0000
3001
0000
0000
0000
1000
0100
0000
0000
1000
0010
0000
0100
,
0000
0100
0000
0001
0000
1000
0001
0000
0010
0000
0000
0100
0000
0000
1000
0000
,
0000
0010
0000
1000
0000
0000
0001
0000
0010
0000
0100
0000
1000
0000
0001
0010
,
0000
0001
0000
1000
0000
0100
1000
0000
0001
0000
0000
0100
0000
0000
0010
0000
,
1000
0000
0000
0100
0000
0000
0010
0000
0001
0100
0000
0000
0001
0010
0000
0100
,
0000
0100
0000
1000
0000
0001
1000
0000
0010
0000
0000
0100
0000
0000
0001
0000
,
0000
0010
0000
0001
0000
0000
1000
0000
0010
0000
0100
0000
0001
0000
1000
0010
,
0000
1000
0000
0001
0000
0100
0001
0000
1000
0000
0000
0100
0000
0000
0010
0000
,
0001
0000
0000
0010
0000
0010
0000
0100
1000
0000
0100
0000
0001
0000
0100
0000
,
1000
0100
0010
0001
1000
0010
0001
0010
,
0100
0001
0010
0100
0001
0100
1000
0010
,
0100
1000
0100
0001
1000
0001
0010
1000
,
0010
0001
0100
0000
1001
0010
1000
0100
,
0001
1000
0010
0001
0100
0010
0001
0010
,
1000
0001
0100
0010
0110
0010
1000
0100
,
0110
0010
0001
0100
0020
0000
0000
0000
,
0000
0000
0000
0000
0130
0000
0000
0000
0001
0100
0000
0000
0010
1000
0000
0100
,
1000
0001
0000
0010
0000
0100
0010
0000
0001
0000
0000
0100
0000
0000
0001
0000
,
1000
0100
0000
0010
0000
0000
0100
0000
1000
0000
0001
0000
0100
0000
0010
1000
,
0000
0001
0000
0100
0000
0010
1000
0000
0001
0000
0000
0010
0000
0000
0011
0000
,
0100
0000
0000
1000
0000
0000
1100
0000
1000
0010
0000
0000
0100
0001
0000
0010
,
0001
1000
0000
0100
0000
0010
0100
0000
1000
0000
0000
0010
0000
0000
1000
0000
,
0001
0010
0000
0100
0000
0000
0010
0000
0001
0000
1000
0000
0010
0000
0100
0001
,
0000
1000
0000
0010
0000
0100
0001
0000
1000
0000
0000
0100
0000
0000
1100
0000
,
0010
0000
0000
0001
0000
0011
0000
0001
1000
0100
0000
0000
0010
0001
0000
0100
,
0001
1000
0000
0100
0000
1000
0001
0000
0100
0000
0010
1000
0000
0010
0100
0000
,
0001
0010
0000
0100
0000
0010
0001
0000
1000
0000
0001
0000
0100
0000
1000
0100
,
0000
0001
0010
0001
0000
0010
0100
0000
0010
0000
0001
1000
0000
0001
0100
0000
,
0010
0000
1000
0001
0000
1000
0100
0000
0210
0000
0000
0000
0001
0000
0000
0000
,
0000
0000
1300
0010
0120
0000
0001
0000
,
0000
0000
1000
0000
0030
0000
0010
0100
0010
0000
0000
0000
0100
0000
0010
0000
,
1001
0100
2002
3003
,
1000
0100
1000
0100
0010
0001
0010
0001
0200
0000
0000
0000
0000
0000
0000
0000
,
0000
0000
0000
0000
,
0000
0000
0000
0000
,
0300
0000
0000
0000
;

//---------------dance-single - ----------------
#NOTES:
     dance-single:
     :
     Hard:
     9:
     0.616053,0.673038,0.215618,0.469740,0.250271,560.000000,532.000000,28.000000,61.000000,0.000000,0.000000,0.616053,0.673038,0.215618,0.469740,0.250271,560.000000,532.000000,28.000000,61.000000,0.000000,0.000000:
0000
0000
0000
0000
,
0000
0000
0000
0000
,
0000
0000
0000
0000
,
0000
0000
0000
0000
,
0000
0000
0000
0000
,
0000
0000
0000
0000
,
1000
0000
0001
0000
0010
0001
0000
0000
0100
0000
0010
0000
0100
0001
0000
0000
,
1000
0000
0100
0000
0010
0100
0000
0000
1000
0000
0010
0000
0100
0010
0000
0000
,
0100
0000
0001
0000
0100
0001
0000
0000
1000
0000
0010
0000
1000
0010
0000
0000
,
1000
0100
1000
0100
0010
0001
0010
0002
,
0000
0203
0000
2300
0000
3200
0000
0302
,
0000
0000
0023
0000
0000
0000
2030
0000
0000
0000
3010
0100
0000
0100
0020
0000
,
0000
0032
0000
0203
0010
0320
1000
2030
,
0000
3001
0002
1000
1003
0010
0100
0002
,
0010
0013
0100
1000
0001
0100
2000
0000
,
3100
0001
0010
0100
1000
0010
0002
0000
,
0013
1000
0100
0001
0100
1000
0010
1000
,
1010
0101
0110
1002
,
0013
0001
0010
0001
0100
0001
0100
0001
,
0100
0010
0100
0010
1000
0010
1000
0010
,
1000
0100
1000
0100
0010
0100
0010
0100
,
1000
0000
0010
0000
0100
0000
0001
0000
0010
0000
0100
1000
0000
0100
1000
0000
,
0010
0100
0010
0100
0001
0100
0001
0100
,
0001
0010
0001
0010
1000
0010
1000
0010
,
0001
0100
0001
0100
0010
0100
0010
0100
,
0010
0000
1000
0000
0100
0000
0010
0000
0001
0000
1000
0010
0000
1000
0010
0000
,
1000
0100
1000
0001
1000
0010
1000
0001
,
0100
0000
0001
0000
0010
0000
0001
0000
0100
0000
0001
1000
0000
0001
1000
0000
,
0010
1000
0100
1000
0010
1000
0100
1000
,
0001
0000
0010
0000
0001
0000
1000
0000
0001
0000
0010
0100
0000
0010
0100
0000
,
1100
0100
2000
0010
0000
3010
1000
0000
,
1000
0001
0020
0001
0000
0031
0010
0000
,
0110
0100
0020
0001
0000
0031
0100
0000
,
0110
0000
0010
1010
0000
1002
0000
1000
,
2003
0010
0001
0100
,
0002
3000
0000
0000
0100
0000
0000
0000
2000
0000
0000
0000
3003
0000
0000
0000
,
0020
0001
1000
0100
,
2030
0100
0002
3003
,
0200
0001
0010
1000
,
0320
1000
0200
0330
,
0020
2030
3002
0023
,
0230
2300
3002
0203
,
0302
0010
0100
1000
,
0203
0001
0010
1000
,
0020
0300
0000
0000
1000
0000
0000
0000
0001
0000
0000
0000
0100
0000
0000
0000
,
2030
0100
0001
0010
,
3001
0010
0100
1000
,
0001
0100
0010
1000
,
0100
0010
0001
0010
0100
1000
0100
0010
,
0001
0000
0000
1000
0000
0000
2000
0000
3001
0000
0010
0000
0002
0000
0000
0000
,
0103
0001
0200
0000
0310
0001
0020
0000
,
1030
0100
2000
0000
3100
0010
0200
0000
,
0310
1000
0020
0000
0031
1000
0002
0000
,
1003
0001
1000
0000
1002
0000
0103
0000
,
0010
1000
0100
0000
0210
0000
1300
0000
,
0001
0100
0010
0000
1001
0000
0010
0000
,
1001
0100
2002
0000
,
0000
0000
0000
0000
3003
0000
0000
0000
0001
0010
0000
0000
0110
0000
0000
0000
,
1000
0010
1000
0100
0010
0001
0100
0010
,
1000
0100
0110
0000
0100
1000
0100
1000
,
0001
0100
0001
0100
1000
0100
0001
1000
,
0100
0000
0010
0000
1001
0000
0000
0000
0001
0010
0000
0000
1100
0000
0000
0000
,
0100
0001
0100
1000
0001
0010
1000
0010
,
0001
1000
1001
0000
1000
0100
1000
0100
,
0010
0000
0001
0000
1000
0000
0100
0000
0010
0000
0000
0001
0000
0000
1000
0000
,
0100
0000
0000
0001
0000
0100
0000
1000
0001
1000
0000
0000
1001
0000
0000
0001
,
0000
1000
0000
0100
0000
0000
1000
0000
0001
0000
0000
0010
0000
0000
0100
0000
,
0000
0010
0000
0001
0000
0000
0100
0000
0010
0000
1000
0000
0100
0000
1000
0010
,
0000
1000
0000
0100
0000
0010
0001
0000
1000
0000
0000
0100
0000
0000
0010
0000
,
0001
0000
0000
0100
0000
0000
0010
0000
1000
0001
0000
0000
1001
0000
0000
1000
,
0000
0001
0000
0100
0000
0000
0001
0000
1000
0000
0000
0010
0000
0000
0100
0000
,
0000
0001
0000
1000
0000
0000
0100
0000
1000
0000
0100
0000
0010
0000
0001
1000
,
0000
0100
0000
0010
0000
0001
1000
0000
0002
0000
0000
0000
0000
0000
0000
0000
,
0000
0000
0000
1000
1003
0001
1000
0010
,
0100
0001
1000
0001
0100
0010
1000
0100
,
0010
0001
0100
0000
0100
0001
0010
1000
,
0010
0001
1000
0010
0001
0010
1000
0001
,
0010
0100
1000
0000
1000
0010
1000
0100
,
0010
0001
0100
0001
0010
0100
1000
0010
,
0100
0001
1000
0000
1000
0001
0010
0001
,
0100
0010
1000
0100
1000
0001
0100
0001
,
1000
0000
0010
0000
1020
0000
0000
0000
1030
0000
0001
0000
0010
0000
0000
0001
,
0000
1000
0000
0100
0000
0000
0001
0000
0100
0000
0000
1000
0000
0000
0001
0000
,
0000
0010
0000
0100
0000
0000
1000
0000
0010
0000
0001
0000
0010
0000
1000
0001
,
0000
0010
0000
0001
0000
0001
0100
0000
0010
0000
0000
1000
0000
0000
0100
0000
,
0010
0000
0000
0001
0000
0000
1000
0000
2001
0000
0000
0000
3010
0000
0000
1000
,
0000
0001
0000
1000
0000
0000
0010
0000
0210
0000
0000
0301
0000
0000
0010
0000
,
0000
0100
0000
1000
0000
0000
0010
0000
1010
0000
1000
0000
0001
0000
0100
0000
,
0101
0001
0010
0100
1200
0000
0000
0310
,
0001
0100
0010
1000
2002
0000
0000
0000
,
0000
0000
0000
0000
,
0000
0000
0000
0000
,
3003
0000
0000
0000
;

//---------------dance-single - ----------------
#NOTES:
     dance-single:
     :
     Medium:
     8:
     0.463140,0.637615,0.115510,0.277224,0.050054,421.000000,406.000000,15.000000,36.000000,0.000000,0.000000,0.463140,0.637615,0.115510,0.277224,0.050054,421.000000,406.000000,15.000000,36.000000,0.000000,0.000000:
0000
0000
0000
0000
,
0000
0000
0000
0000
,
0000
0000
0000
0000
,
0000
0000
0000
0000
,
0000
0000
0000
0000
,
0000
0000
0000
0000
,
1000
0100
0010
0000
0001
0010
0100
0000
,
1000
0001
0100
0000
0001
1000
0100
0000
,
0010
0001
1000
0000
0010
1000
0001
0000
,
0100
0001
0010
0000
0100
1000
0010
1000
,
0001
0010
0100
0000
1000
0001
0100
0000
,
0010
1000
0100
0000
0010
0001
1000
0000
,
0001
0100
0010
0000
1000
0100
0001
0000
,
0100
1000
0010
0000
0100
0001
1000
0001
,
0010
0100
1000
0000
0001
0100
0010
1000
,
0001
0010
0100
0000
0010
0001
0100
0010
,
1000
0100
0010
0000
0011
0000
1100
1000
,
1010
0000
0101
0010
1000
0100
0001
0100
,
1000
0000
0100
0000
0010
0001
1000
0000
,
0001
0100
0010
0000
1000
0100
1000
0000
,
0001
0010
0100
0000
0010
0001
0100
0000
,
0010
0000
1000
0000
0010
0000
1000
0000
0001
0000
0000
0010
0000
0000
0100
0000
,
1000
0000
0001
0000
0010
0100
1000
0000
,
0001
0100
0010
0000
1000
0100
0001
0000
,
0100
1000
0010
0000
0001
0010
0100
0000
,
0001
0000
0010
0000
0001
0000
0010
0000
0100
0000
0000
1000
0000
0000
0001
0000
,
1000
0000
0010
0000
0100
0001
1000
0000
,
0001
0010
1000
0000
0010
0001
0100
0000
,
0010
1000
0001
0000
0010
0100
1000
0000
,
0001
0000
0100
0000
1000
0000
0100
0000
0001
0000
0000
1000
0000
0000
0100
0000
,
0210
1000
0000
0001
,
0000
1000
0000
0310
,
2001
0100
0000
3010
,
1001
0000
0010
0110
0000
1001
0000
0000
,
0002
0000
0000
0000
,
0203
0000
0000
0000
,
0320
0000
0000
0000
,
2030
0000
3200
0000
,
0320
0000
0000
0000
,
0032
0000
0000
0000
,
0200
0000
0000
0000
,
0000
0000
0000
0303
,
2010
0000
0000
0000
,
0200
0000
3000
0000
,
0020
0000
0300
0000
,
0002
0000
0030
0000
,
2003
0000
3020
0000
,
0230
0000
0302
0000
,
2003
3200
0320
0032
,
0203
0320
2030
0001
,
0000
0001
0000
0001
,
0000
0001
3020
0100
,
0000
0100
0000
0100
,
0000
0130
0001
0001
,
1000
1000
0010
0010
,
0100
0000
0100
0000
0001
0010
0100
1000
,
0001
0010
0100
1000
0020
0000
0000
0000
,
0000
0000
0130
0000
1000
0100
0010
0100
,
1000
0000
0100
0000
0010
0000
0001
0000
1000
0000
0000
0010
0000
0000
0100
0000
,
0000
0001
0000
1000
0000
0000
1000
0000
0001
0000
0010
0000
0100
0000
0010
0000
,
0001
0000
0010
0000
0100
0000
1000
0000
0001
0000
0000
0100
0000
0000
0001
0000
,
1000
0000
0000
0100
0000
0000
1000
0000
0001
0000
0100
0000
0010
0000
0100
0000
,
0001
0000
0100
0000
0010
0000
1000
0000
0001
0000
0000
0100
0000
0000
0010
0000
,
0000
1000
0000
0001
0000
0000
0001
0000
1000
0000
0010
0000
0100
0000
0010
0000
,
1000
0000
0100
0000
0010
0000
0001
0000
1000
0000
0000
0001
0000
0000
0100
0000
,
0220
0000
0330
0000
1000
0010
0100
0010
,
1000
0010
0100
0010
1000
0100
0010
0100
,
1000
0100
0010
0100
1000
0001
0100
0001
,
1000
0001
0100
0001
1000
0100
0010
0001
,
0100
0010
1000
0000
0001
0100
0010
0100
,
0001
0100
0010
0100
0001
0010
0100
0010
,
0001
0010
0100
0010
0001
1000
0100
1000
,
0001
0100
0010
0100
0002
0000
0000
0000
,
0000
1003
0001
0010
,
0001
0100
0010
0000
1000
0100
0010
0000
,
0001
0100
1000
0000
0100
0010
0200
0000
,
0001
0000
0010
0000
0301
0010
0100
0000
,
0010
0001
0100
0001
1000
0000
1010
0000
,
0001
1000
0100
0000
0010
0001
0100
0000
,
0001
1000
0100
1000
0020
0000
0100
0000
,
0001
0000
0100
0000
1030
0100
0010
0001
,
0100
0010
1000
0000
1001
0000
0010
0000
,
1000
0100
0010
0000
0001
0100
0010
0000
,
1000
0100
0001
0000
0200
0000
0010
0000
,
1000
0301
0020
0100
,
0001
1030
1001
0100
,
0000
0000
0100
0010
0110
0000
0001
0000
,
0000
0000
1000
0000
0000
0000
0001
1000
0001
0000
0000
0000
0000
0000
1000
0000
,
0100
0000
0000
0001
0200
0000
0300
0000
,
1000
0100
0001
0010
2000
0000
0000
0000
,
0000
0000
0000
0000
,
0000
0000
0000
0000
,
3000
0000
0000
0000
;

//---------------dance-single - ----------------
#NOTES:
     dance-single:
     :
     Easy:
     5:
     0.320127,0.495923,0.100109,0.231020,0.000000,291.000000,278.000000,13.000000,30.000000,0.000000,0.000000,0.320127,0.495923,0.100109,0.231020,0.000000,291.000000,278.000000,13.000000,30.000000,0.000000,0.000000:
0000
0000
0000
0000
,
0000
0000
0000
0000
,
0000
0000
0000
0000
,
0000
0000
0000
0000
,
0000
0000
0000
0000
,
0000
0000
0000
0000
,
1000
1000
0001
0001
,
1000
1000
0001
0001
,
0010
0100
1000
0001
,
0100
0010
1000
0000
,
0001
0001
1000
1000
,
0001
0001
1000
1000
,
0010
0100
0001
0010
,
0100
1000
0001
0000
,
1001
1000
0100
1000
,
1001
0001
0100
0001
,
1001
0100
1001
0100
,
1001
0110
1001
0000
,
0001
0010
0001
0100
,
0010
1000
0100
0010
,
0100
1000
0010
0100
,
0002
2003
3002
2003
,
3100
0100
1000
0100
,
1000
0001
0010
0001
,
0100
0001
1000
0100
,
2000
3002
2003
3002
,
0103
0100
0010
0100
,
0001
0001
1000
1000
,
0001
0010
0001
1000
,
0200
0320
0230
0320
,
0031
1000
0000
0010
,
0000
0100
0000
0001
,
1001
1000
0000
0100
,
0110
0000
0000
1000
0000
0001
0000
0000
,
2000
0000
0000
0000
,
3020
0000
0000
0000
,
0230
0000
0000
0000
,
0302
0000
2003
0000
,
3002
0000
0000
0000
,
0023
0000
0000
0000
,
0230
0000
0000
0000
,
0000
0000
0000
0300
,
1000
0100
1000
0001
,
1000
0010
0100
0000
,
0001
0100
0001
1000
,
0001
0010
0100
0000
,
1000
0010
1000
0100
,
0010
0001
0100
0001
,
1000
0010
0100
0001
,
0010
0100
1000
0001
,
0000
0010
0000
0001
,
0000
0100
0000
0010
,
0000
1000
0000
0100
,
0000
1000
0001
0010
,
0000
0001
0100
0010
,
0000
1000
0100
0001
,
0100
1000
0020
0000
,
0000
0030
0100
0100
,
0001
1000
0001
0010
,
0100
1000
0001
0001
,
1000
0001
0100
0010
,
1000
0000
0100
0100
,
1000
0001
1000
0010
,
0100
0001
1000
1000
,
0001
0010
0100
1000
,
0002
0000
1003
0001
,
0100
0100
0010
1000
,
0100
0100
0010
0100
,
1000
0010
1000
0001
,
0100
0000
0001
1000
,
0010
0010
1000
0100
,
0010
0010
0001
0100
,
0001
1000
0020
0000
,
0200
0330
0001
0001
,
1000
0000
0100
0000
1000
0001
1000
0000
,
0100
0100
1000
0010
,
0100
0010
1000
0001
,
0010
0100
0010
0000
0001
0000
0000
0000
,
1000
0000
0001
0000
0100
0001
0100
0000
,
0010
1000
0100
0001
,
0100
1000
0001
1000
,
0010
0000
0100
0001
,
0010
0000
0001
0000
1000
0100
1000
0000
,
0100
0100
0010
0001
,
0100
0001
1000
0010
,
0100
0001
0100
0000
0020
0000
0000
0000
,
0030
0000
0000
1000
2000
0000
0000
0000
,
3000
0001
0000
0000
1001
0000
0000
0000
,
0110
0000
2002
0000
,
0000
3003
0220
0000
,
0000
0000
0000
0000
,
0000
0000
0000
0000
,
0330
0000
0000
0000
;

//---------------dance-single - ----------------
#NOTES:
     dance-single:
     :
     Beginner:
     3:
     0.191416,0.389653,0.200217,0.238720,0.000000,174.000000,148.000000,26.000000,31.000000,0.000000,0.000000,0.191416,0.389653,0.200217,0.238720,0.000000,174.000000,148.000000,26.000000,31.000000,0.000000,0.000000:
0000
0000
0000
0000
,
0000
0000
0000
0000
,
0000
0000
0000
0000
,
0000
0000
0000
0000
,
0000
0000
0000
0000
,
0000
0000
0000
0000
,
1000
0000
0001
0000
,
1000
0000
0001
0000
,
0100
0000
0001
0000
,
1000
0000
1001
0000
,
1000
0000
1000
0000
,
0100
0000
0100
0000
,
1000
0000
0001
0000
,
1000
0000
0001
0000
,
1001
0000
0000
0000
,
0110
0000
0000
0000
,
1001
0000
0110
0000
,
1001
1001
1001
0000
,
1000
1000
1000
0000
,
0001
0000
0100
0000
,
0001
0000
0010
0000
,
0100
0100
0100
0000
,
1000
0000
0001
0000
,
1000
0000
0010
0000
,
0100
0000
0001
0000
,
1000
1000
1000
0000
,
0001
0000
0010
0000
,
0001
0000
0100
0000
,
0010
0000
1000
0000
,
0001
0001
0001
0000
,
1001
0000
0000
0000
,
0100
0000
0000
0000
,
1001
0000
0000
0000
,
2002
0000
0000
3000
0000
0003
0000
0000
,
2000
0000
3000
0000
,
0200
0000
0300
0000
,
0020
0000
0000
0000
,
0000
0000
0030
0000
,
0002
0000
0003
0000
,
2000
0000
3000
0000
,
0020
0000
0000
0000
,
0000
0000
0030
0000
,
0200
0000
0000
0300
,
0002
0000
0000
0003
,
2000
0000
0000
0000
,
3000
0000
0000
0000
,
0002
0000
0000
0003
,
0020
0000
0000
0030
,
0200
0000
0000
0000
,
0000
0000
0000
0000
0000
0000
0000
0000
0000
0000
0000
0000
0000
0000
0000
0000
0000
0000
0000
0000
0000
0000
0000
0000
0000
0000
0000
0000
0000
0000
0000
0300
0000
0000
0000
0000
0000
0000
0000
0000
0000
0000
0000
0000
0000
0000
0000
0000
0000
0000
0000
0000
0000
0000
0000
0000
0000
0000
0000
0000
0000
0000
0000
0000
,
0000
0000
0000
0000
,
0000
0000
0000
0000
,
0000
0000
0000
0000
,
0000
0000
1001
0000
,
0000
0000
0110
0000
,
0000
0000
1001
0000
,
0110
0000
2002
0000
,
3003
0000
1000
0000
,
0001
0000
1000
1000
,
1000
0000
0001
0000
,
1000
0000
0001
0001
,
0001
0000
0010
0000
,
0001
0000
0010
0010
,
0010
0000
0100
0000
,
1000
0000
0010
0010
,
0020
0030
1000
1000
,
1000
0000
0001
0001
,
0001
0000
0010
0010
,
0010
0000
0100
0100
,
0100
0100
1001
0000
,
0010
0000
0100
0000
,
0010
0000
1001
0000
,
0110
0000
2002
0000
,
3003
0000
1000
0000
,
0001
0000
0100
0000
,
0001
0000
0010
0000
,
0100
0000
1000
0100
,
1000
0000
0001
0000
,
0100
0000
0001
0000
,
0010
0000
0100
0000
,
1000
0000
0010
1000
,
0010
0000
0100
0100
,
0100
0000
0001
1000
,
0001
0000
0001
0001
,
0001
0000
1000
0001
,
1000
0000
2002
3003
,
0000
0000
0220
0330
,
0000
0000
2002
3003
,
0220
0330
2002
0000
,
3003
0000
0220
0000
,
0000
0000
0000
0000
,
0000
0000
0000
0000
,
0330
0000
0000
0000
;

//---------------dance-double - ----------------
#NOTES:
     dance-double:
     :
     Hard:
     9:
     0.588551,0.673038,0.207918,0.338829,0.277224,535.000000,508.000000,27.000000,44.000000,0.000000,0.000000,0.588551,0.673038,0.207918,0.338829,0.277224,535.000000,508.000000,27.000000,44.000000,0.000000,0.000000:
00000000
00000000
00000000
00000000
,
00000000
00000000
00000000
00000000
,
00000000
00000000
00000000
00000000
,
00000000
00000000
00000000
00000000
,
00000000
00000000
00000000
00000000
,
00000000
00000000
00000000
00000000
,
00010000
00000000
00100000
00000000
00001000
00010000
00000000
00000000
00000100
00000000
00001000
00000000
00000001
00000000
00000000
00000001
,
00000000
00000000
00001000
00000000
00000100
00010000
00000000
00001000
00000000
00000000
00100000
00000000
00010000
00000000
01000000
00000000
,
10000000
01000000
00010000
00100000
00101000
00000000
00010100
00000000
,
01001000
00000000
00010010
00000000
00001000
00000100
00000010
00000002
,
00000000
00000203
00000000
00002300
00000000
00023000
00000000
02030000
,
00000000
23000000
00000000
30200000
00000000
00320000
00000000
00032000
,
00000000
00003020
00000000
00000032
00001000
00002003
00000100
00003200
,
00010000
00010300
00011000
00000000
01001000
00000000
00010000
00001000
,
00101000
00100000
00010000
10000000
01000000
00010000
00002000
00000000
,
00003100
00000001
00000010
00000100
00010000
00001000
00000020
00000000
,
00000130
00010000
00001000
00000010
00001000
00010000
00100000
10000000
,
10100000
01010000
01100000
10010000
,
10000000
00100000
10000000
00100000
01000000
00010000
01000000
00010000
,
00100000
00001000
00100000
00001000
00010000
00000100
00010000
00000100
,
00001000
00000010
00001000
00000010
00000100
00000001
00000100
00000001
,
00001000
00000000
00000010
00000000
00000100
00000000
00000001
00000000
00000010
00000000
00000100
00001000
00000000
00000100
00001000
00000000
,
00000001
00000100
00000001
00000100
00000010
00001000
00000010
00001000
,
00000100
00010000
00000100
00010000
00001000
00100000
00001000
00100000
,
00010000
01000000
00010000
01000000
00100000
10000000
00100000
10000000
,
00010000
01000000
00001000
00010000
00100000
10000000
01000000
00100000
,
00110000
00000000
00001000
00010000
01000000
00100000
00010000
10000000
,
01000000
00010000
00001000
00000100
00000001
00001000
00000010
00000100
,
00000001
00000000
00001000
00000100
00000010
00000100
00010000
00001000
,
00100000
00010000
01000000
00100000
10000000
01000000
00010000
00001000
,
00012000
00010000
00000000
00010000
,
00003200
00000001
00000000
00000301
,
00001001
00000001
00000010
00001000
,
00011000
00000000
00000000
00010000
00000000
00100000
10000000
00000000
,
20020000
00000000
00000000
00000000
,
00030000
00000000
32000000
00000000
,
00020000
00000000
03000000
00000000
,
00002000
00000000
00030000
00000000
,
00003200
00000000
00000000
00000000
00000301
00001000
00000001
00001000
,
00000000
00000200
00000000
00000000
00000000
00000000
00020300
00000000
,
00032000
00203000
00320000
02030000
,
03200000
20300000
30020000
00130000
,
00201000
00001000
00001000
00301000
,
00002000
00010000
00010000
00013000
,
00020000
00000100
00000100
00030100
,
00000200
00000000
00000020
00000330
,
00000001
00000010
00000100
00001000
,
00010000
00100000
01000000
10000000
,
00010000
00100000
01000000
10000000
00100000
01000000
00010000
00100000
,
00001000
00000000
00000000
00010000
00000000
00000000
00000200
00000000
00000310
00000000
00000001
00000000
00001000
00000000
00000000
00000100
,
00000000
00000100
00000000
00000000
00010000
00000000
00001000
00000000
00100000
00000000
00000000
00010000
00000000
00000000
01000000
00000000
,
10000000
01000000
00010000
00100000
00001000
00010000
00000010
00001000
,
00000001
00000100
00001000
00010000
01000000
00000000
10010000
00000000
,
00100000
00000000
00000000
00000000
00011000
00000000
00000000
00000000
00000100
00000000
00000001
00000000
00001000
00000000
00000000
00000010
,
00000000
00000010
00000000
00000000
00000100
00000000
00000000
00000000
00001000
00000000
00000000
00010000
00000000
00000000
01000000
00000000
,
00100000
00010000
10000000
00100000
10000000
01000000
00010000
00001000
,
00000100
00000000
00000001
00000000
00001000
00000000
00000010
00000000
00000100
00000000
00000000
00000010
00000000
00000000
00010000
00000000
,
00001000
00000000
00000000
00100000
00000000
00010000
00000000
10000000
00010000
10000000
00000000
00000000
01100000
00000000
00000000
00000000
,
10000000
00000000
01000000
00000000
00100000
00000000
00010000
00000000
10000000
00000000
00000000
01000000
00000000
00000000
00010000
00000000
,
00001000
00000000
00000000
00000100
00000000
00000000
00000001
00000000
00001000
00000000
00000100
00000000
00010000
00000000
00001000
00000000
,
00000010
00000000
00000001
00000000
00001000
00000000
00000001
00000000
00000100
00000000
00000000
00000001
00000000
00000000
00000010
00000000
,
00001000
00000000
00000000
00010000
00000000
00000000
00100000
00000000
10000000
00010000
00000000
00000000
01000000
00100000
00000000
00000000
,
10000000
00000000
00010000
00000000
00100000
00000000
00010000
00000000
01000000
00000000
00000000
00001000
00000000
00000000
00010000
00000000
,
00000010
00000000
00000000
00001000
00000000
00000000
00000001
00000000
00000010
00000000
00001000
00000000
00010000
00000000
00000100
00000010
,
00000000
00000000
00000001
00000000
00000100
00000000
00001000
00000000
00010000
00000000
00000000
01000000
00000000
00000000
00100000
00000000
,
00010000
00000000
00000000
10000000
00000000
01000000
00000000
00100000
00001000
00100000
00000000
00000000
00001000
00010000
00000000
00000100
,
00000000
00000010
00000000
00000100
00000000
00000000
00001000
00000000
00000001
00000000
00000000
00000010
00000000
00000000
00000100
00000000
,
00000000
00010000
00000000
00001000
00000000
00000000
00100000
00000000
00010000
00000000
10000000
00000000
01000000
00000000
00100000
00010000
,
00000000
10000000
00000000
00100000
00000000
01000000
00001000
00000000
00010000
00000000
00000000
00000100
00000000
00000000
00001000
00000000
,
00000001
00000000
00000000
00000010
00000000
00000000
00001000
00000000
00010000
00000010
00000000
00000000
00010000
00001000
00000000
01000000
,
00000000
00100000
00000000
01000000
00000000
00000000
00010000
00000000
10000000
00000000
00000000
00100000
00000000
00000000
01000000
00000000
,
00000000
00001000
00000000
00010000
00000000
00000000
00000010
00000000
00001000
00000000
00000001
00000000
00000100
00000000
00000010
00001000
,
00000000
00000001
00000000
00000010
00000000
00000100
00010000
00000000
00002000
00000000
00000000
00000000
00000000
00000000
00000000
00000000
,
00000000
00000000
00000000
00100000
00103000
00010000
10000000
00100000
,
01000000
00010000
10000000
00100000
01000000
00001000
00010000
00000100
,
00000010
00000001
00000100
00000000
00000100
00000001
00000010
00001000
,
00010000
00001000
00000100
00001000
00010000
00100000
10000000
00010000
,
00100000
01000000
10000000
00000000
00010000
10000000
00100000
01000000
,
00010000
10000000
01000000
00100000
00001000
00010000
00000010
00000100
,
00000001
00000010
00000100
00000000
00001000
00000001
00000010
00000001
,
00000100
00001000
00010000
01000000
10000000
00100000
01000000
00010000
,
00100000
00000000
00000000
00001000
00000000
00010000
00000000
00000100
00000010
00000000
00000000
00000000
00001001
00000000
00000000
00001000
,
00000000
00000001
00000000
00000100
00000000
00000000
00001000
00000000
00010000
00000000
00000000
00100000
00000000
00000000
10000000
00000000
,
00000000
00010000
00000000
00100000
00000000
00000000
01000000
00000000
10000000
00000000
00100000
00000000
00010000
00000000
00000000
00001000
,
00000000
00000010
00000000
00000001
00000000
00000001
00001000
00000000
00000100
00000000
00000000
00010000
00000000
00000000
00001000
00000000
,
01000000
00000000
00000000
00010000
00000000
00000000
10000000
00000000
20010000
00000000
00000000
00000000
00010000
00000000
00000000
00000000
,
00000000
00000000
30010000
00100000
00102000
00000000
00010000
00000000
,
00000000
00000000
00013000
00000100
00000110
00000010
00000001
00001000
,
00001010
00000010
00010000
00001000
00012000
00000000
00000000
00103000
,
00010000
01000000
00100000
10000000
20020000
00000000
00000000
00000000
,
00000000
00000000
00000000
00000000
,
00000000
00000000
00000000
00000000
,
30030000
00000000
00000000
00000000
;

//---------------dance-double - ----------------
#NOTES:
     dance-double:
     :
     Challenge:
     10:
     0.643555,0.850153,0.177115,0.192517,0.662257,585.000000,562.000000,23.000000,25.000000,0.000000,0.000000,0.643555,0.850153,0.177115,0.192517,0.662257,585.000000,562.000000,23.000000,25.000000,0.000000,0.000000:
// measure 0
00000000
00000000
00000000
00000000
,  // measure 1
00000000
00000000
00000000
00000000
,  // measure 2
00000000
00000000
00000000
00000000
,  // measure 3
00000000
00000000
00000000
00000000
,  // measure 4
00000000
00000000
00000000
00000000
,  // measure 5
00000000
00000000
00000000
00000000
,  // measure 6
00000001
00000000
00001000
00000000
00000001
00000010
00000000
00000000
00000100
00000000
00010000
00000000
00001000
00100000
00000000
00010000
,  // measure 7
00000000
00000000
10000000
00000000
00010000
00100000
00000000
01000000
00100000
00000000
00001000
00010000
00000100
00010000
00001000
00010000
,  // measure 8
00000010
00000000
00001000
00000000
00000001
00000100
00000001
00000100
00000010
00000000
00000000
00000000
00010010
00000000
00000000
00000000
,  // measure 9
00010000
00001000
00100000
00010000
01000000
10000000
00010000
00100000
,  // measure 10
10000000
00000000
00010000
00000000
10000000
00100000
00000000
00000000
01000000
00000000
00001000
00000000
00010000
00000010
00000000
00001000
,  // measure 11
00000000
00000000
00000001
00000000
00001000
00000010
00000000
00000100
00000001
00000000
00000010
00000000
00001000
00000000
00010000
00000000
,  // measure 12
00100000
00000000
10000000
00000000
00010000
00000000
01000000
00000000
00100000
10000000
00100000
00000000
01000000
00001000
00000000
00001000
,  // measure 13
00010000
00000010
00000110
00000000
00001000
00000001
00000010
00000001
,  // measure 14
00000101
00000000
00000100
00000000
00000010
00010000
00001000
00000000
00100000
00000000
00010000
00000000
10000000
00000000
01000000
00000000
,  // measure 15
00100000
00001000
00100000
00000000
00001000
00010000
00001000
00010000
00000010
00001000
00000010
00000000
00000100
00000000
00000001
00000000
,  // measure 16
00000011
00001010
00011000
01010000
,  // measure 17
01000000
10000000
01000000
00000000
10000000
00100000
10000000
00000000
00100000
01000000
00100000
00000000
01000000
00010000
01000000
00000000
,  // measure 18
00100000
00000000
10000000
00000000
00100000
00010000
00001000
00000020
,  // measure 19
00000000
00000031
00001000
00000001
00000100
00001000
00010000
00200000
,  // measure 20
00000000
10300000
00010000
00000000
10000000
01000000
00100000
00010000
,  // measure 21
10000000
00100000
10000000
00000000
00010000
00100000
00010000
00100000
00001000
00000000
00010000
00000100
00000000
00001000
00000010
00000000
,  // measure 22
00000100
00000000
00000001
00000000
00000010
00001000
00010000
00200000
,  // measure 23
00000000
10300000
00010000
10000000
01000000
00010000
00001000
00000020
,  // measure 24
00000000
00000031
00001000
00000002
00000000
00000103
00001000
00010000
,  // measure 25
00100000
10000000
00100000
00000000
10000000
01000000
00000000
00100000
00010000
00100000
00000000
00001000
00010000
00000100
00010000
00001000
,  // measure 26
00000010
00000000
00000001
00000000
00000100
00001000
00010000
00001000
,  // measure 27
00000000
00000010
00000100
00000000
00010000
00001000
00100000
00010000
,  // measure 28
10000000
00000000
01000000
00000000
00010000
00001000
00000100
00000001
,  // measure 29
00001000
00000010
00001000
00000000
00000001
00000100
00000000
00000010
00010000
00000000
00001000
00100000
00000000
00010000
01000000
00000000
,  // measure 30
01100000
10000000
00100000
00010000
,  // measure 31
00001000
00000100
00000001
00000010
,  // measure 32
00000001
00000100
00000010
00001000
00000100
00010000
00001000
00100000
,  // measure 33
00110000
00000000
00010000
00000000
10000000
00000000
10100000
00000000
00100000
00000000
01100000
00000000
01000000
00001000
01000000
00001000
,  // measure 34
00020000
00000000
00000000
00000000
,  // measure 35
00002000
00000000
00030000
00000000
,  // measure 36
00000020
00000000
00003000
00000000
,  // measure 37
00000002
00000000
00000030
00000000
,  // measure 38
00002003
00000000
00023000
00000000
,  // measure 39
20030000
00000000
00000000
00000000
,  // measure 40
02000000
00000000
30000000
00000000
,  // measure 41
03020000
00000000
00000000
00030000
,  // measure 42
00102000
00010000
00100000
00010000
,  // measure 43
00003020
00000001
00000100
00001000
,  // measure 44
00000230
00010000
00000010
00001000
,  // measure 45
00020300
00001000
00000010
00001000
,  // measure 46
00230000
00000000
10300000
10000000
,  // measure 47
00010000
00010000
00001000
00001000
,  // measure 48
00000001
00000000
00000000
00000000
00000001
00000000
00000000
00000000
00000100
00000000
00000000
00000010
00000000
00001000
00000001
00000000
,  // measure 49
00001000
00000000
00000000
00000001
00000000
00000000
00000200
00000000
00001300
00000000
00000000
00000000
00101000
00000000
00000000
00100000
,  // measure 50
00000000
00010000
00000000
00000000
01000000
00000000
00100000
00000000
10000000
00000000
00000000
01000000
00000000
00000000
00010000
00000000
,  // measure 51
00000000
00001000
00000000
00000100
00000000
00000000
00000001
00000000
00001000
00000000
00000010
00000000
00010000
00000000
00001000
01000000
,  // measure 52
00000000
00100000
00000000
00100000
00000000
00100000
10000000
00000000
01000000
00000000
00000000
00100000
00000000
00000000
00001000
00000000
,  // measure 53
00010000
00000000
00000000
00000100
00000000
00000000
00000010
00000000
00000110
00000000
00000000
00000000
00001001
00000000
00000000
00000010
,  // measure 54
00000000
00010000
00000000
00001000
00000000
00000000
00100000
00000000
00010000
00000000
00000000
01000000
00000000
00000000
00100000
00000000
,  // measure 55
10000000
00000000
00000000
00010000
00000000
00000000
01000000
00000000
00001000
00100000
00001000
00000000
00010000
00001000
00010000
00000000
,  // measure 56
00000010
00010000
00000010
00000000
00001000
00000001
00001000
00000001
00000200
00000000
00000000
00000000
00000000
00000000
00000000
00000000
,  // measure 57
00000000
00000000
00000000
00000000
00000300
00000000
00000000
00000000
00000001
00000010
00000000
00000000
00001000
00000010
00000000
00000100
,  // measure 58
00000000
00000100
00000000
00010000
00000000
00001000
00100000
00000000
00010000
00000000
00000000
10000000
00000000
00000000
01000000
00000000
,  // measure 59
00000000
00010000
00000000
00001000
00000000
00000000
00000100
00000000
00000001
00000000
00001000
00000000
00000001
00000000
00000010
00001000
,  // measure 60
00000000
00010000
00000000
00000100
00000000
00010000
00001000
00000000
00101000
00000000
00000000
00000000
01010000
00000000
00000000
00000000
,  // measure 61
10100000
00000000
00000000
00000000
10010000
00000000
00000000
00000000
10000000
00100000
00000000
00000000
00010000
00100000
00000000
01000000
,  // measure 62
00000000
01000000
00000000
00001000
00000000
00010000
00000010
00000000
00001000
00000000
00000000
00000001
00000000
00000000
00000100
00000000
,  // measure 63
00000000
00001000
00000000
00010000
00000000
00000000
01000000
00000000
10000000
00000000
00010000
00000000
10000000
00000000
00100000
00010000
,  // measure 64
00000000
00001000
00000000
01000000
00000000
00001000
00010000
00000000
00000010
00000000
00000000
00001000
00000000
00000000
00000001
00000000
,  // measure 65
00000100
00000000
00000000
00001000
00000000
00010000
00000000
00100000
10000000
00010000
00000000
00000000
00010000
01000000
00000000
00100000
,  // measure 66
00000000
00100000
00000000
10000000
00000000
01000000
00010000
00000000
00001000
00000000
00000000
00000010
00000000
00000000
00000001
00000000
,  // measure 67
00000000
00001000
00000000
00000100
00000000
00000000
00000010
00000000
00001000
00000000
00010000
00000000
00010000
00000000
00000100
00000010
,  // measure 68
00000000
00000001
00000000
00000001
00000000
00000100
00000010
00000000
00001000
00000000
00000000
00000001
00000000
00000000
00000100
00000000
,  // measure 69
00001000
00000000
00000000
00010000
00000000
00000000
00100000
00000000
10000000
00010000
00000000
00000000
00010000
00100000
00000000
01000000
,  // measure 70
00000000
01000000
00000000
10000000
00000000
00100000
00010000
00000000
00001000
00000000
00000000
00000100
00000000
00000000
00000001
00000000
,  // measure 71
00000000
00001000
00000000
00000010
00000000
00000000
00000100
00000000
00001000
00000000
00010000
00000000
00010000
00000000
00000010
00000100
,  // measure 72
00000000
00000001
00000000
00000010
00000000
00000010
00000100
00000000
00002000
00000000
00000000
00000000
00000000
00000000
00000000
00000000
,  // measure 73
00000000
00000000
00000000
00000000
00003001
00000000
00000000
00000000
00001000
00000010
00000000
00000000
00000001
00000010
00000000
00001000
,  // measure 74
00000001
00001000
00000000
00000100
00000000
00010000
00001000
00000000
00100000
00000000
00010000
00000000
01000000
00000000
00100000
00000000
,  // measure 75
10000000
00000000
01000000
00000000
00010000
00000000
00001000
00000000
00100000
00000000
00010000
00000000
01000000
00000000
00100000
10000000
,  // measure 76
00000000
10000000
00000000
10000000
00000000
10000000
00010000
00000000
00001000
00000000
00000000
00000100
00000000
00000000
00000010
00000000
,  // measure 77
00000001
00000000
00000000
00000100
00000000
00000000
00000010
00000000
00001000
00000100
00000000
00000000
00000001
00000100
00000000
00001000
,  // measure 78
00000001
00001000
00000000
00000010
00000000
00010000
00001000
00000000
01000000
00000000
00010000
00000000
00100000
00000000
01000000
00000000
,  // measure 79
10000000
00000000
00100000
00000000
00010000
00000000
00001000
00000000
01000000
00000000
00010000
00000000
00100000
00000000
01000000
10000000
,  // measure 80
00000000
00010000
00000000
00100000
00000000
01000000
00010000
00000000
00001000
00000000
00000000
00000010
00000000
00000000
00000001
00000000
,  // measure 81
00001000
00000000
00000000
00000001
00000000
00000000
00000100
00000010
00001000
00000010
00000000
00010000
00001000
00010000
00000000
00001000
,  // measure 82
00000000
00100000
00000000
00010000
00000000
10000000
01000000
00000000
00100000
00000000
00010000
01000000
00000000
00010000
00100000
00000000
,  // measure 83
00001000
00010000
00000000
00000100
00001000
00000000
00000010
00000000
00000100
00000000
00000001
00000000
00000001
00000000
00001000
00000100
,  // measure 84
00000000
00000100
00000000
00000100
00000000
00000100
00010000
00000000
00001000
00000000
00100000
00010000
00000000
01000000
00010000
00000000
,  // measure 85
00100000
00000000
01000000
10000000
00000000
00100000
01000000
00000000
01200000
00000000
00000000
00000000
10000000
00000000
00000000
00000000
,  // measure 86
00000000
00000000
00310000
00001000
00021000
00000000
00000100
00000000
,  // measure 87
00000000
00030100
00000010
00000001
00001001
00000000
00000000
00000100
,  // measure 88
00011000
00000000
00000000
00100000
10000000
01000000
00010000
00001000
,  // measure 89
00000100
00000001
00000010
00001000
00020000
00000000
00000000
00000000
,  // measure 90
00000000
00000000
00000000
00000000
,  // measure 91
00000000
00000000
00000000
00000000
,  // measure 92
00030000
00000000
00000000
00000000
;

//---------------dance-double - ----------------
#NOTES:
     dance-double:
     :
     Medium:
     8:
     0.466440,0.602192,0.123211,0.207918,0.050054,424.000000,408.000000,16.000000,27.000000,0.000000,0.000000,0.466440,0.602192,0.123211,0.207918,0.050054,424.000000,408.000000,16.000000,27.000000,0.000000,0.000000:
00000000
00000000
00000000
00000000
,
00000000
00000000
00000000
00000000
,
00000000
00000000
00000000
00000000
,
00000000
00000000
00000000
00000000
,
00000000
00000000
00000000
00000000
,
00000000
00000000
00000000
00000000
,
10000000
01000000
00100000
00000000
00010000
00100000
01000000
00000000
,
10000000
00010000
01000000
00000000
00001000
00010000
00000100
00000000
,
00000010
00000001
00001000
00000000
00000010
00001000
00000001
00000000
,
00000100
00000010
00010000
00000000
00001000
01000000
00100000
10000000
,
00010000
00100000
01000000
00000000
10000000
00010000
01000000
00000000
,
00100000
10000000
01000000
00000000
00010000
00001000
00000100
00000000
,
00000001
00001000
00000010
00000000
00010000
00001000
00000100
00000000
,
00001000
00010000
00100000
00000000
10000000
00010000
01000000
00010000
,
10000000
00100000
01000000
00000000
00010000
00100000
00001000
00010000
,
00000010
00001000
00000001
00000000
00000100
00000010
00010000
00001000
,
01001000
01010000
10100000
10010000
,
10000000
01000000
00100000
00010000
00001000
00000100
00000010
00000001
,
00001000
00000000
00000100
00000000
00000010
00000001
00001000
00000000
,
00000100
00010000
00001000
00000000
00100000
00010000
00100000
00000000
,
01000000
10000000
00010000
00000000
00100000
00001000
00010000
00000000
,
00000010
00000000
00001000
00000000
00000010
00000000
00010000
00000000
00001000
00000000
00000000
01000000
00000000
00000000
00100000
00000000
,
10000000
00000000
00010000
00000000
00100000
01000000
10000000
00000000
,
00010000
01000000
00100000
00000000
10000000
01000000
00010000
00000000
,
00001000
00000100
00000001
00000000
00000010
00000001
00000100
00000000
,
00000010
00000000
00001000
00000000
00000010
00000000
00001000
00000000
00000100
00000000
00000000
00010000
00000000
00000000
00001000
00000000
,
00100000
00000000
00010000
00000000
01000000
00010000
10000000
00000000
,
00010000
00100000
01000000
00000000
00010000
00001000
00000100
00000000
,
00000010
00001000
00000001
00000000
00000010
00000100
00010000
00000000
,
00001000
00000100
00000001
00000100
00001000
00000000
00010000
01000000
,
20000000
00100000
00000000
00100000
,
00000000
30020000
00100000
00000000
,
00230000
00000000
00301000
00000000
,
00011000
00000000
00000000
00001100
00000000
00000101
00000000
00000000
,
00000002
00000000
00000000
00000000
,
00000203
00000000
00000000
00000000
,
00000320
00000000
00000000
00000000
,
00002030
00000000
00023000
00000000
,
02030000
00000000
00000000
00000000
,
03200000
00000000
00000000
00000000
,
20000000
00000000
00000000
00000000
,
00000000
00000000
00000000
30300000
,
10010000
01000000
00000000
01000000
,
00010000
00100000
00000000
00100000
,
00001000
00010000
00000000
00010000
,
00000100
00001000
00000000
00001000
,
00000002
00000000
00000023
00000000
,
00000230
00000000
00002300
00000000
,
00023000
00230000
02300000
23000000
,
30200000
02300000
03010000
10000000
,
00010000
01000000
00100000
00000000
10000000
00000000
00010000
00000000
,
00100000
00001000
00010000
00000100
,
00000010
00000001
00001000
00000000
00000001
00000000
00000100
00000000
,
00000010
00001000
00001001
00000001
,
00001000
00010000
00011000
00001000
,
00010000
00000000
10000000
00000000
10010000
10000000
01000000
00100000
,
00010000
10000000
00100000
01000000
00002000
00000000
00000000
00000000
,
00000000
00000000
00013000
00000000
00000010
00001000
00000001
00001000
,
00000010
00010000
00001000
00000000
00100000
00000000
00010000
10000000
,
00100000
00000000
00000000
10000000
00000000
00000000
01000000
00000000
00100000
00000000
00010000
00000000
10000000
00000000
00010000
00000000
,
00100000
00001000
00010000
00000000
00000010
00000000
00001001
00000000
,
00000100
00000000
00001001
00000000
00000100
00001000
00000001
00001000
,
00000100
00010000
00001000
00000000
01000000
00000000
00010000
10000000
,
01000000
00000000
00000000
10000000
00000000
00000000
00100000
00000000
01000000
00000000
00010000
00000000
10000000
00000000
00010000
00000000
,
01000000
00001000
00010000
00000000
00000100
00000000
00001001
00000000
,
00000010
00000000
00000000
00000001
00000000
00000000
00001000
00000000
00000100
00000000
00000010
00000000
00000100
00000000
00001000
00000000
,
00000100
00000000
00000010
00000000
00000100
00000000
00010000
00000000
00001000
00000000
00000000
00100000
00000000
00000000
01000000
00000000
,
00000000
10000000
00000000
00010000
00000000
00000000
10000000
00000000
00010000
00000000
01000000
00000000
00100000
00000000
01000000
00000000
,
00010000
00000000
01000000
00000000
00100000
00000000
01000000
00000000
00001000
00000000
00000000
00010000
00000000
00000000
00000100
00000000
,
00000010
00000000
00000000
00000001
00000000
00000000
00001000
00000000
00000010
00000000
00000100
00000000
00000010
00000000
00001000
00000000
,
00000010
00000000
00000100
00000000
00000010
00000000
00010000
00000000
00001000
00000000
00000000
01000000
00000000
00000000
00100000
00000000
,
00000000
10000000
00000000
00010000
00000000
00000000
10000000
00000000
00010000
00000000
00100000
00000000
01000000
00000000
00100000
00000000
,
00010000
00100000
01000000
00100000
00002000
00000000
00000000
00000000
,
00000000
00013000
00000010
00001000
,
00000001
00000100
00000010
00000000
00001000
00000100
00000010
00000000
,
00001000
00010000
00100000
00000000
10000000
00010000
10000000
00000000
,
01000000
00010000
00001000
00010000
00100000
00000000
00010000
00001000
,
00000010
00000001
00001000
00000100
00010000
00000000
00100000
00000000
,
10000000
01000000
00100000
00000000
00010000
01000000
00100000
00000000
,
00010000
00001000
00000010
00000000
00000001
00001000
00000001
00000000
,
00000100
00001000
00010000
00001000
00000010
00000000
00001000
00010000
,
00100000
10000000
10010000
00100000
,
10000000
01000000
00100000
00000000
00001000
00010000
01000000
00000000
,
00010000
00001000
00000100
00000000
00000020
00000000
00000001
00000000
,
00000100
00001030
00000200
00000010
,
00001000
00010300
00011000
00100000
,
00000000
00000000
00000000
00100000
01000000
00000000
00000000
00000000
,
00000000
10000000
00000000
01000000
00010000
00000000
00000000
00010000
,
00001000
00000000
00000000
00001000
00000200
00000000
00000300
00000000
,
00000010
00001000
00000001
00000100
00002000
00000000
00000000
00000000
,
00000000
00000000
00000000
00000000
,
00000000
00000000
00000000
00000000
,
00003000
00000000
00000000
00000000
;

//---------------dance-double - ----------------
#NOTES:
     dance-double:
     :
     Easy:
     5:
     0.315727,0.425076,0.107809,0.138612,0.000000,287.000000,273.000000,14.000000,18.000000,0.000000,0.000000,0.315727,0.425076,0.107809,0.138612,0.000000,287.000000,273.000000,14.000000,18.000000,0.000000,0.000000:
00000000
00000000
00000000
00000000
,
00000000
00000000
00000000
00000000
,
00000000
00000000
00000000
00000000
,
00000000
00000000
00000000
00000000
,
00000000
00000000
00000000
00000000
,
00000000
00000000
00000000
00000000
,
00000001
00000001
00001000
00001000
,
00000010
00000010
00010000
00010000
,
00001000
00100000
00010000
10000000
,
01000000
00100000
00010000
00000000
,
10000000
10000000
00010000
00010000
,
00100000
00100000
00001000
00001000
,
00010000
00000010
00001000
00000001
,
00000100
00000010
00001000
00000000
,
00001001
00000001
00000010
00000100
,
00010100
00010000
00001000
00100000
,
00101000
00000000
01010000
00000000
,
10010000
01100000
10010000
00000000
,
10000000
00100000
10000000
01000000
,
00100000
00010000
01000000
00100000
,
00010000
00001000
00000100
00000010
,
00000100
00000100
00000001
00001000
,
00000001
00000010
00000001
00000100
,
00000010
00001000
00000100
00000010
,
00001000
00010000
01000000
00100000
,
01000000
01000000
10000000
00010000
,
10010000
00000000
01000000
00100000
,
10000000
01000000
00100000
00010000
,
01000000
00100000
00010000
00001000
,
00000100
00000001
00001000
00000001
,
00000100
00000000
00000010
00000000
,
00010000
00000000
00001000
00000000
,
00011000
00000000
01000000
00000000
,
10010000
00000000
00000000
10000000
00000000
00010000
00000000
00000000
,
20000000
00000000
00000000
00000000
,
30200000
00000000
00000000
00000000
,
02300000
00000000
00000000
00000000
,
03002000
00000000
00023000
00000000
,
00030200
00000000
00000000
00000000
,
00000320
00000000
00000000
00000000
,
00000032
00000000
00000000
00000000
,
00000000
00000000
00000000
00000003
,
00001000
00000001
00001000
00000010
,
00010000
00001000
00100000
00000000
,
00010000
10000000
00010000
00100000
,
00001000
00010000
00000010
00001000
,
00000001
00000010
00000001
00001000
,
00000100
00010000
00001000
01000000
,
00010000
10000000
00100000
01000000
,
00100000
10000000
00010000
00000000
,
00100000
00000000
00001000
00000000
,
00010000
00000000
00000100
00000000
,
00000010
00000000
00000001
00000000
,
00001000
00000000
00000001
00000010
,
00000000
00001000
00010000
00000100
,
00010000
00001000
00100000
00010000
,
10000000
01000000
00200000
00000000
,
00000000
00300000
00001000
00001000
,
00010000
00000010
00001000
00000001
,
00000010
00000100
00010000
00001000
,
00001000
00100000
00010000
10000000
,
01000000
00000000
00010000
00010000
,
00001000
00100000
00010000
10000000
,
00100000
01000000
00001000
00010000
,
00010000
00000010
00001000
00000001
,
00000200
00000000
00000310
00010000
,
00001000
00001000
00100000
00010000
,
10000000
01000000
00100000
00010000
,
01000000
00010000
00100000
00001000
,
00010000
00001000
00100000
00001000
,
00010000
00010000
00000010
00001000
,
00000001
00000100
00000010
00001000
,
00000100
00001000
00000020
00000000
,
00000200
00000330
00001000
00001000
,
00010000
00100000
10000000
00010000
,
10000000
01000000
01000000
00100000
,
00001000
00010000
00000100
00000010
,
00000010
00001000
00010000
00010000
,
00001000
00000010
00000001
00001000
,
00000001
00000100
00000100
00000010
,
00010000
00001000
01000000
00100000
,
00100000
00000000
10000000
00010000
,
10000000
00000000
01000000
00000000
00100000
00001000
00100000
00000000
,
00001000
00010000
00000100
00000010
,
00000001
00001000
00000010
00010000
,
00001000
00100000
00001000
00000000
00020000
00000000
00000000
00000000
,
00030000
00000000
00000000
00100000
00200000
00000000
00000000
00000000
,
00300000
10000000
00000000
00000000
10010000
00000000
00000000
00000000
,
01100000
00000000
02002000
00000000
,
00000000
03003000
00022000
00000000
,
00000000
00000000
00000000
00000000
,
00000000
00000000
00000000
00000000
,
00033000
00000000
00000000
00000000
;
