#VERSION:0.83;
#TITLE:Stimulator;
#SUBTITLE:;
#ARTIST:[Alexandros];
#TITLETRANSLIT:;
#SUBTITLETRANSLIT:;
#ARTISTTRANSLIT:;
#GENRE:;
#ORIGIN:;
#CREDIT:;
#BANNER:Stimulator.png;
#BACKGROUND:Stimulator-bg.png;
#PREVIEWVID:;
#JACKET:Stimulator-jacket.png;
#CDIMAGE:;
#DISCIMAGE:;
#LYRICSPATH:;
#CDTITLE:;
#MUSIC:Stimulator.ogg;
#OFFSET:-0.980000;
#SAMPLESTART:47.554001;
#SAMPLELENGTH:15.000000;
#SELECTABLE:YES;
#BPMS:0.000=160.000;
#STOPS:;
#DELAYS:;
#WARPS:;
#TIMESIGNATURES:0.000=4=4;
#TICKCOUNTS:0.000=4;
#COMBOS:0.000=1;
#SPEEDS:0.000=1.000=0.000=0;
#SCROLLS:0.000=1.000;
#FAKES:;
#LABELS:0.000=Song Start;
#BGCHANGES:;
#KEYSOUNDS:;
#ATTACKS:
;

//---------------dance-single - ----------------
#NOTEDATA:;
#CHARTNAME:;
#STEPSTYPE:dance-single;
#DESCRIPTION:;
#CHARTSTYLE:;
#DIFFICULTY:Beginner;
#METER:2;
#RADARVALUES:0.099333,0.159847,0.039962,0.007992,0.000000,87.000000,82.000000,5.000000,1.000000,0.000000,0.000000,0.000000,0.000000,0.000000,0.099333,0.159847,0.039962,0.007992,0.000000,87.000000,82.000000,5.000000,1.000000,0.000000,0.000000,0.000000,0.000000,0.000000;
#CREDIT:;
#NOTES:
0000
0000
0000
0000
,
0000
0000
0000
0000
,
0000
0000
0000
0000
,
0000
0000
0000
0000
,
0001
0000
0000
0000
,
0001
0000
0000
0000
,
1000
0000
0000
0000
,
1000
0000
0000
0000
,
0010
0000
0000
0000
,
0000
0000
0000
0000
,
0100
0000
0000
0000
,
0000
0000
0000
0000
,
0010
0000
0000
0000
,
0000
0000
0000
0000
,
0100
0000
0000
0000
,
0000
0000
0000
0000
,
0001
0000
0000
0000
,
0001
0000
0000
0000
,
1000
0000
0000
0000
,
1000
0000
0000
0000
,
0001
0000
0000
0000
,
0001
0000
0000
0000
,
1000
0000
0000
0000
,
1000
0000
0000
0000
,
0100
0000
0100
0000
,
0100
0000
0100
0000
,
0010
0000
0010
0000
,
0010
0000
0010
0000
,
0100
0000
0100
0000
,
0100
0000
0100
0000
,
0010
0000
0010
0000
,
0020
0000
0000
0030
,
0100
0000
0000
0000
,
1000
0000
0000
0000
,
0001
0000
0000
0000
,
0100
0000
0000
0000
,
0010
0000
0000
0000
,
1000
0000
0000
0000
,
0001
0000
0000
0000
,
0010
0000
0000
0000
,
0100
0000
0000
0000
,
0100
0000
0000
0000
,
1000
0000
0000
0000
,
1000
0000
0000
0000
,
0010
0000
0000
0000
,
0010
0000
0000
0000
,
0001
0000
0000
0000
,
0001
0000
0000
0000
,
0100
0000
0000
0000
,
0000
0000
0100
0000
,
0100
0000
0000
0000
,
0000
0000
0100
0000
,
0010
0000
0000
0000
,
0000
0000
0010
0000
,
0010
0000
0000
0000
,
0000
0000
0010
0000
,
0001
0000
0000
0000
,
0000
0000
0001
0000
,
1000
0000
0000
0000
,
0000
0000
1000
0000
,
0100
0000
0000
0000
,
0000
0000
0100
0000
,
0010
0000
0000
0000
,
0000
0000
0010
0000
,
0001
0000
0000
0000
,
0001
0000
0001
0000
,
1000
0000
0000
0000
,
1000
0000
1000
0000
,
0001
0000
0000
0000
,
0001
0000
0001
0000
,
1000
0000
0000
0000
,
0000
0000
0000
0000
,
1001
0000
0000
0000
,
0001
0000
0000
0000
,
1001
0000
0000
0000
,
1000
0000
0000
0000
,
1001
0000
0000
0000
,
0001
0000
0000
0000
,
1001
0000
0000
0000
,
1000
0000
0000
0000
,
1001
0000
0000
0000
;

//---------------dance-single - ----------------
#NOTEDATA:;
#CHARTNAME:;
#STEPSTYPE:dance-single;
#DESCRIPTION:;
#CHARTSTYLE:;
#DIFFICULTY:Hard;
#METER:9;
#RADARVALUES:0.657654,0.670307,0.575448,0.127877,0.171835,576.000000,504.000000,72.000000,16.000000,0.000000,0.000000,0.000000,0.000000,0.000000,0.657654,0.670307,0.575448,0.127877,0.171835,576.000000,504.000000,72.000000,16.000000,0.000000,0.000000,0.000000,0.000000,0.000000;
#CREDIT:;
#NOTES:
0000
0000
0000
0000
,
0000
0000
0000
0000
,
0000
0000
0000
0000
,
0000
0000
0000
0000
,
1000
0000
0010
0000
0100
0000
0000
0001
0010
0000
0100
0000
1000
0000
1010
0000
,
0000
0010
0100
0001
1000
0100
0001
0000
,
1000
0000
0010
0000
0001
0000
0000
0100
0010
0000
1000
0000
0001
0000
0011
0000
,
0000
0010
0100
1000
0001
0100
1000
0100
,
0101
0000
0110
0000
1010
0000
1000
1100
,
0000
0101
0000
0110
0010
1000
0100
0010
,
0011
0000
0101
0000
0011
0000
0100
1100
,
0000
1001
0000
0101
0001
1000
1001
0000
,
1010
0000
0110
0000
0101
0001
0100
0110
,
0000
1010
1000
0010
0001
0010
1000
0000
,
1001
0000
0101
0000
1100
0000
0010
0110
,
0000
0011
0000
1000
0100
0001
0100
1000
,
1001
0000
0000
0000
0101
0000
0000
0001
0100
0000
0010
0000
1000
0000
0100
0000
,
1000
0001
0010
1000
0010
0001
0100
0001
,
2000
0000
0000
0010
0000
0000
3001
0000
1001
0000
0000
0000
0101
0000
0000
0000
,
0001
0010
1000
0010
0001
0100
0010
1000
,
0100
0100
0010
0010
0110
0000
1001
0000
,
0001
0100
0001
1000
0100
0001
0100
1000
,
0002
0000
0000
0010
0000
0000
1003
0000
1001
0000
0000
0000
1010
0000
0000
0000
,
1000
0010
0100
0001
0010
0100
1000
0010
,
0100
0100
0000
0001
0010
0010
0000
0100
,
1000
1000
0000
0010
0100
0100
0000
0001
,
0100
0100
0000
1000
0100
0100
0000
0001
,
0010
0010
0000
1000
0010
0010
0000
0001
,
0011
0001
0000
1000
1100
1000
0000
0010
,
0110
0010
0000
0100
0101
0100
0000
0001
,
1001
1000
0000
1000
1100
0100
0000
0010
,
0210
0000
0010
0000
0010
0000
0310
0001
,
1001
0000
0000
0000
0110
0000
0000
1000
0010
1000
0100
0000
0010
0000
0011
0000
,
0000
0110
0000
1100
0000
1000
0010
0100
,
0001
0100
1000
0100
0010
0100
0001
0020
,
0000
0230
0000
2300
0000
3001
0100
0001
,
1001
0000
0000
0000
0110
0000
0000
0001
0010
0001
0100
0000
0010
0000
1010
0000
,
0000
0110
0000
0101
0000
0001
0010
0100
,
1000
0100
0001
0100
0010
0100
1000
0020
,
0000
0230
0000
0302
0000
1003
0100
0001
,
0000
0001
0100
1000
0000
1000
0010
0100
,
0000
0100
0001
1000
0000
1000
0010
0001
,
0000
0001
0010
1000
0000
1000
0100
0010
,
0000
0010
0001
0100
0000
0001
0100
1000
,
0000
1000
0100
0001
0000
0001
0010
0100
,
0000
0100
1000
0001
0000
0001
0010
1000
,
0000
1000
0010
0001
0000
0001
0100
0010
,
0000
0010
1000
0100
0000
0100
1000
0010
,
0110
0000
0110
0000
1001
0000
0001
0100
,
0000
0000
0000
0001
0000
0000
0010
0000
0000
0100
0000
0000
1000
0000
0100
0000
0010
0000
0001
0000
0010
0000
0100
0000
,
1000
0000
1001
0000
0110
0000
0010
1000
,
0000
1000
0010
0100
0002
0000
2003
0000
,
3010
0000
0110
0000
1001
0000
0001
0010
,
0000
0000
0000
1000
0000
0000
0010
0000
0000
0001
0000
0000
0100
0000
0010
0000
1000
0000
0100
0000
0010
0000
0001
0000
,
0100
0000
0110
0000
1001
0000
1000
0010
,
0000
0001
0010
1000
0200
0000
0320
0000
,
0130
1000
0001
0100
0110
0000
0100
0101
,
0000
0000
0000
0010
0000
0000
1000
0000
0000
0100
0000
0000
1000
0000
0010
0000
0100
0000
0001
0000
0100
0000
0010
0000
,
1000
0100
0010
0001
1001
0000
0001
0101
,
0000
0001
1000
0010
0200
0000
0320
0000
,
1030
0000
0001
0010
0001
0000
1000
0000
1001
0000
0000
0000
0010
0000
1010
0000
,
0000
0000
0000
1000
0000
0000
0010
0000
0000
0100
0000
0000
0001
0000
0010
0000
0100
0000
1000
0000
0100
0000
0010
0000
,
0001
0000
0100
0001
0100
0000
0010
0000
0110
0000
0000
0000
1000
0000
1010
0000
,
0000
0001
1000
0001
2000
0000
0000
0000
,
3001
0000
0010
0000
0100
0000
1000
0100
1000
0000
0001
0000
0100
0000
0110
0000
,
0000
0000
0010
0000
1000
0000
0001
0000
0010
0000
0000
0010
0000
0000
0010
0000
,
0100
0000
1000
0000
0001
0000
1000
0100
1000
0000
0010
0000
0100
0000
0101
0000
,
0000
0000
0001
0000
1000
0000
0010
0000
0100
0000
0000
0100
0000
0000
0100
0000
,
0010
0000
1000
0000
0100
0000
0010
0001
0010
0000
0100
0000
1000
0000
1010
0000
,
0000
0000
1000
0000
0010
0000
0100
0000
0001
0000
0000
0001
0000
0000
0001
0000
,
1000
0000
0001
0000
0100
0000
0001
0010
0001
0000
1000
0000
0100
0000
1100
0000
,
0000
0000
0010
0000
0001
0000
0100
0000
0010
0000
0000
0010
0000
0000
0010
0000
,
1000
0000
0100
0000
1000
0000
0010
0001
0010
0000
0100
0000
0001
0000
1000
0000
,
0100
0000
0010
0000
0001
0000
0100
0000
0001
0000
0000
0001
0000
0000
0001
0000
,
1000
0000
0010
0000
0100
0000
1000
0100
1000
0000
0100
0000
0001
0000
1000
0000
,
0100
0000
0001
0000
0100
0000
1000
0000
0010
0000
0000
0010
0000
0000
0010
0000
,
0100
0000
0001
0000
0010
0000
1000
0010
1000
0000
0010
0000
0001
0000
1000
0000
,
0100
0000
1000
0000
0001
0000
1000
0000
0010
0000
0000
0010
0000
0000
0010
0000
,
0100
0000
0001
0000
1000
0000
0100
0001
0100
0000
0010
0000
0001
0000
0100
0000
,
0010
0000
1000
0000
0010
0000
0001
0000
0010
0000
0000
0010
0000
0000
0110
0000
;

//---------------dance-single - ----------------
#NOTEDATA:;
#CHARTNAME:;
#STEPSTYPE:dance-single;
#DESCRIPTION:;
#CHARTSTYLE:;
#DIFFICULTY:Medium;
#METER:7;
#RADARVALUES:0.521785,0.510710,0.375639,0.079923,0.043958,457.000000,410.000000,47.000000,10.000000,0.000000,0.000000,0.000000,0.000000,0.000000,0.521785,0.510710,0.375639,0.079923,0.043958,457.000000,410.000000,47.000000,10.000000,0.000000,0.000000,0.000000,0.000000,0.000000;
#CREDIT:;
#NOTES:
0000
0000
0000
0000
,
0000
0000
0000
0000
,
0000
0000
0000
0000
,
0000
0000
0000
0000
,
0001
0000
1000
0100
1000
0010
0000
0110
,
0000
0101
0000
1000
0001
0000
1000
0000
,
0010
0000
0100
0001
1000
0100
0000
0110
,
0000
1100
0000
1000
0001
0000
1000
0000
,
0101
0000
0101
0000
0101
0000
0010
1000
,
0000
1000
0100
1000
0001
0000
1000
0000
,
1100
0000
1100
0000
1100
0000
0010
0001
,
0000
0100
0001
1000
0001
0000
1000
0000
,
1010
0000
1010
0000
1010
0000
0100
1000
,
0000
0001
0100
0010
1000
0000
0100
0000
,
0011
0000
0011
0000
0011
0000
0100
0001
,
0000
1000
0100
1000
0001
0000
1000
0000
,
0010
1000
0100
0000
0110
0000
1001
0000
,
0001
0100
0001
0000
1000
0100
1000
0000
,
0010
0000
0000
0010
0000
0000
0010
0000
0100
0000
0000
0000
0001
0000
0000
0000
,
1000
0010
1000
0000
0001
0010
0001
0000
,
1000
0001
1000
0001
1000
0000
1001
0000
,
0001
1000
0100
0000
1000
0001
0100
0000
,
0010
0000
0000
0010
0000
0000
0010
0000
0100
0000
0000
0000
0110
0000
0000
0000
,
1000
0010
0100
0001
1000
0000
0001
0000
,
0100
0001
0000
1000
0100
1000
0000
0001
,
0010
0001
0000
1000
0010
1000
0000
0010
,
0100
0010
0000
0100
0001
0100
0000
0001
,
1000
0001
0000
1000
0100
1000
0000
0010
,
0100
0100
0000
0001
1000
1000
0000
0100
,
0010
0010
0000
0001
1000
1000
0000
1000
,
0010
0010
0000
0100
0001
0001
0000
1000
,
0002
1000
1000
1003
,
1001
0000
1001
0000
0001
1000
0001
1000
,
0000
0010
0000
0100
0000
0001
0000
2000
,
0000
3100
0010
0100
1000
0000
0001
0101
,
0000
1001
0000
1100
0000
0010
0001
0000
,
1001
0000
1001
0000
1000
0001
1000
0001
,
0000
0010
0000
0100
0000
1000
0000
0002
,
0000
0103
0010
0100
0001
0000
1000
1100
,
0000
1001
0000
0101
0000
0001
1000
0100
,
0000
1000
0001
0100
0000
0010
0100
0010
,
0000
1000
0001
1000
0000
0001
1000
0010
,
0000
1000
0001
0010
0000
0100
0010
0100
,
0000
1000
0001
1000
0000
1000
0010
0100
,
0000
0001
0010
0100
0000
1000
0100
0010
,
0000
0001
0100
0010
0000
1000
0100
1000
,
0000
0001
0100
0001
0000
1000
0010
1000
,
0000
0001
0010
0001
0000
1000
0001
1000
,
0001
0000
0001
0000
1001
0000
1000
0001
,
0000
1000
0001
0000
0100
0000
0100
0000
,
0110
0000
0110
0000
1001
0000
0001
1000
,
0000
0001
1000
0000
0020
0000
0230
0000
,
0301
0000
0001
0000
1001
0000
0010
0100
,
0000
0010
0100
0000
0001
0000
0001
0000
,
1001
0000
1001
0000
0110
0000
0100
0010
,
0000
0100
0010
0000
2000
0000
3002
0000
,
1003
0000
1000
0000
1100
0000
0010
0100
,
0000
0010
0100
0000
1000
0001
1000
0000
,
0001
0000
0001
0000
0101
0000
0010
0100
,
0000
0010
0100
0000
2000
0000
3002
0000
,
1003
0000
1000
0000
1010
0000
0100
0010
,
0000
0100
0010
0000
1000
0001
1000
0000
,
0001
0000
0001
0000
0011
0000
0100
0010
,
0000
0000
0100
0000
0020
0000
0000
0000
0100
0000
0000
0100
0000
0000
0100
0000
,
0031
0000
0101
0000
1000
0010
0100
0001
,
0000
0000
1000
0000
0001
0000
0000
0000
0010
0000
0000
0010
0000
0000
0010
0000
,
0100
0000
1100
0000
0001
0010
0100
1000
,
0000
0000
0001
0000
1000
0000
0000
0000
0001
0000
0000
0001
0000
0000
0001
0000
,
1000
0000
1001
0000
0010
1000
0001
0010
,
0000
0000
0100
0000
1000
0000
0001
0000
0100
0000
0000
0100
0000
0000
0100
0000
,
0010
0000
0110
0000
0010
1000
0001
0010
,
0000
0000
0100
0000
0010
0000
0001
0000
1000
0000
0000
1000
0000
0000
1000
0000
,
0001
0100
0001
0000
1000
0010
0100
0001
,
0000
0000
1000
0000
0001
0000
0000
0000
0010
0000
0000
0010
0000
0000
0100
0000
,
1000
0100
1000
0000
0001
0010
0100
1000
,
0000
0000
0001
0000
1000
0000
0000
0000
0010
0000
0000
0010
0000
0000
0010
0000
,
0100
0001
1000
0000
0010
1000
0100
0010
,
0000
0000
0001
0000
1000
0000
0000
0000
0100
0000
0000
0100
0000
0000
0100
0000
,
0010
0001
1000
0000
0010
1000
0001
0100
,
0000
0000
0010
0000
0100
0000
0010
0000
1000
0000
0000
0001
0000
0000
1001
0000
;

//---------------dance-single - ----------------
#NOTEDATA:;
#CHARTNAME:;
#STEPSTYPE:dance-single;
#DESCRIPTION:;
#CHARTSTYLE:;
#DIFFICULTY:Easy;
#METER:4;
#RADARVALUES:0.331111,0.382433,0.239770,0.255754,0.000000,290.000000,260.000000,30.000000,32.000000,0.000000,0.000000,0.000000,0.000000,0.000000,0.331111,0.382433,0.239770,0.255754,0.000000,290.000000,260.000000,30.000000,32.000000,0.000000,0.000000,0.000000,0.000000,0.000000;
#CREDIT:;
#NOTES:
0000
0000
0000
0000
,
0000
0000
0000
0000
,
0000
0000
0000
0000
,
0000
0000
0000
0000
,
0000
0001
0000
0001
,
0000
1000
0000
1000
,
0000
0001
0000
0001
,
1000
0001
0010
0010
,
0110
1001
0110
0000
,
0001
1000
0010
0100
,
0110
1001
0110
0000
,
1000
0100
1000
0001
,
1001
0110
1001
0000
,
0001
0010
0001
0100
,
1001
0110
1001
0000
,
1000
0001
0020
0000
,
0130
1000
0010
0010
,
0100
0001
1000
0001
,
0010
0010
0110
0000
,
0100
1000
0001
1000
,
0010
0100
0110
0000
,
0100
0001
1000
0001
,
0010
0100
0110
0000
,
0100
1000
0001
1000
,
0020
0030
0200
0300
,
0002
0003
2000
3000
,
0200
0300
0020
0030
,
0002
0003
2000
3000
,
0020
0130
0002
0103
,
2000
3100
0020
0130
,
0002
0013
0200
0310
,
0120
0100
0100
0130
,
0110
1001
0010
1000
,
0001
0100
0001
0010
,
0100
0100
0010
0010
,
0001
1000
0020
0030
,
0100
0100
0001
0001
,
1000
0100
0010
0001
,
1000
1000
0001
0001
,
1000
0010
0100
0001
,
2000
3000
0002
0003
,
0020
0030
0200
0300
,
2000
3000
0020
0030
,
0200
0300
0002
0003
,
1000
0100
0001
0000
,
0001
0100
1000
0000
,
1000
0010
0001
0000
,
0001
0010
1000
0000
,
1001
1001
0110
0000
,
0010
0100
0001
1000
,
1001
1001
0110
0000
,
0010
0001
2000
3002
,
1003
0010
0110
0000
,
0001
1000
0100
0100
,
0010
0001
1001
0000
,
0001
1000
0020
0230
,
0301
0001
0101
0000
,
1000
0001
0010
0100
,
1000
1000
1100
0000
,
1000
0010
0200
0320
,
0130
0001
0011
0000
,
0001
0010
0100
1000
,
0001
1000
1010
0000
,
0010
0100
0002
0000
,
1003
0001
1000
1000
,
0001
1000
0001
0001
,
1000
1000
0010
0010
,
0100
0010
0100
0010
,
0100
0100
0001
0001
,
0010
0100
0010
0100
,
1000
1000
0001
0001
,
1000
0001
1000
0001
,
1000
0010
0100
0001
,
1000
0010
0100
0001
,
1000
0100
0010
0001
,
1000
0100
0010
0001
,
1000
1000
0001
0001
,
1000
1000
0001
0001
,
1000
0010
0100
0001
,
0010
0100
1000
0001
;

//---------------dance-double - ----------------
#NOTEDATA:;
#CHARTNAME:;
#STEPSTYPE:dance-double;
#DESCRIPTION:;
#CHARTSTYLE:;
#DIFFICULTY:Hard;
#METER:9;
#RADARVALUES:0.643953,0.645380,0.503517,0.231777,0.187820,564.000000,501.000000,63.000000,29.000000,0.000000,0.000000,0.000000,0.000000,0.000000,0.643953,0.645380,0.503517,0.231777,0.187820,564.000000,501.000000,63.000000,29.000000,0.000000,0.000000,0.000000,0.000000,0.000000;
#CREDIT:;
#NOTES:
00000000
00000000
00000000
00000000
,
00000000
00000000
00000000
00000000
,
00000000
00000000
00000000
00000000
,
00000000
00000000
00000000
00000000
,
10000000
00100000
01000000
00010000
00100000
00001000
00010000
00011000
,
00000000
00000100
00000010
00001000
00000001
00000100
00001000
00000000
,
00010000
00100000
10000000
01000000
00100000
00010000
10000000
10100000
,
00000000
00100000
01000000
00001000
00010000
00000100
00000010
00000100
,
00000110
00000000
00000011
00000000
00001001
00000000
00000001
00000101
,
00000000
00001100
00000000
00011000
00010000
01000000
10000000
00100000
,
01100000
00000000
10100000
00000000
10010000
00000000
10000000
11000000
,
00000000
01010000
00000000
00011000
00001000
00000100
00000001
00000000
,
00000110
00000000
00001010
00000000
00001001
00000000
00000001
00000011
,
00000000
00001010
00001000
00010000
00100000
10000000
00010000
00000000
,
01100000
00000000
00110000
00000000
10010000
00000000
10000000
10100000
,
00000000
00110000
00010000
00001000
00000010
00000001
00001000
00000010
,
00000110
00000000
00000000
00000000
00000101
00000000
00000000
00000001
00000010
00000000
00001000
00000000
00010000
00000000
00001000
00000000
,
00000100
00000010
00001000
00000100
00010000
01000000
10000000
00010000
,
00200000
00000000
00000000
01000000
00000000
00000000
00310000
00000000
00110000
00000000
00000000
00000000
00101000
00000000
00000000
00000000
,
00010000
00001000
00000100
00000001
00001000
00000010
00000100
00000001
,
00000010
00001000
00010000
00100000
10000000
00000000
10010000
00000000
,
01000000
00100000
00010000
01000000
00001000
00000100
00000001
00001000
,
00000020
00000000
00000000
00000100
00000000
00000000
00001030
00000000
00001010
00000000
00000000
00000000
00010010
00000000
00000000
00000000
,
00001000
00010000
01000000
10000000
00010000
00100000
01000000
10000000
,
00100000
00010000
00000000
00010000
00001000
00100000
00000000
00100000
,
00010000
00001000
00000000
00001000
00000100
00000010
00000001
00000001
,
00000010
00001000
00000000
00001000
00010000
00000010
00000000
00000010
,
00001000
00010000
00000000
00010000
01000000
00100000
10000000
00010000
,
01010000
00010000
00000000
10000000
11000000
10000000
00000000
00100000
,
00110000
00010000
00000000
00010000
00011000
00001000
00000000
00001000
,
00001010
00000010
00000000
00000010
00000011
00000001
00000000
00000100
,
00000110
00000010
00000010
00000010
,
00011000
00000000
00000000
00000000
01001000
00000000
00000000
01000000
00000000
00010000
01000000
00000000
00100000
00000000
10100000
00000000
,
00000000
01010000
00000000
00101000
00000000
00010100
00000000
00001000
,
00000001
00000100
00001000
00010000
00000100
00000010
00000001
00000200
,
00000000
00000320
00000000
00020030
00000000
00031000
00010000
00000000
,
00011000
00000000
00000000
00000000
00101000
00000000
00000000
00100000
00000000
00010000
00100000
00000000
01000000
00000000
11000000
00000000
,
00000000
00110000
00000000
01001000
00000000
00010010
00000000
00001000
,
00000001
00000010
00001000
00010000
00000010
00000100
00000001
00000020
,
00000000
00000230
00000000
00020300
00000000
00031000
00010000
01000000
,
00000000
10000000
00100000
00010000
00000000
00010000
00001000
00000100
,
00000000
00000100
00000001
00000010
00000000
00000010
00001000
00010000
,
00000000
00010000
00100000
10000000
00000000
10000000
01000000
00100000
,
00000000
00100000
00001000
00010000
00000000
01000000
00010000
00001000
,
00000000
00000100
00001000
00010000
00000000
00100000
00010000
00001000
,
00000000
00000010
00001000
00010000
00000000
00001000
00000010
00000001
,
00000000
00000001
00000100
00001000
00000000
00010000
01000000
10000000
,
00000000
10000000
00100000
00010000
00001000
00000010
00000001
00000100
,
00000110
00000000
00002002
00003003
,
00000001
00000000
00000000
00000100
00000000
00000000
00000000
00000000
00000000
00000010
00000000
00000000
00010000
00000000
00001000
00000000
00100000
00000000
00010000
00000000
10000000
00000000
00100000
00000000
,
01000000
00000000
20020000
30030000
,
10000000
01000000
00000000
00100000
00001000
00000000
00011000
00000000
,
00000110
00000000
00002002
00003003
,
00000001
00000000
00000000
00000010
00000000
00000000
00000000
00000000
00000000
00001000
00000000
00000000
00010000
00000000
00000100
00000000
00001000
00000000
00000100
00000000
00010000
00000000
00001000
00000000
,
00100000
00000000
01000000
00100000
02200000
00000000
03300000
00000000
,
10000000
00100000
00000000
01000000
00001000
00000000
00011000
00000000
,
00000100
00000000
00000001
00001000
00000001
00000000
00001000
00000001
00000020
00000000
00000000
00000000
00000030
00000000
00001000
00000000
,
00010000
00000000
00000000
01000000
00000000
00000000
10000000
00000000
00000000
00010000
00000000
00000000
01000000
00000000
00010000
00000000
00100000
00000000
00001000
00000000
00010000
00000000
00000100
00000000
,
00000010
00000000
00000001
00001000
00000001
00000000
00001000
00000001
00000200
00000000
00000000
00000000
00000300
00000000
00001000
00000000
,
00010000
00100000
10000000
01000000
00200000
00000000
00320000
00000000
,
10030000
00000000
00010000
00100000
00010000
00100000
00010000
00100000
02000000
00000000
00000000
00000000
03000000
00000000
10000000
00000000
,
01000000
00000000
00000000
00010000
00000000
00000000
00001000
00000000
00000000
00000100
00000000
00000000
00000001
00000000
00000010
00000000
00000100
00000000
00001000
00000000
00000100
00000000
00000010
00000000
,
00000001
00000000
00001000
00000010
00001000
00000010
00001000
00000010
00000200
00000000
00000000
00000000
00000300
00000000
00000001
00000000
,
00000010
00001000
00010000
01000000
20000000
00000000
00000000
00000000
,
30010000
00000000
01000000
00000000
00100000
00000000
10000000
00010000
10000000
00000000
01000000
00000000
00100000
00000000
00002000
00000000
,
00000000
00013000
00100000
00010000
00001000
00000010
00000001
00000100
,
00000001
00000000
00001000
00000000
00000010
00000000
00000100
00000001
00000100
00000000
00000010
00000000
00010000
00000000
00002000
00000000
,
00000000
00013000
00100000
10000000
10010000
00000000
01100000
00000000
,
00010000
00000000
00100000
00000000
01000000
00000000
10000000
00010000
10000000
00000000
00100000
00000000
01000000
00000000
00002000
00000000
,
00000000
00013000
01000000
00010000
00001000
00000100
00000001
00000010
,
00000001
00000000
00001000
00000000
00000100
00000000
00000010
00000001
00000010
00000000
00000100
00000000
00010000
00000000
00002000
00000000
,
00000000
00013000
01000000
10000000
10010000
00000000
01100000
00000000
,
10000000
00000000
01000000
00000000
10000000
00000000
00100000
00010000
00100000
00000000
01000000
00000000
00010000
00000000
00100000
00000000
,
00001000
00000000
00010000
00000000
00000100
00000000
00000010
00000000
00000001
00000000
00000000
00000001
00000000
00000000
00000001
00000000
,
00001000
00000000
00000010
00000000
00000100
00000000
00001000
00000100
00001000
00000000
00000100
00000000
00000010
00000000
00010000
00000000
,
00001000
00000000
00100000
00000000
01000000
00000000
10000000
00000000
00100000
00000000
00000000
00100000
00000000
00000000
00100000
00000000
,
01000000
00000000
00001000
00000000
00010000
00000000
00000010
00001000
00000010
00000000
00010000
00000000
00001000
00000000
00000100
00000000
,
00000001
00000000
00001000
00000000
00000100
00000000
00010000
00000000
00001000
00000000
00000000
00001000
00000000
00000000
00001000
00000000
,
00100000
00000000
00010000
00000000
10000000
00000000
01000000
00010000
01000000
00000000
00100000
00000000
00010000
00000000
01000000
00000000
,
00001000
00100000
00001000
00000000
00010000
00000000
00000100
00001000
00000100
00000000
00000000
00000010
00000000
00000000
00000220
00000000
,
00000000
00000000
00000000
00000330
;

//---------------dance-double - ----------------
#NOTEDATA:;
#CHARTNAME:;
#STEPSTYPE:dance-double;
#DESCRIPTION:;
#CHARTSTYLE:;
#DIFFICULTY:Medium;
#METER:7;
#RADARVALUES:0.493241,0.484035,0.295716,0.279731,0.035965,432.000000,395.000000,37.000000,35.000000,0.000000,0.000000,0.000000,0.000000,0.000000,0.493241,0.484035,0.295716,0.279731,0.035965,432.000000,395.000000,37.000000,35.000000,0.000000,0.000000,0.000000,0.000000,0.000000;
#CREDIT:;
#NOTES:
00000000
00000000
00000000
00000000
,
00000000
00000000
00000000
00000000
,
00000000
00000000
00000000
00000000
,
00000000
00000000
00000000
00000000
,
00000001
00000000
00001000
00000100
00001000
00000001
00000000
00000110
,
00000000
00010010
00000000
00011000
00000000
01001000
00000000
00000000
,
10000000
00000000
00010000
01000000
00010000
10000000
00000000
01100000
,
00000000
00101000
00000000
00011000
00000000
00001100
00000000
00000000
,
00000001
00000000
00000010
00000000
00001000
00010000
00000100
00001000
,
00000000
00010100
00000000
00101000
00000000
00010000
01000000
00100000
,
10000000
00000000
00100000
00000000
00010000
00001000
01000000
00010000
,
00000000
01001000
00000000
00010010
00000000
00001000
00000001
00000000
,
00000010
00000000
00000001
00000100
00000001
00000000
00001000
00000100
,
00000000
00010000
00001000
00010000
00100000
00000000
10000000
00000000
,
01000000
00000000
10000000
00100000
10000000
00000000
00010000
00100000
,
00000000
00001000
00010000
00001000
00000100
00000000
00000000
00000000
,
00001001
00000101
00001010
00000000
,
00000001
00000100
00001000
00000000
00010000
01000000
10000000
00000000
,
10010000
11000000
00110000
00000000
,
10000000
00100000
00010000
00000000
00001000
00000010
00000001
00000000
,
00000100
00000010
00000100
00000010
00001000
00000000
00000000
00000000
,
00000100
00010000
00001000
00000000
01000000
00001000
00010000
00000000
,
00100000
00000000
00000000
00100000
00000000
00000000
00100000
00000000
10000000
00000000
00000000
00000000
10010000
00000000
00000000
00000000
,
01000000
00100000
01000000
00100000
00010000
00000000
01000000
00000000
,
00001000
00010000
00000000
00000010
00001000
00000010
00000000
00000100
,
00000001
00000100
00000000
00000001
00000010
00000001
00000000
00001000
,
00000010
00001000
00000000
00000100
00010000
00000100
00000000
00010000
,
00001000
00010000
00000000
00001000
01000000
00001000
00000000
00100000
,
00010000
00100000
00000000
01000000
10000000
01000000
00000000
10000000
,
00100000
10000000
00000000
00100000
00010000
00100000
00000000
00010000
,
00001000
00010000
00000000
00001000
00000100
00001000
00000000
00000100
,
00000002
00001000
00001000
00001003
,
00001001
00000000
00001001
00000000
00000010
00010000
00000010
00020000
,
00000000
00032000
00000000
00203000
00000000
02300000
00000000
03020000
,
00000000
00031000
00100000
00010000
10000000
00010000
00010000
02000000
,
00000000
03002000
00000000
00023000
00000000
00030100
00000010
00000000
,
00001001
00000000
00001001
00000000
00000100
00010000
00000100
00020000
,
00000000
00032000
00000000
02003000
00000000
03200000
00000000
00320000
,
00000000
00031000
01000000
00010000
10000000
00010000
00010000
00200000
,
00000000
00302000
00000000
00023000
00000000
00030010
00000100
00000010
,
00000000
00001000
00000001
00000100
00000000
00000010
00010000
00001000
,
00000000
01000000
00010000
00100000
00000000
01000000
10000000
00010000
,
00000000
01000000
00001000
00010000
00000000
00001000
00010000
00000010
,
00000000
00001000
00000001
00000010
00000000
00000100
00001000
00000001
,
00000000
00000100
00000010
00000100
00000000
00001000
00010000
00001000
,
00000000
01000000
00100000
01000000
00000000
00010000
10000000
00010000
,
00000000
10000000
01000000
10000000
00000000
00010000
01000000
00010000
,
00000000
00100000
00001000
00100000
00000000
00001000
00010000
00001000
,
00010000
00001000
00022000
00033000
,
00000100
00000010
00000000
00000010
00000001
00000000
00001000
00000000
,
00000100
00000100
00002002
00003003
,
00001000
00000010
00000000
00000100
00000001
00000000
00000010
00000000
,
00001000
00010000
00022000
00033000
,
01000000
00100000
00000000
00100000
10000000
00000000
00010000
00000000
,
01000000
01000000
20020000
30030000
,
00010000
00100000
00000000
01000000
10000000
00000000
00100000
00000000
,
00010000
00001000
00022000
00033000
,
00000100
00000010
00000000
00000100
00000001
00000000
00001000
00000010
,
00001000
00000001
00002002
00003003
,
00000010
00010000
00000000
00010000
00001000
00000000
00000100
00000000
,
00001000
00010000
00022000
00033000
,
01000000
00100000
00000000
01000000
10000000
00000000
00010000
00100000
,
00010000
10000000
20020000
30030000
,
00100000
00001000
00000000
00011000
00000000
00000000
00000000
00000000
,
00000100
00000000
00000101
00000000
00000001
00000010
00000100
00001000
,
00000000
00000000
00000010
00000000
00010000
00000000
00000000
00000000
00001000
00000000
00000000
00001000
00000000
00000000
00001000
00000000
,
00100000
00000000
00110000
00000000
10000000
00010000
01000000
00100000
,
00000000
00000000
01000000
00000000
00001000
00000000
00000000
00000000
00010000
00000000
00000000
00010000
00000000
00000000
00010000
00000000
,
00000010
00000000
00001010
00000000
00000001
00000100
00000010
00001000
,
00000000
00000000
00000100
00000000
00010000
00000000
00000000
00000000
00001000
00000000
00000000
00001000
00000000
00000000
00001000
00000000
,
01000000
00000000
01010000
00000000
10000000
00010000
00100000
01000000
,
00000000
00000000
00100000
00000000
00001000
00000000
00000000
00000000
00010000
00000000
00000000
00010000
00000000
00000000
00010000
00000000
,
00000100
00001000
00000010
00000000
00001000
00000001
00000100
00000010
,
00000000
00000000
00010000
00000000
00001000
00000000
00000000
00000000
00100000
00000000
00000000
00100000
00000000
00000000
00001000
00000000
,
01000000
00010000
00100000
00000000
00010000
10000000
01000000
00100000
,
00000000
00000000
00001000
00000000
00010000
00000000
00000000
00000000
00000010
00000000
00000000
00000010
00000000
00000000
00001000
00000000
,
00000001
00000010
00000100
00000000
00010000
00001000
01000000
00100000
,
00000000
00000000
10000000
00000000
00010000
00000000
00100000
00000000
01000000
00000000
00000000
01000000
00000000
00000000
01000000
00000000
,
10000000
00100000
01000000
00000000
00001000
00010000
00000100
00000010
,
00000000
00000000
00000001
00000000
00001000
00000000
00000010
00000000
00000100
00000000
00000000
00000010
00000000
00000000
00000220
00000000
,
00000000
00000000
00000000
00000330
;

//---------------dance-double - ----------------
#NOTEDATA:;
#CHARTNAME:;
#STEPSTYPE:dance-double;
#DESCRIPTION:;
#CHARTSTYLE:;
#DIFFICULTY:Easy;
#METER:4;
#RADARVALUES:0.321977,0.383632,0.207801,0.271739,0.000000,282.000000,256.000000,26.000000,34.000000,0.000000,0.000000,0.000000,0.000000,0.000000,0.321977,0.383632,0.207801,0.271739,0.000000,282.000000,256.000000,26.000000,34.000000,0.000000,0.000000,0.000000,0.000000,0.000000;
#CREDIT:;
#NOTES:
// measure 0
00000000
00000000
00000000
00000000
,  // measure 1
00000000
00000000
00000000
00000000
,  // measure 2
00000000
00000000
00000000
00000000
,  // measure 3
00000000
00000000
00000000
00000000
,  // measure 4
00000000
10000000
00000000
10000000
,  // measure 5
00000000
00010000
00000000
00010000
,  // measure 6
00000000
01000000
00000000
01000000
,  // measure 7
00000000
00001000
00000000
00001000
,  // measure 8
00010000
00000100
00000010
00000100
,  // measure 9
00000110
00001001
00000110
00000000
,  // measure 10
00001000
01000000
00100000
01000000
,  // measure 11
01100000
10010000
01100000
00000000
,  // measure 12
00001000
00010000
00000100
00000010
,  // measure 13
00001001
00000110
00001001
00000000
,  // measure 14
00010000
00001000
01000000
00100000
,  // measure 15
10010000
01100000
10010000
00000000
,  // measure 16
10000000
00010000
00100000
00100000
,  // measure 17
00001000
00010000
00000100
00000100
,  // measure 18
00000010
00000001
00001001
00000000
,  // measure 19
00000100
00010000
00001000
01000000
,  // measure 20
00010000
10000000
10010000
00000000
,  // measure 21
01000000
00001000
00010000
00000100
,  // measure 22
00001000
00000001
00001001
00000000
,  // measure 23
00000010
00000001
00001000
00000100
,  // measure 24
00020000
00030000
00002000
00003000
,  // measure 25
02000000
03000000
00200000
00300000
,  // measure 26
20000000
30000000
02000000
03000000
,  // measure 27
00200000
00300000
00002000
00003000
,  // measure 28
00020000
00031000
02000000
03001000
,  // measure 29
00020000
00031000
00000200
00000310
,  // measure 30
00002000
00003010
00000002
00000013
,  // measure 31
00000220
00000000
00000000
00000330
,  // measure 32
00001001
00000001
00000010
00001000
,  // measure 33
00010000
00000100
00000010
00000100
,  // measure 34
00010000
00001000
00100000
01000000
,  // measure 35
00100000
00010000
20000000
30000000
,  // measure 36
10010000
10000000
00100000
00010000
,  // measure 37
00001000
01000000
00100000
01000000
,  // measure 38
00001000
00010000
00000010
00000100
,  // measure 39
00000010
00000000
00001000
00000000
00000001
00000000
00000000
00000020
,  // measure 40
00000000
00000030
00000000
00002000
00000000
00003000
00000000
00020000
,  // measure 41
00000000
00030000
00000000
02000000
00000000
03000000
00000000
20000000
,  // measure 42
00000000
30000000
00000000
00200000
00000000
00300000
00000000
02000000
,  // measure 43
00000000
03000000
00000000
00020000
00000000
00030000
00000000
00000000
,  // measure 44
10000000
01000000
00010000
00000000
,  // measure 45
00001000
00000100
00000001
00000000
,  // measure 46
00000001
00000010
00001000
00000000
,  // measure 47
00010000
00100000
10000000
00000000
,  // measure 48
01000000
00100000
10010000
00000000
,  // measure 49
01000000
00001000
00010000
00000010
,  // measure 50
00000100
00000010
00001001
00000000
,  // measure 51
00000010
00010000
00001000
01000000
,  // measure 52
00100000
01000000
10010000
00000000
,  // measure 53
00100000
00001000
00010000
00000100
,  // measure 54
00000010
00000100
00001001
00000000
,  // measure 55
00001000
00000100
00020000
00032000
,  // measure 56
01003000
00100000
10100000
00000000
,  // measure 57
00010000
01000000
00002000
00023000
,  // measure 58
00030100
00000010
00000011
00000000
,  // measure 59
00000001
00000010
00002000
00023000
,  // measure 60
00130000
10000000
10100000
00000000
,  // measure 61
10000000
01000000
00020000
00032000
,  // measure 62
00003100
00000001
00000101
00000000
,  // measure 63
00000010
00010000
00002000
00000000
,  // measure 64
01003000
00010000
10000000
10000000
,  // measure 65
00100000
01000000
00001000
00001000
,  // measure 66
00010000
00000100
00000010
00000010
,  // measure 67
00000001
00001000
00000100
00000100
,  // measure 68
00010000
00001000
00100000
00100000
,  // measure 69
00010000
10000000
01000000
01000000
,  // measure 70
10000000
00010000
01000000
00001000
,  // measure 71
00010000
00000100
00000010
00000001
,  // measure 72
00001000
00000001
00000010
00000100
,  // measure 73
00010000
00001000
00100000
00010000
,  // measure 74
10000000
10000000
01000000
01000000
,  // measure 75
00100000
00100000
00010000
00010000
,  // measure 76
00001000
00001000
00000100
00000100
,  // measure 77
00000010
00000010
00000001
00000001
,  // measure 78
00001000
00000010
00010000
00001000
,  // measure 79
00100000
00010000
10000000
01000000
,  // measure 80
00100000
00000000
00000000
00000000
;
