#TITLE:Stayin' Alive (Albina Mango Remix);
#SUBTITLE:;
#ARTIST:Bee Gees;
#TITLETRANSLIT:;
#SUBTITLETRANSLIT:;
#ARTISTTRANSLIT:;
#GENRE:;
#CREDIT:;
#BANNER:Stayin' Alive (Albina Mango Remix).png;
#BACKGROUND:Stayin' Alive (Albina Mango Remix)-bg.png;
#LYRICSPATH:;
#CDTITLE:;
#MUSIC:Stayin' Alive (Albina Mango Remix).ogg;
#OFFSET:0.000000;
#SAMPLESTART:45.714287;
#SAMPLELENGTH:15.000000;
#SELECTABLE:YES;
#BPMS:0.000000=125.999992
;
#STOPS:
;
#BGCHANGES:;
#KEYSOUNDS:;
#ATTACKS:;

//---------------dance-single - ----------------
#NOTES:
     dance-single:
     :
     Beginner:
     1:
     0.086262,0.115439,0.026640,0.035520,0.000000,68.000000,65.000000,3.000000,4.000000,0.000000,0.000000,0.086262,0.115439,0.026640,0.035520,0.000000,68.000000,65.000000,3.000000,4.000000,0.000000,0.000000:
0000
0000
0000
0000
,
0000
0000
0000
0000
,
0000
0000
0000
0000
,
0000
0000
0000
0000
,
1000
0000
0000
0000
,
0001
0000
0000
0000
,
1000
0000
0000
0000
,
0001
0000
0000
0000
,
0100
0000
0000
0000
,
0010
0000
0000
0000
,
1000
0000
0000
0000
,
0001
0000
0000
0000
,
0010
0000
0000
0000
,
0100
0000
0000
0000
,
1000
0000
0000
0000
,
0001
0000
0000
0000
,
1001
0000
1000
0000
,
1000
0000
0000
0000
,
0001
0000
0001
0000
,
0001
0000
0000
0000
,
0100
0000
0100
0000
,
0100
0000
0000
0000
,
0010
0000
0010
0000
,
0010
0000
0000
0000
,
1000
0000
0010
0000
,
0100
0000
0000
0000
,
0001
0000
0010
0000
,
0100
0000
0000
0000
,
1000
0000
0001
0000
,
0100
0000
0000
0000
,
0010
0000
1000
0000
,
0001
0000
0000
0000
,
0020
0000
0030
0000
,
0200
0000
0300
0000
,
2000
0000
3000
0000
,
0002
0000
0003
0000
,
1001
0000
0000
0000
,
0001
0000
1000
0000
,
0100
0000
0000
0000
,
1000
0000
0001
0000
,
0100
0000
0000
0000
,
0010
0000
1000
0000
,
0001
0000
0000
0000
,
0010
0000
0001
0000
,
1000
0000
0000
0000
,
0010
0000
0100
0000
,
0001
0000
0000
0000
,
0010
0000
0100
0000
,
1000
0000
0000
0000
,
0001
0000
0100
0000
,
0010
0000
0000
0000
,
1000
0000
0001
0000
,
1001
0000
0000
0000
;

//---------------dance-single - ----------------
#NOTES:
     dance-single:
     :
     Easy:
     3:
     0.202969,0.282381,0.204237,0.230877,0.000000,160.000000,137.000000,23.000000,26.000000,0.000000,0.000000,0.202969,0.282381,0.204237,0.230877,0.000000,160.000000,137.000000,23.000000,26.000000,0.000000,0.000000:
0000
0000
0000
0000
,
0000
0000
0000
0000
,
0000
0000
0000
0000
,
0000
0000
0000
0000
,
0010
0000
1000
0000
,
0100
0000
0010
0000
,
0001
0000
1000
0000
,
0010
0000
0100
0000
,
2001
0000
0001
0000
,
0001
0000
3001
0000
,
0002
0000
0100
0000
,
0100
0000
0103
0000
,
0200
0000
0010
0000
,
0010
0000
0310
0000
,
0020
0000
1000
0000
,
1000
0000
1030
0000
,
1001
0000
0100
0000
,
0010
0001
1000
0000
,
0010
0000
0100
0000
,
0001
1000
0100
0000
,
0020
0030
0200
0300
,
1000
0001
0100
0000
,
0020
0030
0200
0300
,
0001
1000
0100
0000
,
0010
0010
0100
0100
,
2000
3000
0002
0003
,
0100
0100
0010
0010
,
2000
3000
0002
0003
,
1001
1001
1001
1001
,
0002
0003
2000
3000
,
0110
0110
0110
0110
,
0200
0300
0020
0030
,
0002
0000
0000
0000
,
2003
0000
0000
0000
,
3020
0000
0000
0000
,
0230
0000
0000
0300
,
0110
0110
0010
1000
,
0001
0010
0100
1000
,
1001
1001
0010
0100
,
0001
1000
0001
0010
,
0110
0110
0100
1000
,
0010
0001
0100
1000
,
1001
1001
0010
0100
,
0001
0010
0100
1000
,
2001
0001
0001
3001
,
0001
0100
0010
1000
,
1002
1000
1000
1003
,
0010
0100
0001
0010
,
0210
0010
0010
0310
,
0100
1000
0001
0100
,
0120
0100
0100
0130
,
0001
0010
0100
1000
,
2002
0000
0000
0000
,
3003
0000
0000
0000
;

//---------------dance-single - ----------------
#NOTES:
     dance-single:
     :
     Medium:
     5:
     0.310796,0.369403,0.293036,0.106559,0.000000,245.000000,212.000000,33.000000,12.000000,0.000000,0.000000,0.310796,0.369403,0.293036,0.106559,0.000000,245.000000,212.000000,33.000000,12.000000,0.000000,0.000000:
0000
0000
0000
0000
,
0000
0000
0000
0000
,
0000
0000
0000
0000
,
0000
0000
0000
0000
,
0001
0100
0001
0100
,
0010
1000
0010
1000
,
0100
0010
0100
0010
,
0001
1000
0001
1000
,
0001
0000
0100
0000
0001
1000
0100
0000
,
0010
0000
0001
0000
1000
0010
0100
0000
,
0010
0000
0100
0000
0001
1000
0100
0000
,
0010
0000
0001
0000
1000
0010
0100
0000
,
0010
0000
1000
0000
0001
0010
0100
0000
,
1000
0000
0001
0000
1000
0100
0010
0000
,
0002
0000
2003
0000
,
3020
0000
0230
0300
,
0110
0000
1001
0000
0001
1000
0100
0000
,
1000
0010
0100
0001
,
0011
0000
1100
0000
1000
0001
0100
0000
,
0010
1000
0001
0000
,
0010
0001
0010
0000
0100
0000
0100
0000
,
1000
0100
1000
0000
0001
0000
0001
0000
,
0100
0010
0100
0000
0010
0000
0010
0000
,
1000
0010
1000
0000
0001
0000
0001
0000
,
0011
0000
1100
0000
0001
1000
0100
0000
,
0020
0130
0020
0130
,
1100
0000
0011
0000
0001
1000
0010
0000
,
0200
0301
0200
0301
,
0011
1010
0011
1010
,
0010
0100
0010
0000
0100
0010
0100
0000
,
1100
0101
1100
0101
,
0100
0010
0100
0000
0100
0010
0100
0000
,
2000
0000
0000
0000
,
0002
3000
0000
0000
0000
0000
0000
0000
,
0203
0000
0000
0000
,
0320
0000
0000
0130
,
0101
0000
1010
0000
0010
1000
0001
0000
,
0010
0000
0100
0000
1000
0001
0100
0000
,
1010
0000
0101
0000
0001
1000
0100
0000
,
0010
0000
0100
0000
1000
0010
0100
0000
,
1001
0000
0110
0000
0010
0001
1000
0000
,
0010
0000
0100
0000
0010
1000
0001
0000
,
0011
0000
1100
0000
1000
0001
0100
0000
,
0010
0000
0100
0000
0001
0010
0100
0000
,
1100
0000
1100
0000
1000
0010
1000
0000
,
0010
1000
0010
0000
0100
0000
0001
0000
,
0011
0000
0011
0000
0001
0100
0001
0000
,
0100
0001
0100
0000
0010
0000
1000
0000
,
1010
0000
1001
0000
0001
0010
0001
0000
,
0001
1000
0001
0000
1000
0000
0010
0000
,
0110
0000
0101
0000
0001
0100
0001
0000
,
0010
0100
0010
0000
0001
1000
0010
0000
,
0110
0000
0000
0000
;

//---------------dance-single - ----------------
#NOTES:
     dance-single:
     :
     Hard:
     7:
     0.369150,0.392491,0.266397,0.071039,0.000000,291.000000,261.000000,30.000000,8.000000,0.000000,0.000000,0.369150,0.392491,0.266397,0.071039,0.000000,291.000000,261.000000,30.000000,8.000000,0.000000,0.000000:
0000
0000
0000
0000
,
0000
0000
0000
0000
,
0000
0000
0000
0000
,
0000
0000
0000
0000
,
0010
0000
1000
0000
0001
0010
0100
0000
,
1000
0000
0001
0000
0100
0010
1000
0000
,
0010
0000
1000
0000
0001
0010
0100
0000
,
1000
0000
0100
0000
0010
0001
1000
0000
,
0010
0000
0100
0000
0001
0100
0001
0000
,
0010
0000
0100
0000
1000
0001
1000
0000
,
0010
0000
0100
0000
0001
1000
0010
0000
,
0100
0000
0001
0000
0010
0100
1000
0000
,
0010
0000
1000
0000
0001
0010
1000
0000
,
0001
0000
0100
0000
1000
0010
0100
0000
,
0002
0010
2003
0100
,
3020
0001
0230
0310
,
0110
0000
0101
0000
0001
1000
0100
0000
,
1000
0010
0100
0000
0001
0010
0100
0000
,
1100
0000
0011
0000
0001
1000
0010
0000
,
1000
0001
0010
0100
1000
0001
0100
0000
,
0010
0100
0001
0000
0001
1000
0100
0000
,
0100
0010
0001
0010
1000
0010
0100
0000
,
0100
1000
0010
0000
0010
0100
0001
0000
,
0001
0010
1000
0010
0001
1000
0010
0000
,
0100
0001
0010
0001
1000
0010
1000
0001
,
0010
0001
0100
0000
0010
1000
0100
0000
,
0010
0100
1000
0001
0100
0010
0100
0001
,
0010
0100
1000
0000
0010
0100
0001
0000
,
0011
1010
1100
0101
,
0001
0100
1000
0000
0001
0010
1000
0000
,
1010
0011
0101
1100
,
1000
0100
0001
0000
1000
0010
0001
0000
,
1000
0010
0002
0000
0000
0000
0000
0000
,
2003
0000
0000
0000
,
3200
0000
0000
0000
,
0320
0000
0000
0100
0000
0100
0130
0000
,
0110
0000
0101
0000
0001
1000
0100
0000
,
1000
0010
1000
0100
1000
0001
0010
0000
,
0110
0000
1100
0000
1000
0001
0100
0000
,
0001
0010
0001
1000
0010
1000
0100
0000
,
0011
0000
1100
0000
1000
0001
0100
0000
,
0010
0100
0001
0100
0010
1000
0100
0000
,
1100
0000
0011
0000
0001
0010
0001
0000
,
1000
0010
1000
0100
0010
0100
1000
0000
,
1001
0000
0101
0000
0001
0100
0010
0000
,
0010
0100
0001
1000
0100
0010
0001
0000
,
0011
0000
1100
0000
1000
0001
0100
0000
,
0010
0100
0001
0010
0001
1000
0010
0000
,
1010
0000
0110
0000
0100
0001
0010
0000
,
0010
0001
1000
0010
0001
0010
1000
0000
,
1010
0000
0101
0000
0001
0010
0001
0000
,
1000
0100
0001
0100
1000
0010
0101
0000
,
1001
0000
0000
0000
;

//---------------dance-double - ----------------
#NOTES:
     dance-double:
     :
     Hard:
     8:
     0.405938,0.415579,0.230877,0.062159,0.435115,320.000000,294.000000,26.000000,7.000000,0.000000,0.000000,0.405938,0.415579,0.230877,0.062159,0.435115,320.000000,294.000000,26.000000,7.000000,0.000000,0.000000:
00000000
00000000
00000000
00000000
,
00000000
00000000
00000000
00000000
,
00000000
00000000
00000000
00000000
,
00000000
00000000
00000000
00000000
,
00100000
10000000
01000000
00010000
,
00001000
00000100
00000001
00000010
,
00000000
00000000
00000001
00000100
00000000
00000000
00000100
00000010
00000000
00000000
00000010
00001000
00000000
00000000
00001000
00000100
,
00000000
00000000
00000100
00010000
00000000
00000000
00010000
00001000
00000000
00000000
00001000
01000000
00000000
01000000
00100000
00000000
,
10000000
00000000
01000000
00100000
00000000
00000000
00100000
00010000
00000000
00000000
00010000
01000000
00000000
00000000
01000000
00001000
,
00000000
00000000
00001000
00010000
00000000
00000000
00010000
00000100
00000000
00000000
00000100
00000010
00000000
00000000
00000000
00000000
,
00000000
00000000
00000001
00001000
00000000
00000000
00001000
00000100
00000000
00000000
00000100
00000010
00000000
00000000
00000010
00001000
,
00000000
00000000
00001000
00010000
00000000
00000000
00010000
01000000
00000000
00000000
01000000
10000000
00000000
00000000
10000000
00010000
,
00000000
00000000
00010000
01000000
00000000
00000000
01000000
00001000
00000000
00000000
00001000
00010000
00000000
00000000
00010000
00000010
,
00000000
00000000
00000010
00000100
00000000
00000000
00000100
00000001
00000000
00000000
00000001
00000000
00000010
00000000
00000100
00000000
,
00002000
00000010
00000001
00000100
,
00023000
00100000
10000000
01000000
,
10030000
01000000
00010000
00001000
00000100
00000010
00001000
00000001
,
00000100
00001000
00010000
00000000
00100000
10000000
00010000
00000000
,
10000000
01000000
00000000
00020000
00000000
00030000
00000000
00000000
00001000
00000000
00000100
00000000
00000001
00000000
00000000
00000000
,
00000010
00000000
00000001
00001000
00000000
00000000
00000010
00010000
00000000
00010000
00000000
00010000
00000000
00001000
01000000
00000000
,
00100000
00000000
00000000
10100000
00000000
00000000
00000000
00000000
10000000
01000000
00000000
00010000
00000000
00000000
00000000
00000000
,
00001000
00000100
00000000
00000001
00000000
00000010
00000000
00000001
00000000
00001000
00000000
00001001
00000000
00000000
00000000
00000000
,
00000001
00000010
00000000
00000011
00000000
00000000
00000000
00000000
00000001
00000100
00000000
00001000
00000000
00000000
00000000
00000000
,
00010000
01000000
00000000
10000000
00000000
00100000
00000000
10000000
00000000
00010000
00000000
10010000
00000000
00000000
00000000
00000000
,
10000000
01000000
00010000
00001000
00000100
00000001
00000010
00000100
,
00001000
00000010
00000110
00000000
00000001
00000010
00000110
00000000
,
00000001
00000100
00001000
00010000
01000000
10000000
00100000
01000000
,
00010000
00100000
01100000
00000000
10000000
00100000
01100000
00000000
,
10010000
01001000
00010010
00000110
,
00001000
00000001
00001000
00000001
00000000
00000000
00000000
00000000
00000010
00000100
00000010
00000100
00000000
00000000
00000000
00000000
,
00001001
00010100
00101000
01100000
,
00010000
10000000
00010000
10000000
00000000
00000000
00000000
00000000
00100000
01000000
00100000
01000000
00000000
00000000
00000000
00000000
,
00010000
10000000
02000000
00000000
00000000
00000000
00000000
00000000
,
03020000
00000000
00000000
00000000
,
00032000
00000000
00000000
00000000
,
00003200
00000000
00000000
00000300
,
00001001
00000000
00000000
00000000
00000101
00000000
00000000
00000001
00000000
00000010
00000100
00000000
00000000
00000000
00000000
00000000
,
00000000
00000000
00010000
00000000
00000000
00010000
00000000
00001000
00000000
00000000
00100000
00000000
00100000
00010000
00000000
00000000
,
10010000
00000000
00000000
00000000
11000000
00000000
00000000
10000000
00000000
00100000
01000000
00000000
00000000
00000000
00000000
00000000
,
00000000
00000000
00001000
00000000
00000000
00001000
00000000
00010000
00000000
00000000
00000010
00000000
00000010
00001000
00000000
00000000
,
00001001
00000000
00000000
00000000
00000011
00000000
00000000
00000001
00000000
00000100
00000010
00000000
00000000
00000000
00000000
00000000
,
00000000
00000000
00010000
00000000
00000000
00010000
00000000
00001000
00000000
00000000
01000000
00000000
01000000
00010000
00000000
00000000
,
10010000
00000000
00000000
00000000
10100000
00000000
00000000
10000000
00000000
01000000
00100000
00000000
00000000
00000000
00000000
00000000
,
00000000
00000000
00001000
00000000
00000000
00001000
00000000
00010000
00000000
00000000
00000100
00000000
00000100
00001000
00000000
00000000
,
00000001
00000000
00000010
00000000
00001000
00000000
00000000
00010000
00000000
00010000
00000010
00000000
00001000
00000000
00000000
00000000
,
00010000
00000000
01000000
00000000
00100000
00000000
10000000
00010000
00000000
00000000
00100000
00000000
01000000
10000000
00000000
00000000
,
10000000
00000000
00100000
00000000
00010000
00000000
00000000
00001000
00000000
00001000
00100000
00000000
00010000
00000000
00000000
00000000
,
00001000
00000000
00000100
00000000
00000010
00000000
00000001
00001000
00000000
00000000
00000100
00000000
00000010
00000001
00000000
00000000
,
00000001
00000000
00000100
00000000
00001000
00000000
00000000
00010000
00000000
00010000
00000100
00000000
00001000
00000000
00000000
00000000
,
00010000
00000000
00100000
00000000
01000000
00000000
10000000
00010000
00000000
00000000
01000000
00000000
00100000
10000000
00000000
00000000
,
10000000
00000000
01000000
00000000
00010000
00000000
00000000
00001000
00000000
00001000
01000000
00000000
00010000
00000000
00000000
00000000
,
00001000
00000000
00000010
00000000
00000100
00000000
00000001
00001000
00000000
00000000
00000010
00000000
00000110
00000000
00000000
00000000
,
00001001
00000000
00000000
00000000
;

//---------------dance-double - ----------------
#NOTES:
     dance-double:
     :
     Medium:
     6:
     0.336167,0.392491,0.337436,0.035520,0.044399,265.000000,227.000000,38.000000,4.000000,0.000000,0.000000,0.336167,0.392491,0.337436,0.035520,0.044399,265.000000,227.000000,38.000000,4.000000,0.000000,0.000000:
00000000
00000000
00000000
00000000
,
00000000
00000000
00000000
00000000
,
00000000
00000000
00000000
00000000
,
00000000
00000000
00000000
00000000
,
00010000
00000000
01000000
00000000
10000000
01000000
00010000
00000000
,
00001000
00000000
00000100
00000000
00000001
00000100
00001000
00000000
,
00010000
00000000
00100000
00000000
10000000
00100000
00010000
00000000
,
00001000
00000000
00000010
00000000
00000001
00000010
00001000
00000000
,
00011000
00100000
10000000
01000000
,
00010000
00001000
00000010
00000001
,
00000100
00001000
00010000
00100000
,
10000000
01000000
00010000
00001000
,
00000010
00000001
00000100
00000010
,
00010000
00000000
00001000
00000000
00100000
00000000
00010000
10000000
,
01000000
00000000
01100000
00000000
00010000
00001000
00000010
00000000
,
00000100
00000000
00000110
00000000
00001000
00010000
00100000
00000000
,
01100000
00000000
10010000
00000000
10000000
01000000
00100000
00000000
,
00001000
00010000
00000100
00000000
00000010
00000001
00000100
00000000
,
00000110
00000000
00001001
00000000
00000001
00000100
00000010
00000000
,
00010000
00001000
01000000
00000000
00100000
10000000
01000000
00000000
,
00100000
00000000
00000000
00100000
00000000
00000000
00000000
00000000
00001000
00000000
00000000
00001000
00000000
00000000
00000000
00000000
,
00010000
00000000
00000000
00010000
00000000
00000000
00001000
00000000
00000100
00000000
00000001
00000000
00001000
00000000
00000000
00000000
,
00000010
00000000
00000000
00000010
00000000
00000000
00000000
00000000
00010000
00000000
00000000
00010000
00000000
00000000
00000000
00000000
,
00001000
00000000
00000000
00001000
00000000
00000000
00010000
00000000
01000000
00000000
10000000
00000000
00010000
00000000
00000000
00000000
,
10000000
00100000
00010000
00000000
00001000
00000010
00000001
00000000
,
00000100
00000010
00001000
00000000
00000100
00000010
00000001
00000000
,
00000001
00000100
00001000
00000000
00010000
01000000
10000000
00000000
,
01000000
00100000
00010000
00000000
01000000
00100000
10000000
00000000
,
11000000
01010000
00110000
10100000
,
10000000
01000000
00010000
00000000
00001000
00000100
00000001
00000000
,
00000101
00001100
00001010
00000011
,
00000001
00000100
00001000
00000000
00010000
01000000
10000000
00000000
,
00100000
20010000
00000000
00000000
,
32000000
00000000
00000000
00000000
,
03020000
00000000
00000000
00000000
,
00032000
00000000
00000000
00003000
,
00001100
00000000
00000101
00000000
00001000
00000001
00000100
00000000
,
00000001
00000010
00000000
00000100
00010000
00000000
00011000
00000000
,
01010000
00000000
11000000
00000000
00010000
10000000
01000000
00000000
,
10000000
00100000
00000000
01000000
00000000
00100000
00010000
00000000
,
00011000
00000000
00011000
00000000
00000010
00000001
00000100
00000000
,
00001000
00010000
00000000
00010000
00000000
00001000
00100000
00000000
,
00011000
00000000
00011000
00000000
00100000
10000000
01000000
00000000
,
00010000
00001000
00000000
00001000
00000000
00010000
00000010
00000000
,
00001010
00000000
00001001
00000000
00000001
00000100
00001000
00000000
,
00000000
00000000
00010000
00000000
00000000
00010000
00000000
00100000
00000000
00000000
10000000
00000000
01000000
00000000
00000000
00000000
,
00110000
00000000
10010000
00000000
10000000
01000000
00010000
00000000
,
00000000
00000000
00001000
00000000
00000000
00001000
00000000
00000010
00000000
00000000
00000001
00000000
00000100
00000000
00000000
00000000
,
00000110
00000000
00001001
00000000
00000001
00000010
00001000
00000000
,
00010000
00100000
10000000
01000000
00000000
01000000
00100000
00000000
,
01100000
00000000
10010000
00000000
10000000
00100000
00010000
00000000
,
00011000
00001100
00000101
00000110
,
00001001
00000000
00000000
00000000
;

//---------------dance-double - ----------------
#NOTES:
     dance-double:
     :
     Easy:
     3:
     0.197895,0.277053,0.168718,0.177598,0.000000,156.000000,137.000000,19.000000,20.000000,0.000000,0.000000,0.197895,0.277053,0.168718,0.177598,0.000000,156.000000,137.000000,19.000000,20.000000,0.000000,0.000000:
// measure 0
00000000
00000000
00000000
00000000
,  // measure 1
00000000
00000000
00000000
00000000
,  // measure 2
00000000
00000000
00000000
00000000
,  // measure 3
00000000
00000000
00000000
00000000
,  // measure 4
00000010
00000000
00000001
00000000
,  // measure 5
00000100
00000000
00001000
00000000
,  // measure 6
00010000
00000000
00100000
00000000
,  // measure 7
10000000
00000000
01000000
00000000
,  // measure 8
20010000
00000000
00010000
00000000
,  // measure 9
00010000
00000000
30010000
00000000
,  // measure 10
00020000
00000000
01000000
00000000
,  // measure 11
01000000
00000000
01030000
00000000
,  // measure 12
02000000
00000000
00001000
00000000
,  // measure 13
00001000
00000000
03001000
00000000
,  // measure 14
00002000
00000000
00010000
00000000
,  // measure 15
00010000
00000000
00013000
00000000
,  // measure 16
00011000
00000000
00000100
00000000
,  // measure 17
00000010
00000001
00001000
00000000
,  // measure 18
00000010
00000000
00010000
00000000
,  // measure 19
00001000
01000000
00010000
00000000
,  // measure 20
00200000
00300000
02000000
03000000
,  // measure 21
10000000
00010000
01000000
00000000
,  // measure 22
00002000
00003000
00020000
00030000
,  // measure 23
00000010
00001000
00000100
00000000
,  // measure 24
00000010
00000010
00000001
00000001
,  // measure 25
00002000
00003000
00000002
00000003
,  // measure 26
00000100
00000100
00001000
00001000
,  // measure 27
00020000
00030000
00002000
00003000
,  // measure 28
00010000
01000000
10000000
00100000
,  // measure 29
10010000
00000000
00011000
00000000
,  // measure 30
00001000
00000100
00000001
00000010
,  // measure 31
00001001
00000000
00011000
00000000
,  // measure 32
00200000
00000000
00000000
00000000
,  // measure 33
20300000
00000000
00000000
00000000
,  // measure 34
32000000
00000000
00000000
00000000
,  // measure 35
03020000
00000000
00000000
00030000
,  // measure 36
00011000
00011000
00001000
00000100
,  // measure 37
00000001
00001000
00000010
00000100
,  // measure 38
00011000
00011000
00010000
01000000
,  // measure 39
10000000
00010000
00100000
01000000
,  // measure 40
00011000
00011000
00001000
00000010
,  // measure 41
00000001
00001000
00000100
00000010
,  // measure 42
00011000
00011000
00010000
00100000
,  // measure 43
10000000
00010000
01000000
00100000
,  // measure 44
20010000
00010000
00010000
30010000
,  // measure 45
10000000
01000000
00010000
00001000
,  // measure 46
00012000
00010000
00010000
00013000
,  // measure 47
00010000
00001000
00000100
00000001
,  // measure 48
00001002
00001000
00001000
00001003
,  // measure 49
00000001
00000100
00001000
00010000
,  // measure 50
00021000
00001000
00001000
00031000
,  // measure 51
00001000
00010000
01000000
10000000
,  // measure 52
10010000
00000000
00000000
00000000
;
