#TITLE:Single Ladies (Put a Ring On It);
#SUBTITLE:;
#ARTIST:Beyonce;
#TITLETRANSLIT:;
#SUBTITLETRANSLIT:;
#ARTISTTRANSLIT:;
#GENRE:;
#CREDIT:;
#BANNER:Single Ladies (Put A Ring On It).png;
#BACKGROUND:;
#LYRICSPATH:;
#CDTITLE:;
#MUSIC:Single Ladies (Put A Ring On It).ogg;
#OFFSET:0.480;
#SAMPLESTART:1.550;
#SAMPLELENGTH:15.000;
#SELECTABLE:YES;
#BPMS:0.000=97.000;
#STOPS:;
#BGCHANGES:;
#KEYSOUNDS:;

//---------------dance-single - ----------------
#NOTES:
     dance-single:
     :
     Beginner:
     1:
     0.073,0.061,0.000,0.000,0.000:
0000
0000
0000
0000
,
1000
0000
0000
0000
,
0001
0000
0000
0000
,
0100
0000
0000
0000
,
0010
0000
0010
0000
,
0010
0000
0000
0000
,
0100
0000
0100
0000
,
0100
0000
0000
0000
,
0001
0000
0001
0000
,
0001
0000
0000
0000
,
1000
0000
1000
0000
,
1000
0000
0000
0000
,
0100
0000
0100
0000
,
0100
0000
0000
0000
,
1000
0000
0000
0000
,
0001
0000
0000
0000
,
0010
0000
0000
0000
,
0100
0000
0010
0000
,
0100
0000
0000
0000
,
1000
0000
0001
0000
,
1000
0000
0000
0000
,
0010
0000
0000
0000
,
0100
0000
0000
0000
,
0001
0000
0000
0000
,
1000
0000
0000
0000
,
0100
0000
0100
0000
,
0100
0000
0000
0000
,
1000
0000
1000
0000
,
1000
0000
0000
0000
,
0001
0000
0001
0000
,
0001
0000
0000
0000
,
0010
0000
0010
0000
,
0010
0000
0000
0000
,
0100
0000
0000
0000
,
1000
0000
0000
0000
,
0001
0000
0000
0000
,
0010
0000
0000
0000
,
0100
0000
1000
0000
,
0100
0000
0000
0000
,
0010
0000
0001
0000
,
0010
0000
0000
0000
,
0001
0000
0000
0000
,
0100
0000
0000
0000
,
0010
0000
0000
0000
,
1000
0000
0000
0000
,
0001
0000
0000
0000
,
0010
0000
0000
0000
,
0100
0000
0000
0000
,
1000
0000
0000
0000
,
0001
0000
0000
0000
;

//---------------dance-single - ----------------
#NOTES:
     dance-single:
     :
     Hard:
     8:
     0.498,0.466,0.453,0.099,0.128:
0000
0000
0000
0000
,
0101
0001
0000
1000
1100
0100
0000
0010
,
0110
0100
0000
1000
1100
0001
0000
0100
,
0110
0010
0000
1000
1100
1000
0000
0010
,
0110
0100
0000
0001
1000
0220
0000
0330
,
0010
0001
0100
0100
0001
1000
0100
0100
,
1000
0010
0001
0100
2000
0000
3001
0001
,
0100
0010
0100
0100
0001
1000
0001
0001
,
0010
1000
0100
0001
0020
0000
0130
1000
,
0001
0100
0010
0010
0100
0001
0010
0010
,
1000
0000
0010
0000
0001
0000
0010
0000
0200
0000
0000
0310
0000
0000
0010
0000
,
0100
1000
0001
0001
0100
0010
1000
1000
,
0010
0001
0100
1000
0002
0000
0103
0010
,
0100
0000
0001
0000
0010
0000
0001
0000
1000
0000
0100
1000
0000
0000
0010
0000
,
0100
0000
0001
0000
0010
0000
0001
0000
1000
0000
0010
1000
0000
0000
0010
0000
,
0100
0000
0001
0000
0010
0000
0001
0000
0100
0000
0010
0100
0000
0000
0001
0000
,
0100
0000
0010
0000
0100
0000
0001
0000
1000
0000
0100
1000
0001
0000
1000
0000
,
1001
0000
0000
0000
0101
0000
1001
0000
0101
0000
0000
0001
0000
1000
0000
0000
,
1100
0000
0110
0011
0110
0000
1100
1001
,
0101
0000
0000
0000
0110
0000
0101
0000
1001
0000
0000
1001
0000
0000
0100
0000
,
0110
0000
0011
1100
1001
0000
0001
0100
,
0001
0000
0010
0000
0100
0000
1000
0000
0010
0000
1000
0100
0000
0000
0010
0000
,
0001
0000
0100
0000
0010
0000
0100
0000
0001
0000
1000
0100
0000
0000
0010
0000
,
0100
0000
1000
0000
0010
0000
0100
0000
0001
0000
1000
0100
0000
0010
0000
0000
,
0100
0000
1000
0000
0001
0000
0100
0000
0010
0000
0100
0001
0000
0100
0001
0000
,
1000
0100
0010
0010
0001
1000
0010
0010
,
1000
0010
0001
0100
2000
0000
3001
0100
,
0010
0100
0001
0001
0010
0100
1000
1000
,
0001
0010
1000
0100
0002
0000
0103
0010
,
1000
0100
1000
1001
0001
0100
0101
0001
,
0010
0000
0100
0000
1000
0000
0010
0000
0200
0000
0000
0310
0000
0000
0100
0000
,
0001
0010
0100
0100
1000
0001
0100
0001
,
0010
1000
0100
0001
2000
0000
3001
0100
,
0010
0000
0100
0000
0001
0000
0001
0000
1000
0000
0100
1000
0000
0000
0001
0000
,
0100
0000
0010
0000
0100
0000
0001
0000
0010
0000
0100
1000
0000
0010
0000
0000
,
1000
0000
0001
0000
0100
0000
0010
0000
0100
0000
0001
0010
0000
0000
0100
0000
,
1000
0000
0001
0000
0100
0000
0010
0000
0100
0000
0001
0100
0001
0000
1000
0000
,
1100
0000
0000
0000
1001
0000
1100
0000
1001
0000
0000
0101
0000
1001
0000
0000
,
1100
0000
1010
1001
0011
0000
0010
0100
,
1100
0000
0000
0000
0011
0000
1100
0000
1001
0000
0000
0101
0000
0000
1001
0000
,
1100
0000
0011
0110
1100
0000
0001
0100
,
0010
0000
0100
0000
0001
0000
0010
0000
0100
0000
1000
0001
0000
0000
0100
0000
,
0010
0000
0100
0000
0001
0000
0010
0000
0100
0000
1000
0001
0000
0000
0100
0000
,
0010
0000
1000
0000
0100
0000
0010
0000
0100
0000
1000
0010
0000
0000
0100
0000
,
0001
0000
0100
0000
0010
0000
1000
0000
0001
0000
0010
0001
0010
0000
0100
0000
,
1100
0000
1001
0000
0101
0000
0100
0000
0010
0000
0100
0001
0000
0000
0010
0000
,
0100
0000
1000
0000
0010
0000
1000
0000
0001
0000
0010
0001
0000
0100
0000
0000
,
0010
0000
0100
0000
0001
0000
0010
0000
0100
0000
1000
0010
0000
0000
1000
0000
,
0001
0010
0100
1000
0010
0100
0101
1001
,
0220
0330
0000
0000
;

//---------------dance-single - ----------------
#NOTES:
     dance-single:
     :
     Medium:
     5:
     0.333,0.304,0.165,0.091,0.000:
0000
0000
0000
0000
,
0001
0100
0000
0000
0001
1000
0000
0000
,
0100
1000
0000
0000
0010
1000
0000
0000
,
0001
0010
0000
0000
0100
1000
0000
0000
,
0010
0100
0000
0001
1000
2002
0000
3003
,
0001
0100
0001
0000
1000
0100
1000
0000
,
0001
0010
0001
0010
0002
0000
0003
0000
,
0100
0010
0100
0000
0010
1000
0010
0000
,
0100
0010
0100
0010
2000
0000
3000
0000
,
0001
0010
0100
0000
0010
0001
1000
0000
,
0010
0100
0010
0100
0002
0000
0003
0000
,
0010
0100
0010
0000
0100
1000
0100
0000
,
1000
0010
0100
0001
2000
0000
3000
0000
,
0001
0100
0001
0000
1000
0000
1000
0000
,
0010
0100
0010
0000
1000
0000
1000
0000
,
0001
0010
0001
0000
0100
0000
0100
0000
,
0010
1000
0001
0000
0010
0000
0100
0000
,
0110
0000
0100
1000
0001
0000
0100
0000
,
0101
0000
0001
0010
0100
0000
1000
0000
,
1100
0000
1000
0010
0100
0000
0001
0000
,
1001
0000
0001
0010
0100
0000
0000
0000
,
1000
0100
1000
0000
1100
0000
1001
0000
,
0001
0100
0001
0000
0101
0000
1001
0000
,
1000
0010
1000
0000
1001
0000
0011
0000
,
0001
0010
0100
0000
1100
0000
1001
0000
,
0001
0100
0001
0000
1000
0100
1000
0000
,
0001
0100
0001
0100
0002
0000
0003
0000
,
1000
0010
1000
0000
0001
0010
0001
0000
,
1000
0010
1000
0010
0200
0000
0300
0000
,
0010
0100
0001
0000
0100
0010
1000
0000
,
0001
0010
0001
0010
0002
0000
0003
0000
,
1000
0100
1000
0000
0010
0100
0010
0000
,
0100
0001
0100
0001
0200
0000
0300
0000
,
0001
0010
0001
0000
1000
0000
1000
0000
,
0010
0100
0010
0000
0100
0000
0100
0000
,
0001
0100
0001
0000
0010
0000
0010
0000
,
0100
1000
0100
0000
1000
0000
0001
0000
,
0100
0000
0010
0100
0001
0000
1000
0000
,
0100
0000
0010
0001
1000
0000
1100
1100
,
1001
0000
0001
0100
0010
0000
0100
0000
,
0101
0000
0001
1000
0100
0000
0010
0000
,
0100
0010
0100
0010
0100
0000
0010
0000
,
0001
0010
0001
0010
0001
0000
0010
0000
,
0100
1000
0100
1000
0100
0000
1000
0000
,
0001
0100
0001
0100
0001
0000
1000
0001
,
1001
1001
1001
0000
0001
0000
0100
0000
,
0010
1000
0010
0000
0100
0000
0001
0000
,
0010
0001
0010
0000
0100
0000
1000
0000
,
0010
1000
0010
0000
0100
0000
0001
1000
,
0200
0300
0000
0000
;

//---------------dance-single - ----------------
#NOTES:
     dance-single:
     :
     Easy:
     3:
     0.185,0.161,0.008,0.016,0.000:
0000
0000
0000
0000
,
0001
0000
1000
0000
,
0001
0000
1000
0000
,
0010
0000
0100
0000
,
0010
0000
0100
0000
,
0001
0010
0100
0000
,
1000
0001
0100
0000
,
0010
0100
0001
0000
,
0010
0100
1000
0000
,
0010
1000
0100
0000
,
0010
0001
2000
3000
,
0010
0100
0001
0000
,
0010
0001
1000
0000
,
0010
0100
0001
0001
,
0010
0100
1000
1000
,
0010
0100
0001
0001
,
0010
0100
1000
0000
,
0001
1000
0100
0000
,
1000
0001
0100
0000
,
0010
1000
0001
0000
,
0010
0001
1000
0000
,
0100
1000
0010
0010
,
0100
0001
0010
0010
,
0100
1000
0010
0010
,
0100
0001
0010
0000
,
0100
0000
1000
0000
,
0001
0100
0010
0000
,
1000
0000
0001
0000
,
0010
0001
0100
0000
,
0010
1000
0100
0000
,
1000
0001
0200
0300
,
0010
1000
0001
0000
,
0010
0001
0100
0000
,
0010
1000
0100
0100
,
0010
0001
0100
0100
,
0010
1000
0100
0100
,
0010
0001
0100
0000
,
0010
0100
0001
0000
,
0010
0100
1000
0000
,
0010
1000
0001
0000
,
0100
0001
1000
0000
,
0100
1000
0010
0010
,
0100
0001
0010
0010
,
0100
1000
0010
0010
,
0100
0001
0010
0000
,
0010
0001
0100
0100
,
0010
1000
0100
0100
,
0010
0001
0100
0100
,
0010
1000
0100
0000
,
0110
0000
0000
0000
;

//---------------dance-double - K. Pearman----------------
#NOTES:
     dance-double:
     K. Pearman:
     Easy:
     3:
     0.196,0.202,0.000,0.000,0.000:
00000000
00000000
00000000
00000000
,
00000000
00000000
00000000
00000000
,
00000000
00000000
00000000
00000000
,
00000000
00000000
00000000
00000000
,
00100000
00000000
10000000
00000000
00010000
00100000
00000000
00000000
,
01000000
01000000
10000000
00010000
,
01000000
01000000
00001000
00000000
,
00010000
00000100
00001000
00001000
,
00000001
00000010
00000100
00000000
,
00001000
00001000
00000010
00000010
,
00001000
00000010
00000100
00000000
,
00000001
00000001
00000010
00000010
,
00000001
00000010
00000100
00000000
,
00010000
00001000
00010000
00000000
,
00001000
00010000
00001000
00000000
,
00100000
00001000
00010000
00000000
,
00000010
00010000
00001000
00000000
,
01000000
01000000
01000000
00100000
,
10000000
10000000
10000000
00100000
,
01000000
01000000
01000000
00001000
,
00010000
00010000
00010000
00000100
,
00000010
00000001
00000100
00000000
,
00000010
00001000
00000100
00000000
,
00000001
00000100
00001000
00000000
,
00000001
00000010
00001000
00000000
,
00010000
00010000
00001000
00001000
,
00010000
00001000
00010000
00000000
,
00100000
10000000
00100000
00100000
,
10000000
10000000
01000000
00000000
,
00100000
00100000
00010000
00010000
,
00100000
00010000
01000000
00000000
,
00001000
00010000
00000100
00000100
,
00010000
00000100
00001000
00000000
,
00000010
00000100
00000001
00001000
,
00000010
00000100
00000001
00001000
,
00000100
00010000
00001000
01000000
,
00100000
00000000
01000000
00000000
00010000
00000000
01000000
01000000
,
01000000
00100000
10000000
00010000
,
01000000
00000000
00000000
00000000
00001000
00000000
00010000
00010000
,
00010000
00000100
00001000
00000001
,
00000010
00000100
00001000
00000000
,
00000010
00000100
00000001
00001000
,
00000010
00000100
00000001
00001000
,
00000010
00001000
00010000
01000000
,
00100000
00000000
10000000
00000000
00010000
00000000
01000000
01000000
,
01000000
01000000
01000000
00000000
00100000
00000000
10000000
00000000
,
01000000
10000000
00100000
00100000
,
01000000
00010000
00100000
00100000
,
00001000
00010000
00001000
00010000
,
00000100
00000000
00000000
00000000
;

//---------------dance-double - K. Pearman----------------
#NOTES:
     dance-double:
     K. Pearman:
     Medium:
     5:
     0.279,0.284,0.107,0.025,0.000:
00000000
00000000
00000000
00000000
,
00000000
00000000
00000000
00000000
,
00000000
00000000
00000000
00000000
,
00000000
00000000
00000000
00000000
,
01000000
00000000
00010000
00000000
10000000
00100000
00000000
00000000
,
01000000
01000000
00010000
00000000
00100000
00100000
00010000
00000000
,
10000000
10000000
00010000
01000000
01000000
00000000
00000000
00000000
,
00001000
00001000
00010000
00000000
00000100
00000100
00010000
00000000
,
00000010
00000010
00010000
00000100
00001000
00000000
00000000
00000000
,
00000001
00000101
00000010
00001010
,
00000001
00000000
00000101
00000000
00000010
00001000
00000100
00000000
,
00010000
00000000
00010000
00000000
00001000
00001000
00010000
00000000
,
00100000
00000000
01000000
01000000
00010000
00000000
00000000
00000000
,
10000000
10000000
01000000
01000000
10000000
00000000
00000000
00000000
,
00010000
00010000
01000000
01000000
00010000
00000000
00000000
00000000
,
10000000
00000000
00010000
00000000
01000000
00100000
01000000
00000000
,
00001000
00000000
00010000
00000000
00000100
00001000
00000001
00000001
,
00001000
00000000
00000010
00000000
00000100
00000000
00000001
00000001
,
00000100
00000000
00000010
00000000
00001000
00000000
00000100
00000100
,
00000010
00001000
00010000
00100000
,
01000000
00000000
00010000
00010000
10000000
00000000
00010000
00000000
,
01000000
01000000
00010000
00000000
00100000
00000000
00110000
00000000
,
01000000
01000000
10000000
00000000
00100000
00000000
10100000
00000000
,
01000000
00001000
00010000
00000100
,
00000010
00000010
00000001
00000000
00000100
00000000
00000101
00000000
,
00000010
00000010
00001000
00000000
00000100
00000000
00000010
00000000
,
00000100
00001000
00000002
00000003
,
00001000
00000100
00010000
00001000
,
01000000
00000000
00010000
00000000
10000000
00010000
01000000
00000000
,
00100000
01000000
00001000
00010000
,
00000100
00001000
00000020
00000130
,
00000010
00000010
00000100
00000000
00000001
00000000
00001000
00000000
,
00000001
00001000
00000001
00000000
00000100
00000000
00000000
00000000
,
00000010
00000010
00001000
00001000
00000010
00000000
00001000
00000000
,
00000100
00000100
00010000
00010000
00000100
00000000
00010000
00000000
,
00001000
00001000
01000000
01000000
00001000
00000000
01000000
00000000
,
00100000
00100000
10000000
10000000
00010000
00000000
10000000
00000000
,
11000000
00010000
01010000
10000000
,
10100000
00000000
00010000
00000000
00110000
00000000
00100000
00010000
,
01000000
00000000
00001000
00000000
00010000
00000000
00000100
00001000
,
00000010
00010000
00001000
00000000
,
00010000
00010000
00000100
00000100
00001000
00000000
00000000
00000000
,
00000001
00000001
00000010
00000010
00000001
00000000
00000000
00000000
,
00000100
00000100
00000010
00000010
00001000
00000000
00000000
00000000
,
00000100
00000100
00010000
00010000
00001000
00000000
01000000
00000000
,
01010000
01010000
01010000
00000000
01000000
00000000
00001000
00000000
,
00010000
00001000
00010000
00000000
00000100
00000000
00010000
00000000
,
00001000
00010000
00001000
00000000
01000000
00000000
00001000
00000000
,
00010000
00001000
00010000
00000000
00000100
00000000
00000010
00000001
,
00000200
00000300
00000000
00000000
;

//---------------dance-double - K. Pearman----------------
#NOTES:
     dance-double:
     K. Pearman:
     Hard:
     7:
     0.370,0.345,0.041,0.008,0.000:
00000000
00000000
00000000
00000000
,
00000000
00000000
00000000
00000000
,
00000000
00000000
00000000
00000000
,
00000000
00000000
00000000
00000000
,
10000000
01000000
10000000
00000000
00010000
00100000
00010000
00000000
,
01000000
01000000
00100000
00100000
10000000
00010000
10000000
00000000
,
01000000
00010000
00001000
00000100
00000010
00000000
00000000
00000000
,
00000100
00000100
00000010
00000010
00001000
00000001
00000100
00000100
,
00000010
00001000
00000100
00000010
00001000
00000000
00010000
00000000
,
00100000
00010000
00001000
00000000
00010000
00001000
00000010
00000000
,
00001000
00010000
01000000
10000000
00010000
01000000
10000000
00000000
,
01000000
01000000
00010000
00010000
10000000
01000000
00010000
00000000
,
00001000
00010000
00000100
00001000
00000001
00000000
00000000
00000000
,
00000100
00000100
00000001
00000001
00000100
00001000
00010000
00000000
,
01000000
01000000
10000000
10000000
01000000
00010000
00001000
00000000
,
00000100
00000100
00000001
00000001
00000100
00001000
00010000
00000000
,
01000000
01000000
10000000
10000000
01000000
00010000
00001000
00000010
,
00000001
00000000
00000100
00000010
00001001
00000000
00000001
00001000
,
00000100
00000000
00010000
00001000
01000000
00000000
00010000
01000000
,
10000000
00000000
01000000
00100000
10010000
00000000
10000000
01000000
,
00010000
00000000
00001000
00000100
00000001
00000000
00001000
00000000
,
00000010
00000010
00001000
00001000
00000001
00000010
00001000
00000000
,
00100000
00100000
00010000
00010000
10000000
00100000
00010000
00000000
,
00000010
00000010
00001000
00001000
00000001
00000010
00001000
00000000
,
00100000
00100000
00010000
00010000
10000000
00100000
00010000
00001000
,
00000010
00000100
00001000
00001000
00000001
00000100
00000010
00000010
,
00001000
00000100
00000001
00000100
00000010
00000100
00001000
00000000
,
00000001
00001000
00000010
00000010
00010000
00001000
00100000
00100000
,
00010000
10000000
01000000
01000000
10000000
00100000
01000000
00000000
,
00100000
00010000
00001000
00000010
00001000
00000001
00001000
00010000
,
00001000
00100000
01000000
10000000
00010000
01000000
00100000
00000000
,
01000000
00010000
00100000
10000000
00100000
00010000
01000000
00000000
,
00001000
00010000
00100000
10000000
01000000
00001000
00000100
00000000
,
00000010
00000010
00000001
00000001
00000100
00001000
00010000
00000000
,
00100000
00100000
10000000
10000000
01000000
00010000
00001000
00000000
,
00000010
00000010
00000001
00000001
00000100
00001000
00010000
00000000
,
00100000
00100000
10000000
10000000
01000000
00010000
00001000
00000010
,
00000100
00000000
00001000
00000001
00000100
00000000
00000001
00000100
,
00001000
00000000
00010000
01000000
00100000
00000000
00010000
01000000
,
10000000
00000000
01000000
00010000
00100000
00000000
01000000
10000000
,
00100000
00000000
01000000
00001000
00010000
00000000
00000100
00000000
,
00000010
00000010
00000001
00000001
00001000
00000010
00000001
00000000
,
00000010
00000010
00001000
00001000
00000001
00000010
00001000
00000000
,
00100000
00100000
00010000
00010000
10000000
00100000
00010000
00000000
,
00100000
00100000
10000000
10000000
00010000
00100000
10000000
00000000
,
00110000
00110000
00110000
01000000
10000000
00010000
01000000
00000000
,
10000000
01000000
00010000
00100000
00001000
00010000
00000100
00000010
,
00001000
00000010
00000001
00000100
00001000
00000100
00000010
00001000
,
00000100
00000010
00001000
00010000
00100000
00010000
00001000
00010000
,
00002000
00003000
00000000
00000000
;
