#TITLE:Silence;
#SUBTITLE:;
#ARTIST:猫叉Master;
#TITLETRANSLIT:;
#SUBTITLETRANSLIT:;
#ARTISTTRANSLIT:Nekomata Master;
#GENRE:;
#CREDIT:;
#BANNER:Silence.png;
#BACKGROUND:Silence-bg.png;
#LYRICSPATH:;
#CDTITLE:;
#MUSIC:Silence.ogg;
#OFFSET:-7.219570;
#SAMPLESTART:68.248001;
#SAMPLELENGTH:12.000000;
#SELECTABLE:YES;
#BPMS:0.000000=175.000000
;
#STOPS:
;
#BGCHANGES:;
#KEYSOUNDS:;
#ATTACKS:;

//---------------dance-single - ----------------
#NOTES:
     dance-single:
     :
     Hard:
     8:
     0.578386,0.565384,0.231642,0.342428,0.040286,345.000000,23.000000,34.000000,0.000000,0.000000,0.000000,0.578386,0.565384,0.231642,0.342428,0.040286,345.000000,23.000000,34.000000,0.000000,0.000000,0.000000:
0000
0000
0000
0000
,
0001
0000
0100
0001
0010
0000
0100
1000
,
0001
1000
0010
0000
0100
0000
0010
1000
,
0100
0000
0010
0001
1000
0001
0100
0000
,
0001
0000
1000
0010
0001
0000
0010
1000
,
0100
1000
0001
0000
1000
0000
0001
0100
,
1000
0000
0100
0000
0001
0000
0010
0100
,
2000
0000
0000
3020
0000
0000
0230
0000
,
0000
0302
0000
0000
0023
0000
0000
0230
,
0000
0000
2300
0000
0000
3002
0000
0000
,
0103
0000
0010
0100
0001
0000
0010
0000
,
0100
1000
0001
0000
1000
0000
0100
0001
,
0100
0000
1000
0000
0010
0001
0010
1000
,
0002
0000
0000
0023
0000
0000
0230
0000
,
0000
2300
0000
0000
3010
0000
0110
0000
,
0101
1001
1100
0110
,
0011
0000
0001
0100
0001
0000
1000
0000
,
0010
1000
0010
0000
1100
0000
0100
1000
,
0100
0000
0020
0000
0031
0010
0001
0100
,
0010
0000
0010
1000
0000
1000
0100
0000
,
0100
0010
0000
0010
0001
0000
0001
1000
,
0000
1000
0010
0000
0010
0100
0000
0100
,
0001
0000
1000
0100
0001
0000
0100
0000
,
1000
0010
0001
0000
0010
1000
0001
0010
,
0001
1000
0100
0000
0010
0000
0001
0010
,
0001
0000
0001
0100
0000
0100
0010
0000
,
0010
1000
0000
1000
0100
0000
0100
0001
,
0000
0001
0010
0000
0010
1000
0000
1000
,
0001
0000
0100
0001
1000
0000
0010
0000
,
0100
0001
0010
0000
0110
0000
0100
1000
,
0001
2000
0000
3000
,
1010
0000
0000
0000
0000
0000
0100
0000
0000
0001
0000
0000
0100
0000
0000
0000
0001
0000
0010
0000
0000
0000
0000
0000
,
0100
0000
0000
1000
0000
0000
0100
0000
0000
0000
1000
0000
0010
0000
0000
0000
0000
0000
0100
0000
0000
0001
0000
0000
,
1000
0000
0000
0000
0100
0000
1000
0000
0000
0000
0000
0000
1000
0000
0000
0010
0000
0000
0100
0000
0000
0000
0001
0000
,
0010
0000
0100
0010
0100
0000
1001
0000
,
0001
0000
0100
0000
0001
0000
1000
0100
1000
0000
0000
0000
0001
0000
0000
0000
,
1000
0000
0001
0010
0001
0000
0000
0000
1000
0000
0010
0000
0110
0000
0000
0000
,
0101
0000
0000
0000
0000
0000
0001
0000
0000
1000
0000
0000
0100
0000
0000
0000
0010
0000
0100
0000
0000
0000
0000
0000
,
1000
0100
1000
0010
0200
0000
0302
0000
,
0023
2030
3200
0301
,
1001
0000
1000
0010
0001
0000
1001
0000
,
0001
0010
1000
0000
1001
0000
1000
0100
,
0001
0000
0001
0100
1000
0010
0100
0000
,
0002
0010
0000
0010
0000
0003
2000
0010
,
0000
0010
3010
0000
0011
0000
0001
0100
,
0001
0010
0200
0000
1300
0100
1000
0010
,
0200
0000
0301
0100
0010
1000
0002
0000
,
1003
0100
0010
0100
2000
0000
3001
0100
,
0010
0100
0002
0000
1003
0000
1010
0000
,
1001
0000
0000
0000
0001
0000
0000
0000
1000
0000
0010
0100
0010
0000
0000
0000
,
1000
0100
0010
0001
2000
0000
3001
0100
,
1000
0100
0002
0000
1003
0100
0001
0100
,
2000
0000
3001
0010
1000
0010
0002
0000
,
1003
0010
0001
0010
2000
0000
3001
0010
,
0100
0001
0200
0000
1300
0010
0100
1000
,
0200
0000
0301
0010
1000
0001
0200
0000
,
1300
0010
0110
0000
1001
0000
1000
0100
,
0010
0100
1000
0000
0001
0100
0010
0100
,
0001
0000
1000
0010
0100
0010
1000
0000
,
0001
0010
0100
0010
0001
0100
0001
0100
,
0010
0000
1000
0100
1000
0100
0010
0000
,
0001
0010
1000
0010
0001
0000
0011
0000
,
1100
0000
0010
0110
0000
0000
0000
0000
;

//---------------dance-single - ----------------
#NOTES:
     dance-single:
     :
     Beginner:
     2:
     0.097837,0.189594,0.010071,0.030214,0.000000,64.000000,1.000000,3.000000,0.000000,0.000000,0.000000,0.097837,0.189594,0.010071,0.030214,0.000000,64.000000,1.000000,3.000000,0.000000,0.000000,0.000000:
0000
0000
0000
0000
,
0000
0000
0000
0000
,
0000
0000
0000
0000
,
0000
0000
0000
0000
,
0000
0000
0000
0000
,
0000
0000
0000
0000
,
0000
0000
0000
0000
,
0010
0000
0000
1000
,
0000
0000
0001
0000
,
0000
1000
0000
0000
,
0100
0000
0000
0000
,
0000
0000
0100
0000
,
0000
0000
0000
0000
,
0001
0000
0000
1000
,
0000
0000
0001
0000
,
0000
1000
0000
0000
,
0010
0000
0000
0000
,
0000
0000
0010
0000
,
0000
0000
0000
0000
,
0001
0000
0000
1000
,
0000
0000
0001
0000
,
0000
0100
0000
0000
,
1000
0000
0000
0000
,
0000
0000
0001
0000
,
0000
0000
0000
0000
,
0010
0000
0000
0001
,
0000
0000
1000
0000
,
0000
0001
0000
0000
,
0010
0000
0000
0000
,
0000
0000
0100
0000
,
0000
1000
0000
0000
,
0001
0000
0000
1000
,
0000
0000
0010
0000
,
0000
1000
0000
0000
,
0100
0000
0000
0001
,
0000
0000
0100
0000
,
0000
0010
0000
0000
,
1000
0000
0000
0001
,
0000
0000
0010
0000
,
0000
0100
0000
0000
,
1000
0000
0000
0001
,
0000
0000
1000
0000
,
0000
0010
0000
0000
,
0002
0000
0000
0000
,
0000
0003
1000
0000
,
0000
0100
0000
0000
,
0001
0000
0000
0010
,
0000
0000
0001
0000
,
0000
1000
0000
0000
,
0010
0000
0000
0100
,
0000
0000
0001
0000
,
0000
0100
0000
0000
,
1000
0000
0000
0010
,
0000
0000
1000
0000
,
0000
0100
0000
0000
,
0010
0000
0000
0001
,
0000
0000
1000
0000
,
0000
0000
0000
0000
,
0001
0000
0000
0000
,
0000
0000
0100
0000
,
0000
0000
0000
0000
,
0010
0000
0000
1000
,
0000
2002
0000
3003
;

//---------------dance-single - ----------------
#NOTES:
     dance-single:
     :
     Easy:
     4:
     0.294948,0.379188,0.040286,0.292071,0.000000,172.000000,4.000000,29.000000,0.000000,0.000000,0.000000,0.294948,0.379188,0.040286,0.292071,0.000000,172.000000,4.000000,29.000000,0.000000,0.000000,0.000000:
// measure 0
0000
0000
0000
0000
,  // measure 1
1000
0100
1000
0001
,  // measure 2
0000
0000
0010
0100
,  // measure 3
0010
1000
0000
0000
,  // measure 4
0001
0100
0001
1000
,  // measure 5
0000
0000
0010
0100
,  // measure 6
0010
0001
0000
0000
,  // measure 7
1000
0000
0000
0100
0000
0000
0010
0000
,  // measure 8
0000
0001
0000
0000
0100
0000
0000
0010
,  // measure 9
0000
0000
1000
0000
0000
0001
0000
0000
,  // measure 10
1000
0000
0001
1000
,  // measure 11
0000
0010
0100
0000
,  // measure 12
0100
0001
0000
0001
,  // measure 13
0010
0000
0000
1000
0000
0000
0001
0000
,  // measure 14
0000
0100
0000
0000
1000
0000
0001
0000
,  // measure 15
1000
0100
0010
0100
,  // measure 16
0001
0000
0000
1000
,  // measure 17
0000
0010
0100
0000
,  // measure 18
0000
0001
0000
1000
,  // measure 19
2000
0000
0000
3200
0000
0000
0320
0000
,  // measure 20
0000
0032
0000
0000
0203
0000
0000
0320
,  // measure 21
0000
0000
2030
0000
0000
3200
0000
0000
,  // measure 22
1300
0000
0000
0001
,  // measure 23
0000
0000
0100
0000
,  // measure 24
0000
0010
0000
0001
,  // measure 25
0002
0000
0000
0203
0000
0000
0320
0000
,  // measure 26
0000
2030
0000
0000
3200
0000
0000
0320
,  // measure 27
0000
0000
0032
0000
0000
0203
0000
0000
,  // measure 28
0301
0000
1000
0100
,  // measure 29
0000
0001
0100
0000
,  // measure 30
0010
0200
0000
0301
,  // measure 31
1000
0001
1000
0001
,  // measure 32
0100
0001
1000
0001
,  // measure 33
1000
0010
0100
0010
,  // measure 34
0100
0001
0100
0010
,  // measure 35
1000
0010
1000
0100
,  // measure 36
1000
0010
0001
0010
,  // measure 37
0200
0000
0310
0002
,  // measure 38
0000
0103
1000
0100
,  // measure 39
0010
0001
0010
0100
,  // measure 40
1000
0000
1000
0001
,  // measure 41
0000
0000
0110
0000
,  // measure 42
0000
0010
1000
0001
,  // measure 43
0020
0000
0000
0000
,  // measure 44
0000
0030
1001
1000
,  // measure 45
0100
0010
0100
1000
,  // measure 46
0010
0001
0100
0010
,  // measure 47
0100
1000
0020
0000
,  // measure 48
0030
0200
0000
0001
,  // measure 49
0301
0000
0010
2000
,  // measure 50
0000
3000
1001
0001
,  // measure 51
0100
0010
0100
1000
,  // measure 52
0010
0001
0100
0010
,  // measure 53
1000
0001
0200
0000
,  // measure 54
0300
2000
0000
3000
,  // measure 55
0002
0000
0003
0020
,  // measure 56
0000
1000
1030
0000
,  // measure 57
0100
0001
0000
0010
,  // measure 58
1000
0000
0100
0010
,  // measure 59
0000
0001
0100
0010
,  // measure 60
1000
0100
0000
0001
,  // measure 61
1000
0000
0010
1000
,  // measure 62
0001
0220
0000
0330
;

//---------------dance-single - ----------------
#NOTES:
     dance-single:
     :
     Medium:
     6:
     0.467601,0.537184,0.100714,0.614356,0.025179,254.000000,10.000000,61.000000,0.000000,0.000000,0.000000,0.467601,0.537184,0.100714,0.614356,0.025179,254.000000,10.000000,61.000000,0.000000,0.000000,0.000000:
// measure 0
0000
0000
0000
0000
,  // measure 1
1000
0001
0100
1000
,  // measure 2
0100
0010
0100
0001
,  // measure 3
1000
0100
0010
0001
,  // measure 4
1000
0100
1000
0001
,  // measure 5
0010
0100
1000
0001
,  // measure 6
0100
0000
0020
0000
0000
0030
1000
0001
,  // measure 7
2000
0000
0000
3200
0000
0000
0320
0000
,  // measure 8
0000
0032
0000
0000
0203
0000
0000
0320
,  // measure 9
0000
0000
2030
0000
0000
0002
3000
0003
,  // measure 10
0010
0100
1000
0010
,  // measure 11
0100
0010
1000
0001
,  // measure 12
0100
0000
0001
0000
1000
0000
0010
0100
,  // measure 13
0020
0000
0000
2030
0000
0000
3002
0000
,  // measure 14
0000
0023
0000
0000
0130
0000
1000
0000
,  // measure 15
0001
0100
0010
1000
,  // measure 16
0100
0000
0000
0000
0010
0001
1000
0000
,  // measure 17
0000
0100
1001
0000
,  // measure 18
0100
0000
1000
0000
0001
0000
0010
0100
,  // measure 19
0020
0000
0000
0032
0000
0000
2003
0000
,  // measure 20
0000
3200
0000
0000
2300
0000
0000
3002
,  // measure 21
0000
0000
0203
0000
0000
0320
0000
0000
,  // measure 22
1030
0100
1000
0001
,  // measure 23
0010
0100
0010
0000
1001
0000
0010
0000
,  // measure 24
0100
0000
0001
0000
1000
0000
0001
1000
,  // measure 25
0002
0000
0000
2003
0000
0000
3020
0000
,  // measure 26
0000
0230
0000
0000
0302
0000
0000
0023
,  // measure 27
0000
0000
0230
0000
0000
2300
0000
0000
,  // measure 28
3001
0000
0010
0000
0100
1000
0001
0000
,  // measure 29
0100
0000
0001
0000
1001
0000
1000
0100
,  // measure 30
0010
0002
0000
0000
,  // measure 31
1003
0000
0000
0100
0000
0000
1000
0000
1000
0010
0000
0000
,  // measure 32
0100
0000
0000
0100
0000
0100
0001
0000
0000
1000
0000
0000
,  // measure 33
0001
0000
0001
0100
0000
0000
0010
0000
0000
1000
0000
1000
,  // measure 34
0010
1000
0100
1001
,  // measure 35
0100
0000
0001
0010
0002
0000
0003
0000
,  // measure 36
1000
0010
2000
0000
3000
0000
0100
0000
,  // measure 37
1001
0000
0000
0100
0000
0000
0010
0000
0010
1000
0000
0000
,  // measure 38
0100
0000
1000
0010
0200
0000
0302
0000
,  // measure 39
2003
3020
0000
0230
,  // measure 40
0302
0000
1003
0100
1000
0000
0020
0030
,  // measure 41
0100
0001
0100
0000
0020
0030
1000
0010
,  // measure 42
1000
0000
0002
0003
0010
0001
0010
0000
,  // measure 43
2002
0000
0000
0000
,  // measure 44
3003
0000
0000
0000
2000
0000
3001
0100
,  // measure 45
0010
0000
0020
0000
0130
0001
1000
0000
,  // measure 46
0002
0000
0103
0010
0100
0000
0020
0000
,  // measure 47
0130
0010
0100
0000
0002
0000
1003
0010
,  // measure 48
1000
0000
0200
0000
0310
0100
0010
0000
,  // measure 49
0020
0000
0000
0000
0031
1000
0002
0000
,  // measure 50
0000
0000
0003
0000
0200
0000
1300
0100
,  // measure 51
1000
0000
0002
0000
0103
0001
0100
0000
,  // measure 52
0002
0000
1003
0100
1000
0000
0200
0000
,  // measure 53
0310
0100
0010
0000
0020
0000
0001
0000
,  // measure 54
0130
0020
1000
0130
,  // measure 55
2000
0001
3100
0002
,  // measure 56
1003
0000
0110
0000
1001
0000
1000
0100
,  // measure 57
1000
0000
0100
0000
0010
0001
0010
0000
,  // measure 58
0001
0000
1000
0010
1000
0000
0010
0000
,  // measure 59
0100
0010
0100
0000
0001
0100
0001
0000
,  // measure 60
0010
0000
0001
0010
0100
0000
1000
0000
,  // measure 61
0010
1000
0001
0000
0100
0000
0110
0000
,  // measure 62
1001
0000
0002
2000
0000
0000
3003
0000
;

//---------------dance-double - ----------------
#NOTES:
     dance-double:
     :
     Hard:
     7:
     0.520836,0.568783,0.080571,0.563999,0.005036,298.000000,8.000000,56.000000,0.000000,0.000000,0.000000,0.520836,0.568783,0.080571,0.563999,0.005036,298.000000,8.000000,56.000000,0.000000,0.000000,0.000000:
00000000
00000000
00000000
00000000
,
00010000
00000000
00001000
00000100
00001000
00000000
00010000
00000000
,
00001000
00000010
00001000
00000000
00000010
00000000
00000001
00000100
,
00000001
00000010
00000220
00000330
,
00001000
00000000
00010000
01000000
00010000
00000000
00001000
00000000
,
00010000
00100000
00010000
00000000
00100000
00000000
10000000
00000000
,
00010000
00000000
20020000
00000000
30030000
00000000
00100000
10000000
,
02000000
00000000
00000000
03020000
00000000
00000000
00032000
00000000
,
00000000
00003020
00000000
00000000
00000032
00000000
00000000
00000203
,
00000000
00000000
00000320
00000000
00000000
00002030
00000000
00000000
,
00003001
00000000
00000100
00000000
00001000
00000000
00010000
00100000
,
01000000
00010000
10000000
00000000
01000000
00000000
00000000
00010000
,
00000000
00000000
00002000
00000000
00003000
00000000
00000010
00000001
,
00000200
00000000
00000000
00002300
00000000
00000000
00023000
00000000
,
00000000
00230000
00000000
00000000
10300000
00000000
01000000
00000000
,
00100000
01000000
00010000
00001000
,
00000100
00000001
00000000
00000001
00001000
00000000
00000100
00000000
,
00010000
00000010
00010000
00000000
00001000
00000000
01000000
00010000
,
01000000
00000000
01100000
00000000
00000000
00000000
00100000
10000000
,
02000000
00000000
00000000
03020000
00000000
00000000
00032000
00000000
,
00000000
00003020
00000000
00000000
00000032
00000000
00000000
00000203
,
00000000
00000000
00000320
00000000
00000000
00002030
00000000
00000000
,
00003001
00000000
00000001
00000100
00001000
00000000
00000100
00000010
,
00000000
00000100
00001000
00000000
00010000
00000000
00100000
10000000
,
01000000
00000000
00010000
00000000
00001000
00000000
00000010
00000001
,
00000200
00000000
00000000
00002300
00000000
00000000
00023000
00000000
,
00000000
00230000
00000000
00000000
20300000
00000000
00000000
32000000
,
00000000
00000000
03200000
00000000
00000000
00320000
00000000
00000000
,
10030000
00000000
01000000
00100000
00010000
00100000
01000000
00000000
,
00010000
00000000
00001000
00000100
00000001
00000000
00001000
00000010
,
00000100
00000001
00000000
00000000
,
00000020
00000000
00000030
00000001
00000100
00001000
00000200
00000000
,
00000320
00000000
00001030
00000100
00020000
00000000
00032000
00000000
,
01003000
00010000
00200000
00000000
10300000
00100000
00010000
01000000
,
00200000
00000000
00300000
10000000
01000000
00010000
02000000
00000000
,
03200000
00000000
00310000
01000000
00002000
00000000
00023000
00000000
,
00030100
00001000
00000010
00000100
00000001
00000010
00000100
00000000
,
00000020
00000000
00000031
00000100
00000010
00010000
00001000
00000100
,
00000001
00000010
00000200
00000000
00020300
00000000
00032000
00000000
,
00103000
00010000
10000000
01000000
00010000
01000000
10000000
00000000
,
00100000
10000000
01000000
00000000
00100000
00000000
00010000
00100000
,
00001000
00000000
00010000
00000000
00000100
00000010
00000001
00000010
,
00000100
00000000
00010000
00001000
00010000
00000010
00000100
00000001
,
00001000
00000000
00000000
00000000
,
00000000
00000000
00000000
00000000
00000010
00000100
00000000
00000100
,
00000001
00000000
00000001
00000010
00001000
00010000
00001000
00000000
,
01000000
00100000
00000000
00100000
10000000
00000000
10000000
01000000
,
00010000
00001000
00010000
00000000
01010000
00000000
01000000
00010000
,
00001000
00000000
00001100
00000000
00000100
00001000
00010000
00000000
,
00002000
00000000
00000000
00000000
00000000
00000000
00003010
00000000
00000000
00000000
00000001
00000100
00000001
00000000
00001000
00000000
,
00000100
00010000
00001000
00000000
00100000
01000000
00000000
01000000
,
10000000
00000000
10000000
00100000
00010000
00001000
00010000
00000000
,
00000100
00000010
00000000
00000010
00000001
00000000
00000001
00000100
,
00001000
00010000
00001000
00000000
00001100
00000000
00000100
00001000
,
00010000
01000000
00010000
00001000
00000100
00000000
00000001
00001000
,
00000001
00000000
00000010
00001000
00010000
00100000
00010000
00001000
,
00000010
00000000
00001000
00000000
00010000
00000000
00100000
10000000
,
00010000
10000000
01000000
10000000
00010000
10000000
01000000
00100000
,
00010000
00000000
00010000
01000000
00000000
00100000
00020000
00000000
,
00032000
00000000
00003200
00000000
00000310
00000000
00000010
00001000
,
00000000
00000001
00000200
00000000
00002300
00000000
00023000
00000000
,
00130000
00000000
10000000
00010000
10000000
00000000
11000000
00000000
,
01010000
00000000
00010000
00002000
00000000
00000000
00003000
00000000
;

//---------------dance-double - ----------------
#NOTES:
     dance-double:
     :
     Medium:
     5:
     0.399979,0.408333,0.010071,0.543856,0.000000,223.000000,1.000000,54.000000,0.000000,0.000000,0.000000,0.399979,0.408333,0.010071,0.543856,0.000000,223.000000,1.000000,54.000000,0.000000,0.000000,0.000000:
00000000
00000000
00000000
00000000
,
00001000
00000001
00000100
00001000
,
00010000
00100000
10000000
00000000
,
00010000
20000000
00000000
30000000
,
00010000
10000000
00100000
00010000
,
00001000
00000100
00000001
00000010
,
00000100
00000000
00002000
00000000
00000000
00003000
00010000
00001000
,
00020000
00000000
00000000
02030000
00000000
00000000
03200000
00000000
,
00000000
20300000
00000000
00000000
32000000
00000000
00000000
03200000
,
00000000
00000000
00320000
00000000
00000000
00032000
00000000
00000000
,
00003200
00000000
00000000
00000320
00000000
00000000
00000032
00000000
,
00000000
00002003
00000000
00000000
00003010
00000000
00010000
00000000
,
00001000
00000000
00000010
00000000
00000100
00000000
00001000
00010000
,
00002000
00000000
00000000
00003200
00000000
00000000
00000320
00000000
,
00000000
00000032
00000000
00000000
00000103
00000000
00000010
00000000
,
00010000
00001000
01000000
00010000
,
20000000
00000000
00000000
30200000
00000000
00000000
02300000
00000000
,
00000000
03020000
00000000
00000000
00130000
00000000
00001000
00000000
,
00010000
00000000
00000100
00000000
00000000
00000000
00000010
00000001
,
00002000
00000000
00000000
00003200
00000000
00000000
00000320
00000000
,
00000000
00002030
00000000
00000000
00023000
00000000
00000000
00230000
,
00000000
00000000
20300000
00000000
00000000
32000000
00000000
00000000
,
03010000
00001000
00000100
00000001
,
00000000
00001000
00000100
00010000
,
00001000
00000000
01000000
00000000
00000000
00000000
00100000
10000000
,
00020000
00000000
00000000
02030000
00000000
00000000
03200000
00000000
,
00000000
00320000
00000000
00000000
00032000
00000000
00000000
00003020
,
00000000
00000000
00000032
00000000
00000000
00000203
00000000
00000000
,
00001300
00010000
01000000
10000000
,
00000000
00000000
00010000
00100000
00001000
00000000
00000000
00000000
,
00010000
00002000
00000000
00000000
,
00003010
00000000
00000000
00000000
00000001
00000010
00000001
00000000
,
00000100
00000000
00000000
00000100
00001000
00000000
00000000
00000000
,
00000000
00001000
00010000
00000000
00000000
00000000
00000000
00010000
,
00100000
00000000
00000000
00000000
00000000
00100000
10000000
00000000
,
00010000
00010000
10010000
10000000
,
01000000
00000000
00100000
00000000
00010000
01000000
00100000
10000000
,
00010000
00000000
00000000
00000000
10000000
00100000
10000000
00000000
,
01000000
00010000
00001000
00000100
,
00000001
00000020
00000000
00000030
,
00000001
00000100
00001000
00010000
,
00100000
10000000
10000000
01000000
,
00010000
00000000
00001000
00000010
00001000
00000010
00001000
00000010
,
00000200
00000000
00000000
00000000
,
00000300
00000000
00000000
00000000
00001000
00000000
00001000
00000020
,
00000000
00000030
00010000
00000000
00010000
00002000
00000000
00003000
,
01000000
00000000
01000000
00020000
00000000
00030000
10000000
00000000
,
10000000
00200000
00000000
00300000
00010000
00000000
00010000
00002000
,
00000000
00003000
00000100
00000000
00000001
00000000
00000010
00000000
,
00002000
00000000
00003000
00000000
00000000
00010000
00001000
01000000
,
00010000
00000000
10000000
00000000
00010000
00000000
00010000
00200000
,
00000000
00300000
00001000
00000000
00001000
00020000
00000000
00030000
,
00000100
00000000
00000100
00002000
00000000
00003000
00000001
00000000
,
00000001
00000020
00000000
00000030
00001000
00000000
00001000
00020000
,
00000000
00030000
01000000
00000000
10000000
00000000
00100000
00000000
,
00010000
00000000
00010000
00002000
00000000
00003000
00000100
00000000
,
00000001
00000010
00002000
00003000
,
00000000
00010000
00001000
00100000
00010000
01000000
00100000
10000000
,
00010000
00000000
10000000
01000000
00000000
01000000
00010000
00000000
,
00001000
00000000
00000100
00000000
00001000
00000000
00010000
00000010
,
00000000
00000010
00001000
00000000
00000100
00000000
00000010
00000000
,
00000001
00000000
00000001
00000100
00000000
00000100
00001000
00000000
,
00010000
00000000
00001000
00010000
00000000
00000000
00000000
00000000
;

//---------------dance-double - ----------------
#NOTES:
     dance-double:
     :
     Easy:
     4:
     0.253224,0.346205,0.030214,0.130928,0.000000,160.000000,3.000000,13.000000,0.000000,0.000000,0.000000,0.253224,0.346205,0.030214,0.130928,0.000000,160.000000,3.000000,13.000000,0.000000,0.000000,0.000000:
00000000
00000000
00000000
00000000
,
00010000
00000000
00010000
00001000
,
00000000
00001000
00000100
00000000
,
00000100
00000001
00000100
00000000
,
00001000
00000000
00001000
00010000
,
00000000
00010000
01000000
00000000
,
01000000
10000000
00000000
00000000
,
00010000
00000000
00000000
01000000
00000000
00000000
00100000
00000000
,
00000000
10000000
00000000
00000000
01000000
00000000
00000000
00010000
,
00000000
00000000
00001000
00000000
00000000
00000100
00000000
00000000
,
00000001
00000000
00000000
00000001
00000000
00000000
00001000
00000000
,
00000000
00001000
00000000
00000000
00000200
00000000
00000000
00000000
,
00000000
00000310
00000000
00000001
,
00001000
00000000
00000000
00000100
00000000
00000000
00000010
00000000
,
00000000
00000001
00000000
00000000
00000100
00000000
00000010
00000000
,
00001000
00000100
00010000
00001000
,
00100000
00000000
00000000
01000000
,
00000000
00000000
10000000
00000000
,
00010000
10000000
00000000
00000000
,
00010000
00000000
00000000
00100000
00000000
00000000
01000000
00000000
,
00000000
10000000
00000000
00000000
00100000
00000000
00000000
00010000
,
00000000
00000000
00001000
00000000
00000000
00000010
00000000
00000000
,
00000001
00000000
00000000
00000001
00000000
00000000
00001000
00000000
,
00000000
00001000
00000000
00000000
00000020
00000000
00000000
00000000
,
00000000
00000130
00000000
00000001
,
00001000
00000000
00000000
00000010
00000000
00000000
00000100
00000000
,
00000000
00000001
00000000
00000000
00000010
00000000
00000000
00001000
,
00000000
00000000
00010000
00000000
00000000
00100000
00000000
00000000
,
20000000
00000000
00000000
30010000
,
00000000
00100000
01000000
00000000
,
00000000
10010000
00000000
00000000
,
10000000
01000000
10000000
01000000
,
00010000
01000000
00010000
00001000
,
00010000
00001000
00000100
00000001
,
00000100
00000000
00000001
00000100
,
00000001
00000100
00001000
00010000
,
00001000
00010000
00000000
00100000
,
10000000
00100000
10000000
00100000
,
00010000
00100000
00010000
00001000
,
00000010
00000001
00000000
00000000
,
00002000
00000000
00000000
00003002
,
00000000
00000000
00000023
00000000
,
00000000
00001030
00010000
00001000
,
00011000
00000000
00000000
00000000
,
00000000
00000000
00000000
00000000
00100000
00000000
00000000
00100000
,
00000000
00000000
10000000
00000000
00000000
10000000
00000000
00000000
,
01000000
00000000
00000000
01000000
00000000
00000000
00010000
00000000
,
00000000
00010000
00000000
00000000
00001000
00000000
00000000
00001000
,
00000000
00000200
00000000
00000301
,
00000020
00000000
00000000
00000130
,
00000000
00000000
00000000
00000000
00000010
00000000
00000000
00000010
,
00000000
00000000
00000001
00000000
00000000
00000001
00000000
00000000
,
00000100
00000000
00000000
00000100
00000000
00000000
00001000
00000000
,
00000000
00001000
00000000
00000000
00010000
00000000
00000000
00010000
,
00000000
02000000
00000000
03000000
,
00010000
00000000
00000000
00010000
00000000
00000000
00002000
00000000
,
00000000
00003100
00000002
00000000
,
00000013
00000001
00001000
00000001
,
00000100
00000000
00000000
00000100
00000000
00000000
00001000
00000000
,
00000000
00001000
00000000
00000000
00010000
00000000
00000000
00010000
,
00000000
00000000
01000000
00000000
00000000
01000000
00000000
00000000
,
10000000
00010000
10000000
01000000
,
00100000
02200000
03300000
00000000
;
