#TITLE:Shake It Off;
#SUBTITLE:;
#ARTIST:Taylor Swift;
#TITLETRANSLIT:;
#SUBTITLETRANSLIT:;
#ARTISTTRANSLIT:;
#GENRE:;
#CREDIT:;
#BANNER:Shake It Off.png;
#BACKGROUND:Shake It Off-bg.png;
#LYRICSPATH:;
#CDTITLE:;
#MUSIC:Shake It Off.ogg;
#OFFSET:-0.009659;
#SAMPLESTART:41.535648;
#SAMPLELENGTH:14.380000;
#SELECTABLE:YES;
#BPMS:0.000000=160.000000
;
#STOPS:
;
#BGCHANGES:-1.000=Shake It Off.avi=1.000=1=0=0=StretchNoLoop==CrossFade==,
99999=-nosongbg-=1.000=0=0=0 // don't automatically add -songbackground-
;
#KEYSOUNDS:;
#ATTACKS:;

//---------------dance-single - ----------------
#NOTES:
     dance-single:
     :
     Beginner:
     2:
     0.142085,0.193628,0.000000,0.010581,0.000000,94.000000,94.000000,0.000000,1.000000,0.000000,0.000000,0.142085,0.193628,0.000000,0.010581,0.000000,94.000000,94.000000,0.000000,1.000000,0.000000,0.000000:
0000
0000
0000
0000
,
0000
0000
0000
0000
,
0000
0000
0000
0000
,
0000
0000
0000
0000
,
0010
0000
0000
0000
,
0000
0000
0100
0100
,
0100
0000
0000
0000
,
0000
0000
0001
0001
,
0001
0000
0000
0000
,
0010
0000
0100
0000
,
0100
0000
0000
0100
,
0100
0000
1000
0000
,
1000
0000
1000
0000
,
0001
0000
0001
0000
,
0001
0000
0001
0000
,
0010
0000
0010
0000
,
0010
0000
0000
0100
,
0100
0000
1000
0000
,
1000
0000
0000
1000
,
1000
0000
0100
0000
,
0100
0000
0100
0000
,
0010
0000
0010
0000
,
0010
0000
0010
0000
,
0001
0000
0001
0000
,
0001
0000
0001
0000
,
1000
1000
0000
0000
,
0010
0010
0000
0000
,
0000
0100
0100
0000
,
0001
0000
0001
0000
,
0001
0000
0000
0000
,
0010
0010
0010
0000
,
0000
0000
0000
0000
,
1000
1000
1000
0000
,
0000
0000
0000
0000
,
0000
0001
0000
0000
,
1000
0000
0000
0000
,
0010
0010
0010
0000
,
0000
0000
0000
0000
,
1000
1000
1000
0000
,
0000
0000
0000
0000
,
0100
0100
0100
0100
,
0000
0000
0000
0000
,
0000
0010
0000
0000
,
0100
0000
0000
0000
,
0000
0100
0000
0000
,
0010
0000
0000
0000
,
0000
0010
0000
0000
,
0010
0000
0000
0000
,
0000
1000
0000
0000
,
1000
0000
0000
0000
,
0000
0001
0000
0000
,
0001
0000
0000
0000
,
0001
0001
0000
0100
,
0100
0000
0000
0000
,
0010
0010
0000
1000
,
1000
0000
0000
0000
,
0100
0100
0000
0001
,
0001
0000
0100
0000
,
0100
0100
0000
0010
,
0010
0020
0000
0000
,
0000
0000
0000
0000
,
0030
0000
0000
0000
;

//---------------dance-single - ----------------
#NOTES:
     dance-single:
     :
     Easy:
     5:
     0.247893,0.352075,0.158712,0.052904,0.000000,164.000000,149.000000,15.000000,5.000000,0.000000,0.000000,0.247893,0.352075,0.158712,0.052904,0.000000,164.000000,149.000000,15.000000,5.000000,0.000000,0.000000:
0000
0000
0000
0000
,
0000
0000
0000
0000
,
0000
0000
0000
0000
,
0000
0000
0000
0000
,
0001
0000
0100
0000
,
0100
0000
0100
0000
,
0020
0000
0000
0030
,
0000
0000
0001
0001
,
0002
0000
0003
0100
,
0100
0001
0100
0000
,
0100
0000
0000
0100
,
0100
0000
1000
0000
,
1000
0000
1000
0000
,
0001
0000
0001
0000
,
0001
0000
0001
0000
,
0010
0000
0010
0000
,
0010
0000
0000
0100
,
0100
0000
1000
0000
,
1000
0000
0000
1000
,
1000
0000
0100
0000
,
0100
0000
0100
0000
,
0010
0000
0010
0000
,
0010
0000
0010
0000
,
0001
0000
0001
0000
,
0001
0000
0001
0000
,
1000
1000
0000
0000
,
0010
0010
0000
0000
,
0000
0100
0100
0000
,
0001
1000
0001
1000
,
0001
1000
0001
1000
,
0010
0010
0010
0010
,
0100
0100
0100
0100
,
1000
0010
1000
0010
,
1000
0010
1000
0010
,
1000
0001
0000
0001
,
1000
0000
0000
0000
,
0010
0100
0010
0100
,
0010
0100
0010
0100
,
1000
1000
1000
1000
,
0001
0001
0001
0001
,
1000
0001
1000
0001
,
1000
0001
1000
0001
,
1000
0010
0000
0010
,
0100
0000
0000
0000
,
0100
1100
0000
0010
,
0011
0000
0100
0100
,
0010
1010
0000
0001
,
0101
0000
0010
0010
,
0100
0101
0000
0001
,
1001
0000
1000
1000
,
0001
0011
0000
0100
,
0220
0000
0000
0330
,
0010
1010
0000
0010
,
0011
0100
0100
0100
,
1000
1100
0000
0100
,
0110
0000
0010
0010
,
0100
0110
0000
0001
,
1001
0000
1000
1000
,
0010
1010
0000
0100
,
0020
0000
0000
0000
,
0000
0000
0030
0000
;

//---------------dance-single - ----------------
#NOTES:
     dance-single:
     :
     Medium:
     7:
     0.300796,0.353530,0.052904,0.571362,0.000000,199.000000,194.000000,5.000000,54.000000,0.000000,0.000000,0.300796,0.353530,0.052904,0.571362,0.000000,199.000000,194.000000,5.000000,54.000000,0.000000,0.000000:
0000
0000
0000
0000
,
0000
0000
0000
0000
,
0000
0000
0000
0000
,
0000
0000
0000
0000
,
0010
0000
0100
0000
,
0001
0000
0000
0000
1000
0000
0010
0001
,
1000
0001
0010
1000
,
0000
0000
0100
0000
0010
1000
0001
0000
,
0100
1000
0000
0100
,
0100
0000
0001
0000
0100
0000
0001
0010
,
0100
1000
0000
0010
,
0010
0000
1000
0000
0001
0000
0010
1000
,
0010
0001
1000
0100
,
0010
0000
0100
0000
1000
0000
0100
0001
,
0010
1000
0001
1000
,
0010
0000
0100
0000
0010
0000
0010
1000
,
0010
0001
1000
0010
,
0010
0000
0001
0000
1000
0100
0001
0000
,
1000
0010
0000
0001
,
0001
1000
0001
1000
,
0100
0000
0110
0000
,
1000
0000
1010
0000
,
0010
0000
0011
0000
,
0001
0000
0101
0000
,
0001
0000
1001
0000
,
0001
1000
0001
0001
,
1000
0010
1000
0010
,
1000
0001
0001
0001
,
1000
0010
2000
3200
,
0320
0032
0023
0030
,
0001
0001
0002
0023
,
0230
2300
3020
0230
,
0301
0001
2000
3002
,
2003
3002
2003
3002
,
2003
3001
0000
0002
,
1003
0100
0100
0100
,
0001
0001
0020
0230
,
0302
2003
3200
0302
,
0103
0100
0020
0032
,
0023
0230
2300
3100
,
0001
0020
2030
3020
,
0230
0320
2030
3010
,
0200
0310
0000
0020
,
0130
0001
0001
0001
,
2000
3100
0000
0020
,
0031
0000
0001
0001
,
2000
3001
0000
0020
,
1030
0000
0010
0010
,
0200
0301
0000
0002
,
0103
0010
0010
0010
,
0002
0013
0000
0100
,
0001
0001
0001
0000
,
2000
3001
0000
0200
,
0310
0000
1000
1000
,
0002
0013
0000
0200
,
0301
0000
0001
0001
,
0200
1300
0000
0020
,
0031
0000
0100
0010
,
0200
0310
0000
2000
,
0020
0000
0000
0000
,
0000
0000
0000
3030
;

//---------------dance-single - ----------------
#NOTES:
     dance-single:
     :
     Hard:
     8:
     0.479158,0.578504,0.497297,0.253939,0.000000,317.000000,270.000000,47.000000,24.000000,0.000000,0.000000,0.479158,0.578504,0.497297,0.253939,0.000000,317.000000,270.000000,47.000000,24.000000,0.000000,0.000000:
// measure 0
0000
0000
0000
0000
,  // measure 1
0000
0000
0000
0000
,  // measure 2
0000
0000
0000
0000
,  // measure 3
0000
0000
0000
0000
,  // measure 4
0001
0000
0000
0000
0100
0001
0000
0001
,  // measure 5
0100
0000
0100
0000
0001
1000
0001
0100
,  // measure 6
0010
0100
0000
0000
0010
0000
1000
0100
,  // measure 7
0001
1000
0100
0000
0001
0100
0010
1000
,  // measure 8
0100
0000
1000
0000
0001
1000
1000
0000
,  // measure 9
0001
0000
0010
0000
0100
0001
0100
0100
,  // measure 10
0001
0010
1000
0100
,  // measure 11
0100
0000
1000
0100
0001
0100
1000
0001
,  // measure 12
0001
0100
0001
0000
1000
0000
0001
0001
,  // measure 13
0100
0000
0001
0100
0010
1000
0100
0010
,  // measure 14
0001
0000
1000
0000
0001
0000
0100
0001
,  // measure 15
1000
0000
1000
0000
0010
1000
0001
0001
,  // measure 16
1000
0100
0001
0000
1000
0000
0010
0000
,  // measure 17
0010
0000
0001
0000
1000
0100
1000
0010
,  // measure 18
0001
0010
1000
0000
0100
0000
0001
0000
,  // measure 19
0010
1000
0001
1000
,  // measure 20
0210
0000
0301
0000
,  // measure 21
1000
0001
0100
0010
,  // measure 22
2100
0000
3001
0000
,  // measure 23
0010
0100
0001
0100
,  // measure 24
0012
0000
1003
0000
,  // measure 25
0010
0000
1000
0000
0100
0000
1000
0010
,  // measure 26
1000
0010
1000
0010
,  // measure 27
1000
0000
0100
0000
0010
0000
0010
0100
,  // measure 28
1000
1000
1100
0101
,  // measure 29
1100
0000
0101
0000
1100
0000
0100
0010
,  // measure 30
0001
0001
0011
0110
,  // measure 31
1100
0110
0011
0001
,  // measure 32
1000
0100
0010
0001
1001
0000
0110
0000
,  // measure 33
1001
0110
1001
0110
,  // measure 34
1000
0100
0020
0000
0030
0000
0001
0010
,  // measure 35
0200
0300
0100
0000
,  // measure 36
0100
0001
0100
0000
0110
0000
1001
0000
,  // measure 37
0110
1001
0110
1001
,  // measure 38
0001
0010
0100
1000
1100
0000
0101
0000
,  // measure 39
1100
0101
1100
1000
,  // measure 40
1000
0100
0010
0100
1010
0000
0011
0000
,  // measure 41
1010
0011
1010
0011
,  // measure 42
1000
0100
2000
0000
3100
0000
0001
0010
,  // measure 43
0002
0103
0001
0001
,  // measure 44
0100
0010
2000
0000
3001
0000
0100
0010
,  // measure 45
0002
1003
0110
0110
,  // measure 46
0001
0010
2000
0000
3100
0000
0001
0100
,  // measure 47
0002
1003
0011
0011
,  // measure 48
0100
0001
2000
0000
3010
0000
0010
0001
,  // measure 49
0020
0130
1001
1001
,  // measure 50
0001
0100
0020
0000
1030
0000
0001
1000
,  // measure 51
1002
1000
1000
1003
,  // measure 52
1000
0100
0020
0000
1030
0000
0001
0010
,  // measure 53
0002
0103
0001
0001
,  // measure 54
0001
0010
0200
0000
0301
0000
1000
0100
,  // measure 55
0002
1003
1010
1010
,  // measure 56
1000
0010
2000
0000
3001
0000
1000
0010
,  // measure 57
0002
0103
0110
0110
,  // measure 58
0010
0001
2000
0000
3010
0000
0010
0100
,  // measure 59
0020
0100
0100
0100
,  // measure 60
0200
0000
0000
0330
;

//---------------dance-double - ----------------
#NOTES:
     dance-double:
     :
     Hard:
     8:
     0.639381,0.644105,0.624266,0.031742,0.000000,423.000000,364.000000,59.000000,3.000000,0.000000,0.000000,0.639381,0.644105,0.624266,0.031742,0.000000,423.000000,364.000000,59.000000,3.000000,0.000000,0.000000:
00000000
00000000
00000000
00000000
,
00000000
00000000
00000000
00000000
,
00000000
00000000
00000000
00000000
,
00000000
00000000
00000000
00000000
,
00010000
00001000
00010000
00000000
00011000
00000000
00000000
00010000
,
00001000
00000000
00001000
00010000
01000000
10000000
01000000
00100000
,
00001000
00010000
00001000
00000000
00011000
00000000
00000000
00010000
,
00000100
00000000
00000010
00000000
00000001
00000100
00000010
00001000
,
00001100
00000000
00011000
00000000
00011000
00000000
00001000
00100000
,
00010000
00000000
00010000
00000000
00010000
10000000
00010000
01000000
,
00100000
10000000
01000000
00000000
01000000
00000000
01000000
00010000
,
00001000
00000000
00001000
00010000
00000100
00001000
00000010
00000100
,
00000001
00000010
00000010
00000000
00000010
00000000
00001000
00010000
,
00001000
00000000
00100000
00010000
10000000
00100000
10000000
01000000
,
00100000
00010000
00010000
00000000
00110000
00000000
00000000
00100000
,
00001000
00010000
00001000
00000000
00010000
00000100
00001000
00000010
,
00000100
00000001
00000001
00000000
00000101
00000000
00000001
00000010
,
00000100
00000000
00001000
00000000
00000100
00010000
00001000
00010000
,
01000000
10000000
10000000
00000000
10100000
00000000
00100000
10000000
,
01000000
00000000
00010000
00000000
00001000
00010000
00000100
00001000
,
00000100
00000010
00000001
00000000
00000010
00000001
00001000
00000000
,
00000001
00000100
00001000
00000000
00010000
01000000
10000000
00000000
,
10000000
00100000
01000000
00000000
01000000
00010000
00100000
00001000
,
00010000
00000100
00001000
00000000
00001000
00000001
00000010
00001000
,
00000010
00000001
00000100
00000000
00000100
00000010
00010000
00000000
,
00010000
00001000
00100000
00010000
10000000
00100000
10000000
01000000
,
01100000
00000000
00100000
00010000
00001000
00000100
00000000
00000100
,
00000100
00000000
00000010
00000001
00000100
00000001
00000010
00000100
,
00010000
01000000
10000000
01000000
00010000
00000000
00011000
00000000
,
00001100
00000101
00000011
00001010
,
00000010
00010000
00100000
10000000
00100000
00000000
10100000
00000000
,
10010000
00000000
00110000
00000000
10010000
00000000
01010000
01000000
,
00010000
01000000
00100000
10000000
01000000
00000000
11000000
00000000
,
01100000
00000000
00110000
00000000
00202000
00000000
00303000
00100000
,
00101000
00001000
00010000
00000000
00000000
00001000
00011000
00010000
,
00000100
00000000
00000010
00000001
00001000
00000001
00000100
00001000
,
00010000
01000000
10000000
00100000
10000000
00000000
10100000
00000000
,
11000000
00000000
01010000
00000000
00110000
00000000
00011000
00011000
,
00010000
00000100
00000010
00000001
00000100
00000000
00000110
00000000
,
00001010
00000000
00001100
00000000
00011000
00000000
00110000
00110000
,
00010000
10000000
00100000
01000000
00010000
00000000
00110000
00000000
,
00011000
00001100
00001001
00000000
,
00001001
00001000
00000100
00000000
00000000
00000100
00010100
00010000
,
00001000
00000000
00100000
00010000
10000000
00100000
00010000
00001000
,
00011000
00000100
00001000
00000010
00000100
00000001
00000101
00000001
,
00000010
00000100
00010000
00001000
00100000
00010000
10000000
00100000
,
10100000
10000000
01000000
00100000
00001000
00010000
00011000
00010000
,
00000100
00001000
00000010
00000100
00000001
00000010
00000001
00000100
,
00000110
00001000
00000100
00010000
00001000
00100000
00110000
00010000
,
10000000
00100000
10000000
01000000
00010000
00001000
00010000
00000100
,
00001100
00001000
00000010
00000100
00000001
00000010
00000011
00000001
,
00000100
00001000
00000100
00000001
00000100
00001000
00010000
00000000
,
00011000
00001000
00100000
00010000
10000000
00100000
10100000
10000000
,
01000000
00010000
01000000
10000000
00100000
01000000
00001000
00010000
,
00001100
00000010
00000100
00000001
00000010
00000100
00001100
00001000
,
00000100
00010000
00001000
00100000
00010000
00100000
01000000
10000000
,
11000000
10000000
00100000
01000000
00010000
00100000
00011000
00000100
,
00001000
00000010
00000100
00000001
00000010
00000001
00000100
00001000
,
00011000
00001000
00100000
00010000
10000000
00100000
10100000
10000000
,
01000000
00100000
00001000
00010000
00000100
00000010
00000100
00020000
,
00000000
00000000
00000000
00000000
00000000
00000000
00000000
00030000
;

//---------------dance-double - ----------------
#NOTES:
     dance-double:
     :
     Medium:
     6:
     0.512412,0.515284,0.613685,0.084646,0.005290,339.000000,281.000000,58.000000,8.000000,0.000000,0.000000,0.512412,0.515284,0.613685,0.084646,0.005290,339.000000,281.000000,58.000000,8.000000,0.000000,0.000000:
00000000
00000000
00000000
00000000
,
00000000
00000000
00000000
00000000
,
00000000
00000000
00000000
00000000
,
00000000
00000000
00000000
00000000
,
00010000
00001000
00010000
00000000
00001000
00000000
00000000
00001000
,
00100000
00000000
10010000
00000000
00010000
10000000
00010000
10000000
,
01000000
00100000
00010000
00000000
00110000
00000000
00100000
00010000
,
00100000
00000000
00001000
00000000
00010000
00000100
00001000
00000100
,
00000010
00000001
00000100
00001000
,
00011000
00000000
00010000
00000000
01000000
10000000
01000000
00100000
,
01000000
00010000
00001000
00010000
,
00001100
00000000
00000010
00000100
00000001
00000100
00000010
00000100
,
00000001
00000000
00000000
00000000
00000010
00000000
00000000
00000000
00000100
00000000
00010000
00001000
00000000
00000000
00000000
00000000
,
00100000
00000000
00010000
10000000
00100000
10000000
00010000
10000000
,
00100000
00000000
01000000
00000000
00001000
00000000
00000000
00010000
,
00000100
00010000
00000010
00000000
00000010
00000100
00000001
00000010
,
00000100
00000010
00000010
00001001
,
00001001
00000000
00000001
00000000
00000100
00001000
00010000
00100000
,
00010000
00001000
00010000
00000000
00001000
00000000
00011000
00000000
,
00011000
00101000
00110000
10010000
,
10100000
10000000
11000000
10000000
,
01010000
00011000
00001100
00001001
,
00000101
00000001
00001100
00001000
,
00000110
00000101
00000011
00000110
,
00001100
00010000
01010000
00001000
,
00001100
00000110
00001100
00011000
,
00110000
00000000
00010000
10000000
00010000
10000000
00000000
10010000
,
00000000
10000000
01000000
00101000
,
00010000
00001000
00010000
00001000
00000100
00000000
00001100
00000000
,
00000101
00001100
00000102
00001003
,
00000001
00001000
00000001
00001000
00000100
00000000
00001100
00000000
,
00011000
00001100
00012000
01003000
,
00010000
01000000
00010000
01000000
10000000
00000000
11000000
00000000
,
01010000
11000000
01020000
10030000
,
10000000
10000000
10000000
00000000
00000000
00000000
00010000
00010000
,
00010000
00100000
00001000
00010000
,
00000100
00001000
00000100
00001000
00000010
00000000
00000110
00000000
,
00001001
00000110
00001002
00000103
,
00000010
00010000
00000010
00010000
00001000
00000000
00011000
00000000
,
00110000
10100000
00120000
10030000
,
10000000
01000000
10000000
01000000
00100000
00000000
00110000
00000000
,
00011000
00001100
00021000
00030100
,
00001000
00001000
00001000
00000000
00000000
00000000
00000001
00000001
,
00000001
00000000
00000100
00000010
00000000
00001000
00000000
00000000
,
00000100
00010000
00001000
00000000
00100000
00000000
00010000
10000000
,
00100000
10000000
01000000
00100000
,
00001000
00010000
00000100
00000000
00001000
00000000
00000010
00000100
,
00000001
00000010
00000100
00010000
,
00001000
00100000
00010000
00000000
10000000
00000000
00100000
10000000
,
01000000
00100000
00001000
00010000
,
00000100
00001000
00000010
00000000
00000100
00000000
00000001
00000010
,
00000100
00000000
00010000
00001000
00000000
00011000
00000000
00000000
,
00010000
01000000
10000000
00000000
00010000
00000000
10000000
01000000
,
00010000
00000000
00001000
00010000
00000000
00000100
00000000
00001000
,
00000010
00000100
00000001
00000000
00000010
00000000
00000001
00000100
,
00000010
00000000
00001000
00000100
00000000
00010000
00000000
00001000
,
00100000
00010000
10000000
00000000
00100000
00000000
10000000
01000000
,
00100000
00000000
00001000
00010000
00000000
00000100
00000000
00001000
,
00000010
00000100
00000001
00000000
00000010
00000000
00000001
00000100
,
00000010
00000000
00001000
00000100
00000000
00010000
00000000
00022000
,
00000000
00000000
00000000
00000000
00000000
00000000
00000000
00033000
;

//---------------dance-double - ----------------
#NOTES:
     dance-double:
     :
     Easy:
     4:
     0.308354,0.386463,0.042323,0.052904,0.000000,204.000000,200.000000,4.000000,5.000000,0.000000,0.000000,0.308354,0.386463,0.042323,0.052904,0.000000,204.000000,200.000000,4.000000,5.000000,0.000000,0.000000:
00000000
00000000
00000000
00000000
,
00000000
00000000
00000000
00000000
,
00000000
00000000
00000000
00000000
,
00000000
00000000
00000000
00000000
,
00010000
01000000
00010000
00000000
,
00001000
00001000
00000100
00001000
,
00000100
00000001
00000001
00000000
,
00000001
00000001
00000010
00000100
,
00010000
00001000
00001000
00000000
,
00001000
00001000
01000000
00010000
,
10000000
01000000
01000000
00000000
,
01000000
10000000
00010000
01000000
,
00010000
10000000
10000000
00000000
,
10000000
01000000
00010000
00001000
,
00010000
00000010
00000010
00000000
,
00000010
00001000
00000001
00000010
,
00000001
00000100
00000100
00000000
,
00000100
00001000
00010000
00001000
,
00100000
00010000
00010000
00000000
,
00010000
10000000
00010000
10000000
,
01000000
00000000
00010000
00000000
,
00001000
00000100
00000001
00000100
,
00001000
00000000
00010000
00000000
,
00010000
01000000
10000000
01000000
,
00010000
00000000
00010000
00000000
,
00001000
00000010
00000001
00000010
,
00001000
00000000
00010000
00000000
00002000
00000000
00000000
00013000
,
00000000
00011000
00011000
00011000
,
00001000
00100000
00010000
10000000
,
10000000
10000000
10000000
10000000
,
01000000
00010000
00001000
00000100
,
00000100
00000100
00000100
00000100
,
00000001
00000010
00000100
00000100
,
00000100
00000100
00000100
00000000
,
00010000
00010000
00000000
00001000
,
00002000
00000000
00000000
00000000
,
00103000
00010000
10000000
00100000
,
00100000
00100000
00100000
00100000
,
01000000
00001000
00010000
00001000
,
00001000
00001000
00001000
00001000
,
00000010
00000001
00001000
00000100
,
00000100
00000100
00000100
00000100
,
00010000
00010000
00000000
00001000
,
00002000
00000000
00000000
00000000
,
00013000
01000000
10000000
01000000
,
00010000
01000000
10000000
01000000
,
00001000
00000010
00000001
00000010
,
00001000
00000010
00000001
00000010
,
00010000
00100000
10000000
00100000
,
00010000
00100000
10000000
01000000
,
00100000
00001000
00100000
00001000
,
00010000
00000100
00001000
00000010
,
00000100
00000001
00000100
00001000
,
00000100
00000001
00000010
00000100
,
00010000
01000000
10000000
01000000
,
00010000
01000000
10000000
00100000
,
00010000
00000010
00000001
00000010
,
00001000
00000010
00000001
00000010
,
00001000
00000100
00010000
00001000
,
00100000
00000000
00000000
00001000
00000000
00010000
00000000
00022000
,
00000000
00000000
00000000
00000000
00000000
00000000
00000000
00033000
;
