#TITLE:Russian Snowy Dance;
#SUBTITLE:;
#ARTIST:Mutsuhiko Izumi;
#TITLETRANSLIT:;
#SUBTITLETRANSLIT:;
#ARTISTTRANSLIT:;
#GENRE:;
#CREDIT:;
#BANNER:Russian Snowy Dance.png;
#BACKGROUND:Russian Snowy Dance-bg.png;
#LYRICSPATH:;
#CDTITLE:;
#MUSIC:Russian Snowy Dance.mp3;
#OFFSET:-0.160000;
#SAMPLESTART:24.160000;
#SAMPLELENGTH:12.000000;
#SELECTABLE:YES;
#BPMS:0.000000=170.000000
,251.000000=205.000000
,291.000000=237.000000
;
#STOPS:251.000000=1.480000,
291.000000=2.020000
;
#BGCHANGES:;
#KEYSOUNDS:;
#ATTACKS:;

//---------------dance-single - ----------------
#NOTES:
     dance-single:
     :
     Hard:
     9:
     0.687020,0.740306,0.374146,0.282891,0.219012,527.000000,486.000000,41.000000,31.000000,0.000000,0.000000,0.687020,0.740306,0.374146,0.282891,0.219012,527.000000,486.000000,41.000000,31.000000,0.000000,0.000000:
0000
0000
0000
0000
,
0000
0000
0000
0000
,
0000
0000
0000
0000
,
0001
0100
0010
1000
0001
0000
1010
0000
,
1000
0100
0001
0100
1001
0000
1001
0000
,
0100
0000
0000
0000
0001
0000
1000
0000
0010
0000
0000
0000
0001
0100
0001
0000
,
1000
0000
0000
0000
0100
0000
0001
0000
0010
0000
0000
0000
1000
0100
1000
0000
,
0002
0000
2003
0000
3001
0010
0100
0001
,
1000
0100
0010
1000
0001
0010
1000
0010
,
0200
0000
0000
0000
0010
0000
0310
0000
0001
0000
0000
0000
1000
0010
1000
0000
,
0020
0000
0000
0000
0100
0000
0130
0000
1000
0000
0000
0000
0001
0010
0001
0000
,
1000
0100
1000
0000
0001
0100
0001
0000
0010
0100
0010
0000
1000
0001
1000
0000
,
1010
0000
0000
0000
0101
0000
0000
0000
1001
0000
0000
0000
0000
0000
0010
0100
,
0001
0002
0000
0003
1000
2000
0000
3000
,
0001
0000
1000
0000
0010
0000
1000
0000
0001
0100
0020
0000
0000
0000
0030
0000
,
0100
0200
0000
0300
0010
0020
0000
0030
,
1000
0010
0001
0010
1001
0000
1001
0000
,
0001
0000
0000
0010
0100
0000
0001
0000
0100
0000
0000
0000
1000
0010
1000
0000
,
0100
0000
0000
0010
0001
0000
1000
0000
0010
0000
0000
0000
0001
1000
0001
0000
,
0020
0000
0230
0000
1300
0001
0100
0001
,
0010
1000
0100
0010
0001
0100
1000
0100
,
0002
0000
0000
1000
0103
0000
1000
0000
0001
0000
0000
0000
0010
0100
0010
0000
,
2000
0000
0000
0001
3100
0000
0001
0000
1000
0000
0000
0000
0100
0010
0100
0000
,
0001
0100
0001
0000
1000
0010
1000
0000
0001
1000
0001
0000
1000
0100
1000
0000
,
1100
0000
0000
0000
0011
0000
0000
0000
1001
0000
0000
0000
0000
0000
1000
0010
,
2000
0000
0000
0000
3001
0000
0010
0000
0100
0000
0000
0000
1000
0000
0001
0010
,
0002
0000
1003
0010
0100
0001
0010
0100
,
2000
0000
3000
0001
0020
0000
0030
0001
,
0101
0000
0000
0000
1100
0000
0000
0000
0110
0000
0000
0000
0000
0000
0010
0100
,
0010
0000
0001
0000
1000
0000
0100
0000
0001
0000
0100
0000
0010
0000
1000
0001
,
1000
0001
0100
0010
1000
0100
1000
0001
,
0100
0000
1000
0001
1000
0000
0010
0000
0001
1000
0001
0000
1000
0000
0001
0000
,
0110
0000
0000
0000
1001
0000
0000
0000
0110
0000
0000
0000
0000
0000
1000
0001
,
1000
0010
0100
0010
1000
0001
0010
1000
,
0010
0001
0100
0010
0100
1000
0001
0100
,
0010
0001
1000
0100
1000
0010
0100
0001
,
1000
0100
0001
1000
0010
1000
0100
0001
,
0010
0100
0001
0100
0010
1000
0010
0100
,
0001
1000
0100
0001
1000
0010
0001
0100
,
0010
1000
0001
0010
0100
0001
0010
1000
,
0100
1000
0000
1000
0010
0000
0100
0000
0001
0000
0000
0000
0000
0000
1000
0100
,
0010
0020
0000
0030
0100
0200
0000
0300
,
0001
0000
0100
0000
0010
0000
1000
0000
0001
0010
0200
0000
0000
0000
0300
0000
,
0001
0002
0000
0003
1000
2000
0000
3000
,
0001
0100
0001
0010
0011
0000
0101
0000
,
1000
0010
0001
1000
0010
0001
0010
1000
,
0001
0020
0100
0130
,
0001
0100
1000
0001
0100
1000
0100
0001
,
1000
0000
0100
0000
0010
0000
0001
0000
1000
0000
0020
0000
0000
0000
1030
0001
,
1000
0100
1000
0010
0100
1000
0100
0010
,
1000
0002
1000
1003
,
0001
0010
0100
0010
0001
0100
0010
0001
,
0100
0010
0000
1000
0001
0000
1000
0000
1001
0000
0000
0000
0000
0000
0000
0000
,
1000
0000
0000
0000
0100
0000
0010
0000
0001
0000
0000
0000
1000
0001
1000
0000
,
0001
0000
0000
0000
0100
0000
0010
0000
1000
0000
0000
0000
0010
0100
0010
0000
,
2000
0000
3002
0000
1003
0010
0100
0001
,
0100
1000
0001
1000
0001
0010
1000
0010
,
0002
0000
0000
0000
1000
0000
1003
0000
0010
0000
0000
0000
0100
0010
0100
0000
,
2000
0000
0000
0000
0001
0000
3001
0000
0010
0000
0000
0000
1000
0001
1000
0000
,
0001
0010
0001
0000
1000
0010
1000
0000
0001
0100
0001
0000
1000
0100
1000
0000
,
1010
0000
0000
0000
0101
0000
0000
0000
1010
0000
0000
0000
0000
0000
0010
0001
,
0010
0000
0000
0000
1100
0000
0000
0000
0011
0000
0000
0000
0000
0000
0100
0010
,
0100
1001
0220
0330
,
1000
0001
0100
1000
0010
0000
0101
0000
,
0010
1000
0010
1000
0001
0100
1000
0000
,
0010
0100
0001
1000
0100
0000
1100
0000
,
0010
0001
0010
1000
1001
0000
1001
0000
,
0010
0001
0010
0000
0100
0000
1000
0000
0010
0000
0000
0000
0110
0000
0000
0000
,
1000
0001
0100
1000
0001
1000
0100
0000
,
1000
0010
1000
0000
0001
0000
0100
0000
0010
0000
0000
0000
1001
0000
0000
0000
,
1000
0010
0001
0010
0011
0000
1100
0000
,
0001
0100
1000
0100
1010
0000
0101
0000
,
1000
0100
0010
0001
1001
0000
0110
0000
,
1000
0010
0001
0010
1001
0000
0110
0000
;

//---------------dance-single - ----------------
#NOTES:
     dance-single:
     :
     Medium:
     7:
     0.513635,0.572055,0.401522,0.209887,0.000000,394.000000,350.000000,44.000000,23.000000,0.000000,0.000000,0.513635,0.572055,0.401522,0.209887,0.000000,394.000000,350.000000,44.000000,23.000000,0.000000,0.000000:
0000
0000
0000
0000
,
0000
0000
0000
0000
,
0000
0000
0000
0000
,
1000
0000
0001
0100
0010
0000
1001
0000
,
1000
0001
1000
0000
1001
0000
1001
0000
,
0010
0000
0100
0001
0010
0000
1000
0000
,
0001
0000
0100
1000
0010
0000
1000
0000
,
0002
0023
0230
2300
,
3001
0100
0001
0000
1000
0010
1000
0000
,
0001
0000
0010
1000
0100
0000
0001
0000
,
1000
0000
0010
0001
0100
0000
1000
0000
,
0001
0100
0001
0000
1000
0010
1000
0000
,
1001
0110
1001
0000
,
0010
0010
0000
0000
0100
0100
0000
0000
,
0001
1000
0001
1000
0010
0000
0000
0000
,
1000
1000
0000
0000
0001
0001
0000
0000
,
0001
0100
1000
0000
1001
0000
1001
0000
,
1000
0000
0000
0001
0010
0000
0100
0010
,
0100
0000
0000
1000
0010
0000
1000
0001
,
2000
3020
0230
0302
,
1003
0100
1000
0000
0001
0010
0001
0000
,
0100
0000
0000
0010
1000
0000
0100
0001
,
0100
0000
0000
1000
0010
0000
0100
0000
,
0001
1000
0010
0000
1000
0001
0010
0000
,
1001
0000
0110
0000
1001
0000
0000
0100
,
2000
0000
0000
0000
3010
0000
0001
0100
,
0002
0000
0000
0000
0013
0000
1000
0100
,
0010
0000
0000
0001
0100
0000
0000
0010
,
1000
0000
0001
0000
1000
0000
0000
0001
,
0020
0000
0000
0000
0130
0000
0000
1000
,
0020
0000
0000
0000
0130
0000
0000
0010
,
0100
0010
0100
0000
0001
1000
0001
0000
,
1010
0000
0101
0000
1001
0000
0000
0100
,
1000
0000
0010
0000
0100
0001
0100
0001
,
0010
0000
1000
0100
1000
0000
0001
0000
,
1000
0100
0001
0010
,
0001
0100
0001
0100
0010
1000
0000
1000
,
0001
0000
1000
0000
0010
0100
0010
0100
,
1000
0000
0001
0100
0001
0000
0010
0000
,
1000
0001
1000
0000
0010
0100
0010
0000
,
1100
0000
0011
0000
1001
0000
0000
1000
,
0001
0001
0000
0000
1000
1000
0000
0000
,
1000
0100
1000
0100
0010
0002
0000
0003
,
0010
0010
0000
0000
0100
0100
0000
0000
,
1000
0001
1000
0001
1001
0000
1001
0000
,
0010
0000
0100
0000
0010
0100
0010
0100
,
0001
0000
1000
0001
1000
0000
0010
0000
,
0100
0001
1000
0100
,
1000
0100
1000
0100
0010
0001
0000
0001
,
1000
0000
0001
0000
0100
0010
0100
0010
,
0001
0000
1000
0001
1000
0000
0010
0000
,
0100
0010
0100
0000
0001
1000
0001
0000
,
0110
1001
0110
0000
,
0200
0000
1300
0010
0100
0000
0010
0000
,
0200
0000
0301
0010
0100
0000
0001
0100
,
2000
3020
0230
0302
,
0013
1000
0010
0000
0100
0001
0100
0000
,
0020
0000
0100
0130
1000
0000
0001
0000
,
0020
0000
0100
0130
0001
0000
1000
0000
,
0010
0001
0010
0000
0100
1000
0100
0000
,
1001
0000
0110
0000
1001
0000
0000
1000
,
1010
0000
0101
0000
1010
0000
0000
0001
,
0011
1100
0022
0033
,
1000
0000
0010
0100
0001
0000
1001
0000
,
0001
0100
0001
0100
1000
0000
0110
0000
,
1000
0000
0010
1000
0100
0000
1001
0000
,
0010
0100
0010
0100
0001
0000
1000
0000
,
0001
0000
0100
1000
0010
0000
1001
0000
,
0100
0001
0010
0001
0100
0000
1001
0000
,
0010
0000
1000
0100
0001
0000
0010
0000
,
0001
0100
1000
0000
1001
0000
1001
0000
,
0010
0001
0100
0000
0110
0000
0110
0000
,
0010
1000
0100
0000
0110
0000
0110
0000
,
0001
1000
0001
1000
1001
0000
1001
0000
;

//---------------dance-single - ----------------
#NOTES:
     dance-single:
     :
     Easy:
     5:
     0.335036,0.471104,0.346769,0.127757,0.000000,257.000000,219.000000,38.000000,14.000000,0.000000,0.000000,0.335036,0.471104,0.346769,0.127757,0.000000,257.000000,219.000000,38.000000,14.000000,0.000000,0.000000:
0000
0000
0000
0000
,
0000
0000
0000
0000
,
0000
0000
0000
0000
,
1000
0001
1000
0000
,
0010
0100
0010
0010
,
0001
0000
1000
0100
,
1000
0000
0010
0001
,
0010
0000
0100
0000
,
0001
0100
1000
0100
,
0001
0000
0010
0000
,
1000
0000
0010
0000
,
0001
1000
0001
1000
,
0110
0110
0110
0000
,
0002
0003
2000
3000
,
0010
0100
0010
0000
,
0020
0030
0200
0300
,
1000
0001
1001
1001
,
0100
0000
0001
1000
,
0001
0000
0100
0010
,
1000
0100
1000
0100
,
0001
0010
1000
0010
,
0001
0000
0010
0000
,
1000
0000
0010
0000
,
0001
0100
0010
1000
,
1001
1001
1001
0000
,
0002
0000
0013
0000
,
2000
0000
3010
0000
,
0001
0000
1000
0000
,
0100
0010
0100
0000
,
0020
0000
1030
0000
,
0020
0000
0031
0000
,
1000
0001
1000
0001
,
0110
0110
0110
0000
,
0001
0100
0001
0000
,
1000
0100
1000
0000
,
0001
0010
0001
0000
,
1000
0010
1000
0001
,
0010
0000
0010
0000
,
0100
0010
1000
0001
,
0100
0000
0001
0000
,
1001
1001
1001
0000
,
0200
0300
0020
0030
,
1000
0001
1000
0000
,
0002
0003
2000
3000
,
0010
0100
0110
0110
,
0001
1000
0001
1000
,
0010
0010
0010
0000
,
1000
0001
1000
0001
,
1000
0100
0010
0001
,
1000
0001
1000
0001
,
0100
0100
0100
0000
,
1000
0010
0001
0010
,
1001
1001
1001
0000
,
0001
0000
1000
0100
,
1000
0000
0010
1000
,
0010
0000
0001
0000
,
1000
0100
0001
0100
,
1000
0000
0001
0010
,
0001
0000
1000
0100
,
1000
0100
0010
0001
,
1001
1001
1001
0000
,
0110
0110
0110
0000
,
1010
0101
2002
3003
,
0001
0100
0001
0000
,
1000
0010
1000
0000
,
0010
0100
0010
0000
,
1000
0100
0110
0110
,
0000
0001
0100
0010
,
0000
1000
0100
0010
,
0000
0001
1000
0001
,
0010
1000
1001
1001
,
0010
0100
0110
0110
,
0001
1000
1001
1001
,
1000
0001
1001
1001
;

//---------------dance-single - ----------------
#NOTES:
     dance-single:
     :
     Beginner:
     2:
     0.130364,0.235552,0.000000,0.000000,0.000000,100.000000,100.000000,0.000000,0.000000,0.000000,0.000000,0.130364,0.235552,0.000000,0.000000,0.000000,100.000000,100.000000,0.000000,0.000000,0.000000,0.000000:
0000
0000
0000
0000
,
0000
0000
0000
0000
,
0000
0000
0000
0000
,
0000
0000
0000
0000
,
0000
0000
0000
0000
,
1000
0000
0000
0000
,
0001
0000
0000
0000
,
0100
0000
0000
0000
,
0010
0000
0010
0000
,
1000
0000
0000
0000
,
0001
0000
0000
0000
,
0100
0000
0100
0000
,
0010
0010
0010
0000
,
1000
0000
1000
0000
,
0001
0000
0000
0000
,
0001
0000
0001
0000
,
1000
0000
0000
0000
,
0010
0000
0000
0000
,
0100
0000
0000
0000
,
0001
0000
0000
0000
,
1000
0000
1000
0000
,
0001
0000
0000
0000
,
0100
0000
0000
0000
,
0010
0000
0010
0000
,
1000
1000
1000
0000
,
0001
0000
0000
0000
,
1000
0000
0000
0000
,
0010
0000
0010
0000
,
0100
0000
0100
0000
,
0001
0000
0000
0000
,
1000
0000
0000
0000
,
0010
0000
0010
0000
,
0010
0010
0010
0000
,
1000
0000
0000
0000
,
0001
0000
0000
0000
,
1000
0000
0000
0000
,
0001
0000
0000
0000
,
0010
0000
0000
0000
,
0100
0000
0000
0000
,
0010
0000
0000
0000
,
0100
0000
0000
0000
,
0001
0000
0001
0000
,
1000
0000
0000
0000
,
1000
0000
1000
0000
,
0001
0000
0000
0000
,
0010
0000
0000
0000
,
0010
0000
0000
0000
,
0010
0000
0000
0000
,
0010
0000
0000
0000
,
0100
0000
0000
0000
,
0100
0000
0000
0000
,
0100
0000
0000
0000
,
0100
0000
0000
0000
,
0001
0000
0000
0000
,
1000
0000
0000
0000
,
0010
0000
0000
0000
,
0100
0000
0100
0000
,
0001
0000
0000
0000
,
1000
0000
0000
0000
,
0010
0000
0000
0000
,
0001
0001
0001
0000
,
1000
1000
1000
0000
,
0100
0100
0100
0000
,
0010
0000
0000
0000
,
0100
0000
0000
0000
,
0010
0000
0000
0000
,
0100
0000
0100
0000
,
0001
0000
0000
0000
,
1000
0000
0000
0000
,
0001
0000
0000
0000
,
0010
0000
0001
0001
,
0000
0000
1000
1000
,
0000
0000
0010
0010
,
0100
0000
0010
0010
;

//---------------dance-double - ----------------
#NOTES:
     dance-double:
     :
     Hard:
     9:
     0.649214,0.740306,0.292016,0.292016,0.187073,498.000000,466.000000,32.000000,32.000000,0.000000,0.000000,0.649214,0.740306,0.292016,0.292016,0.187073,498.000000,466.000000,32.000000,32.000000,0.000000,0.000000:
00000000
00000000
00000000
00000000
,
00000000
00000000
00000000
00000000
,
00000000
00000000
00000000
00000000
,
10000000
00100000
10000000
00000000
00010000
00000000
01000000
00000000
00001000
00000000
00000000
00010000
00000000
00000000
00000100
00000000
,
00001000
00000001
00000010
00001000
00010000
00000000
00011000
00000000
,
00000100
00000000
00000001
00000010
00001000
00000000
00010000
00100000
,
10000000
00000000
00000000
00000000
00010000
00000000
00100000
00000000
01000000
00000000
00000000
00000000
10000000
00010000
10000000
00000000
,
00200000
00000000
00320000
00000000
00031000
00000100
00000010
00000001
,
00000010
00001000
00000001
00000100
00001000
00010000
00100000
10000000
,
01000000
00000000
10000000
00100000
00010000
00000000
00001000
00000010
,
00000001
00000000
00000000
00000000
00000100
00000000
00000010
00000000
00001000
00000000
00000000
00000000
00000001
00001000
00000001
00000000
,
00000010
00000100
00000010
00000000
00000100
00010000
00000100
00000000
00010000
00001000
00010000
00000000
00001000
00100000
00001000
00000000
,
00101000
00000000
00000000
00000000
11000000
00000000
00000000
00000000
10010000
00000000
00000000
00000000
00000000
00000000
10000000
00100000
,
01000000
02000000
00000000
03000000
00001000
00002000
00000000
00003000
,
00010000
00000000
00001000
00000000
00000100
00000000
00000001
00000000
00000010
00000100
00000020
00000000
00000000
00000000
00000030
00000000
,
00000100
00000200
00000000
00000300
00010000
00020000
00000000
00030000
,
00001000
00010000
01000000
10000000
10100000
00000000
01010000
00000000
,
00010000
01000000
00100000
10000000
00100000
00010000
00100000
01000000
,
00001000
00010000
00000100
00000010
00000001
00000100
00001000
00000100
,
00000020
00000000
00000230
00000000
00001300
00010000
00100000
01000000
,
10000000
01000000
00010000
00100000
00001000
00010000
01000000
10000000
,
00010000
00100000
01000000
10000000
01000000
00010000
01000000
00100000
,
00001000
00010000
00000010
00000100
00000001
00000010
00000100
00001000
,
00000010
00000100
00000010
00000000
00010000
00000010
00010000
00000000
00001000
00010000
00001000
00000000
01000000
00001000
01000000
00000000
,
01001000
00000000
00000000
00000000
00011000
00000000
00000000
00000000
00010010
00000000
00000000
00000000
00000000
00000000
00001000
00010000
,
00002000
00000000
00003000
00010000
00100000
10000000
01000000
00100000
,
00020000
00000000
00030000
10000000
01000000
00010000
00001000
00000100
,
00000002
00000000
00000003
00000010
00000200
00000000
00000300
00010000
,
00002000
00000000
00000000
00000000
00003200
00000000
00000000
00000000
00000320
00000000
00000000
00000000
00010030
00000000
00001000
00010000
,
00002000
00000000
00003000
00010000
01000000
10000000
00100000
01000000
,
00020000
00000000
00030000
10000000
00100000
00010000
00001000
00000010
,
00000001
00000100
00000001
00000100
00000010
00000000
00001000
00000000
00000010
00010000
00000010
00010000
00001000
00000000
00010000
00000000
,
00010100
00000000
00000000
00000000
00101000
00000000
00000000
00000000
00011000
00000000
00000000
00000000
00000000
00000000
00100000
01000000
,
00100000
10000000
01000000
00010000
10000000
00100000
00010000
00001000
,
00010000
00100000
00001000
00010000
00000010
00000100
00000001
00001000
,
00000010
00000001
00001000
00000100
00000010
00001000
00000100
00010000
,
01000000
10000000
01000000
00010000
00001000
00100000
01000000
10000000
,
00100000
00010000
00001000
01000000
00010000
00001000
00010000
01000000
,
00001000
00001000
00000100
00000001
00000010
00000010
00000100
00000000
,
00010000
00001000
00000100
00010000
00000100
00000010
00010000
00001000
,
01000000
00100000
00000000
00100000
10000000
00000000
00010000
00000000
10010000
00000000
00000000
00000000
00000000
00000000
10000000
01000000
,
00100000
00200000
00000000
00300000
00001000
00002000
00000000
00003000
,
00010000
00000000
00001000
00000000
00000010
00000000
00000001
00000000
00000100
00000010
00000200
00000000
00000000
00000000
00000300
00000000
,
00000010
00000020
00000000
00000030
00010000
00020000
00000000
00030000
,
00001000
00010000
00100000
10000000
11000000
00000000
00110000
00000000
,
20000000
01000000
00000000
01000000
,
30020000
01000000
00000000
01000000
,
00032000
00000010
00000000
00000010
,
00003002
00000010
00000000
00000013
,
00000001
00000100
00000001
00000000
00001000
00000100
00001000
00000000
,
00010000
00100000
00010000
00000000
10000000
00100000
10000000
00000000
,
00010000
10000000
00100000
00010000
00001000
00000010
00000001
00001000
,
00000100
00000010
00000000
00000100
00000010
00000000
00000001
00000000
00001001
00000000
00000000
00000000
00000000
00000000
00000000
00000000
,
00001000
00000000
00000100
00000000
00000001
00000000
00000100
00000000
00001000
00000000
00000000
00000000
00000001
00000010
00000100
00000000
,
00010000
00000000
00001000
00000000
01000000
00000000
00100000
00000000
10000000
00000000
00000000
00000000
00010000
01000000
00010000
00000000
,
00200000
00000000
02300000
00000000
03010000
00001000
00000010
00000001
,
00001000
00000100
00010000
01000000
00010000
00001000
00000010
00000100
,
00001000
00000000
00000010
00000000
00000001
00000000
00000010
00000000
00001000
00000000
00000000
00000000
00000001
00000100
00000010
00000000
,
00010000
00000000
00001000
00000000
00100000
00000000
01000000
00000000
10000000
00000000
00000000
00000000
00010000
00100000
00010000
00000000
,
00100000
01000000
00100000
00000000
00001000
00100000
00001000
00000000
00010000
00001000
00010000
00000000
00000100
00010000
00000100
00000000
,
00010100
00000000
00000000
00000000
00011000
00000000
00000000
00000000
00101000
00000000
00000000
00000000
00000000
00000000
00010000
00001000
,
00010000
00000000
00000000
00000000
01001000
00000000
00000000
00000000
01100000
00000000
00000000
00000000
00000000
00000000
00001000
00010000
,
00001000
00010100
00000220
00000330
,
00001000
00001000
00000001
00000010
00000100
00000000
00010100
00000000
,
00001000
00010000
00100000
10000000
01000000
00100000
00010000
00000000
,
00010000
00010000
10000000
00100000
01000000
00000000
01001000
00000000
,
00010000
00001000
00000100
00000001
00000010
00000000
00000010
00000000
,
00001000
00000010
00001000
00000000
00000010
00000000
00000001
00000000
00000100
00000000
00000000
00011000
00000000
00000000
00010000
00000000
,
00001000
00100000
01000000
00010000
00001000
00000100
00001000
00000000
,
00010000
00100000
00010000
00000000
00100000
00000000
10000000
00000000
01000000
00000000
00000000
00011000
00000000
00000000
00001000
00000000
,
00010000
00000010
00000100
00000001
00000010
00000000
00001001
00000000
,
00000200
00000000
00000000
00000300
,
00000010
00010000
00001000
00100000
01100000
00000000
10010000
00000000
,
01000000
00001000
00010000
00000100
00000110
00000000
00001001
00000000
;

//---------------dance-double - ----------------
#NOTES:
     dance-double:
     :
     Medium:
     7:
     0.486259,0.538405,0.365020,0.456275,0.000000,373.000000,333.000000,40.000000,50.000000,0.000000,0.000000,0.486259,0.538405,0.365020,0.456275,0.000000,373.000000,333.000000,40.000000,50.000000,0.000000,0.000000:
00000000
00000000
00000000
00000000
,
00000000
00000000
00000000
00000000
,
00000000
00000000
00000000
00000000
,
00010000
00000000
00001000
00010000
00100000
00000000
10010000
00000000
,
10000000
01000000
00100000
00010000
10000000
00000000
10010000
00000000
,
00200000
00000000
00301000
00010000
00002000
00000000
00003020
00000000
,
00000032
00000000
00000103
00000010
00000200
00000000
00002300
00000000
,
00013000
00100000
10000000
00000000
10000000
01000000
00010000
00000000
,
00001000
00000100
00000001
00000000
00000001
00000010
00000100
00001000
,
00000200
00000000
00010300
00001000
00020000
00000000
02030000
00000000
,
23000000
00000000
30100000
01000000
00200000
00000000
00310000
00000000
,
00011000
01000000
00011000
00000100
,
00001010
00000011
00001001
00000000
,
00000010
00000010
00000000
00000000
00010000
00010000
00000000
00000000
,
00001000
00100000
01000000
10000000
00020000
00000000
00030000
00000000
,
00100000
00100000
00000000
00000000
00001000
00001000
00000000
00000000
,
00010000
00000010
00000100
00000001
00001000
00000000
00001001
00000000
,
00000020
00000000
00010030
00001000
00020000
00000000
00230000
00000000
,
20300000
00000000
31000000
00100000
02000000
00000000
03020000
00000000
,
00031000
00000010
00000001
00000000
00000001
00000100
00001000
00000000
,
00010000
01000000
10000000
00000000
10000000
00100000
01000000
00010000
,
02000000
00000000
03001000
00010000
00002000
00000000
00003200
00000000
,
00000302
00000000
00000013
00000100
00000020
00000000
00001030
00000000
,
00011000
00000100
00011000
01000000
,
00110000
10100000
10010000
00000000
,
20000000
00000000
00100000
30100000
,
00020000
00000000
00001000
00031000
,
00000020
00000000
00000030
00000001
00002000
00000000
00003000
00000100
,
00020000
00032000
00003200
00000300
,
00000002
00000000
00000010
00000013
,
00002000
00000000
00010000
00013000
,
00100000
10000000
01000000
00000000
00100000
00010000
01000000
00000000
,
01001000
00010100
00011000
00000000
,
00000100
00000100
00000001
00000001
,
00000010
00001000
00000010
00001000
00010000
00001000
00010000
00000000
,
01000000
01000000
10000000
10000000
,
00100000
00000000
00100000
00000000
00010000
00001000
00010000
00001000
,
00000010
00000010
00000001
00000001
,
00000100
00001000
00000100
00001000
00010000
00001000
00010000
00000000
,
00100000
10000000
00010000
10000000
01000000
00010000
00001000
00000000
,
00001100
00000101
00001001
00000000
,
00000100
00000100
00000000
00000000
00010000
00010000
00000000
00000000
,
00001000
01000000
00100000
10000000
00010000
00000000
00000000
00000000
,
01000000
01000000
00000000
00000000
00001000
00001000
00000000
00000000
,
00010000
00000100
00000010
00000001
00001000
00000000
00001001
00000000
,
00000002
00000100
00000000
00000100
,
00002003
00000100
00000000
00000100
,
00023000
00100000
00000000
00100000
,
20030000
00100000
00000000
30100000
,
10000000
01000000
01000000
00010000
,
00001000
00000100
00000100
00000001
,
00000010
00001000
00010000
00000000
00001000
00010000
01000000
00000000
,
11000000
00110000
10010000
00000000
,
00200000
00000000
00301000
00010000
00002000
00000000
00003020
00000000
,
00000032
00000000
00000103
00000010
00000200
00000000
00002300
00000000
,
00013000
00100000
10000000
00000000
10000000
01000000
00010000
00000000
,
00001000
00000100
00000001
00000000
00000001
00000010
00000100
00001000
,
00000200
00000000
00010300
00001000
00020000
00000000
02030000
00000000
,
23000000
00000000
30100000
01000000
00200000
00000000
00310000
00000000
,
00011000
01000000
00011000
00000100
,
00001010
00000000
00000011
00000000
00001001
00000000
00000000
00000100
,
00010100
00000000
00011000
00000000
01001000
00000000
00000000
00100000
,
00101000
00011000
00020020
00030030
,
00001000
00000000
00010000
01000000
10000000
00000000
10010000
00000000
,
10000000
00100000
10000000
00010000
01000000
00000000
00001000
00000000
,
00010000
00000000
00001000
00000100
00000001
00000000
00001001
00000000
,
00000001
00000010
00000001
00001000
00000100
00000000
00011000
00000000
,
00010000
00000000
01000000
10000000
00100000
00000000
00010000
00000000
,
00001000
00000100
00000001
00000000
00000100
00000010
00010000
00000000
,
00001000
00000000
00000100
00000001
00000010
00000000
00001000
00000000
,
00010000
00100000
01000000
00010000
10000000
00000000
10010000
00000000
,
02000000
00000000
00000000
03000000
,
00010000
01000000
00010000
01000000
00001000
00000000
00011000
00000000
,
00010000
00000100
00010000
00000100
00001000
00000000
00001100
00000000
;

//---------------dance-double - ----------------
#NOTES:
     dance-double:
     :
     Easy:
     5:
     0.337644,0.471104,0.328518,0.109506,0.000000,259.000000,223.000000,36.000000,12.000000,0.000000,0.000000,0.337644,0.471104,0.328518,0.109506,0.000000,259.000000,223.000000,36.000000,12.000000,0.000000,0.000000:
00000000
00000000
00000000
00000000
,
00000000
00000000
00000000
00000000
,
00000000
00000000
00000000
00000000
,
10000000
01000000
10000000
00000000
,
00200000
00000000
00010000
00310000
,
00001000
00000100
00000001
00000000
,
00000001
00000010
00001000
00000000
,
00010000
00001000
00010000
00001000
,
00100000
00001000
00100000
01000000
,
00010000
01000000
10000000
00000000
,
10000000
00100000
00010000
00000000
,
00001000
00010000
00001000
00000100
,
00000110
00000110
00000110
00000000
,
00000001
00000000
00001000
00000000
,
00010000
00100000
02000000
03000000
,
10000000
00000000
00010000
00000000
,
00001000
00000010
00000110
00001001
,
00000001
00000100
00001000
00000000
,
00010000
01000000
10000000
00000000
,
00100000
01000000
00001000
00010000
,
00000010
00001000
00000100
00000010
,
00000001
00000100
00001000
00000000
,
00010000
01000000
10000000
00000000
,
00010000
00100000
00001000
00010000
,
00011000
00011000
00011000
00000000
,
00000200
00000000
00000301
00000000
,
00000002
00000000
00000013
00000000
,
00000020
00000000
00002030
00000000
,
00013000
00100000
10000000
00000000
,
02000000
00000000
13000000
00000000
,
20000000
00000000
30100000
00000000
,
00010000
00001000
00000010
00000100
,
00000110
00000110
00000110
00000000
,
00000001
00000100
00000001
00000100
,
00000010
00000100
00000010
00000100
,
00000010
00010000
00000010
00010000
,
00001000
00010000
00001000
01000000
,
00001000
01000000
00010000
01000000
,
00010000
01000000
00010000
10000000
,
00010000
10000000
00100000
01000000
,
01100000
01100000
01100000
00000000
,
10000000
00000000
00010000
00000000
,
00001000
00000010
00000200
00000300
,
00000001
00000000
00001000
00000000
,
00010000
00100000
01100000
10010000
,
10000000
00000000
10000000
00000000
,
00100000
00100000
00100000
00000000
,
00010000
00000000
00010000
00000000
,
00001000
00001000
00001000
00000000
,
00000100
00000000
00000100
00000000
,
00000001
00000001
00000001
00000000
,
00001000
00000100
00010000
00001000
,
00011000
00011000
00011000
00000000
,
00010000
01000000
10000000
00000000
,
10000000
00100000
00010000
00000000
,
00001000
00010000
00001000
00010000
,
00000010
00010000
00000010
00000100
,
00001000
00000100
00000001
00000000
,
00000001
00000010
00001000
00000000
,
00010000
00001000
00010000
01000000
,
01100000
01100000
01100000
00000000
,
00011000
00011000
00011000
00000000
,
00000110
00000110
00000220
00000330
,
00000001
00000100
00000001
00000000
,
00001000
00000010
00001000
00000000
,
00000100
00010000
00001000
00000000
,
00010000
00100000
01100000
10010000
,
10000000
01000000
10000000
00000000
,
00010000
00100000
00010000
00000000
,
01000000
00001000
00010000
00000000
,
00001000
00000010
00000110
00001001
,
00000020
00000000
00000000
00000030
,
00001000
00010000
00011000
00011000
,
00010000
00001000
00011000
00011000
;

//---------------dance-single - ----------------
#NOTES:
     dance-single:
     :
     Challenge:
     10:
     0.806955,0.874908,0.365020,0.282891,0.565781,619.000000,579.000000,40.000000,31.000000,0.000000,0.000000,0.806955,0.874908,0.365020,0.282891,0.565781,619.000000,579.000000,40.000000,31.000000,0.000000,0.000000:
0000
0000
0000
0000
,
0000
0000
0000
0000
,
0000
0000
0000
0000
,
1000
0100
1000
0000
0001
0000
0100
0000
1000
0000
0100
0010
0000
0100
0010
0000
,
1000
0000
0001
0010
0100
0000
1000
0000
0110
0000
0000
0000
1001
0000
0000
0000
,
0002
0000
0000
0000
1003
0000
0010
0000
0200
0000
0000
0000
0301
1000
0100
0000
,
2000
0000
0000
0000
3001
0000
0010
0000
0200
0000
0000
0000
1300
0001
0100
0000
,
0020
0000
0230
0000
0301
1000
0010
0100
,
0001
0000
0010
0000
0001
0100
0001
0000
1000
0010
0100
0001
0100
0001
0010
0100
,
2000
0000
0000
0000
3001
0000
0010
0000
0200
0000
0000
0000
1300
0001
0100
0000
,
0002
0000
0000
0000
1003
0000
0010
0000
0200
0000
0000
0000
0301
1000
0100
0000
,
1000
0010
1000
0010
0100
0001
0100
0001
1000
0100
0010
0001
0100
0010
1000
0001
,
1000
0000
0000
0000
0110
0000
0000
0000
1001
0000
0000
0000
0000
0000
0010
0001
,
0010
0000
0011
0000
1000
0100
1000
0000
0100
0000
1100
0000
0001
1000
0001
0000
,
1000
0000
0100
0000
0010
0000
0001
0000
0100
0010
0100
0000
1001
0000
0000
0000
,
0010
0000
1010
0000
0001
0100
0001
0000
0100
0000
0101
0000
1000
0001
1000
0000
,
0001
0100
0010
1000
0110
0000
1001
0000
,
0010
0000
0001
0000
0100
0000
0010
0000
1000
0000
0001
0000
0010
0001
1000
0000
,
0010
0000
1000
0000
0100
0000
0010
0000
0001
0000
1000
0000
0010
1000
0001
0000
,
0200
0000
0000
0000
0320
0000
0000
0000
1030
0001
1000
0000
0010
0000
0100
0000
,
0001
0000
0010
0000
0100
0000
1000
0000
0010
0100
0010
0100
0001
0010
0100
1000
,
0010
0000
1000
0000
0100
0000
0010
0000
0001
0000
1000
0000
0010
1000
0001
0000
,
0010
0000
0001
0000
0100
0000
0010
0000
1000
0000
0001
0000
0010
0001
1000
0000
,
0001
0100
0001
0100
0010
1000
0010
1000
0100
0010
0001
0100
0010
1000
0100
0010
,
0001
0000
0000
0000
0110
0000
0000
0000
1001
0000
0000
0000
0000
0000
0010
1000
,
0002
0000
0000
0000
2003
0000
0000
0000
3010
0100
0010
0100
0001
0000
0010
0100
,
2000
0000
0000
0000
3002
0000
0000
0000
0013
0100
0010
0100
0010
0000
0001
0000
,
0201
0000
0310
1000
1200
0000
0310
0001
,
0011
0000
0000
0000
1100
0000
0000
0000
1001
0000
0000
0000
1000
0100
0010
0001
,
2000
0000
0000
0000
3002
0000
0000
0000
0013
0100
0010
0100
1000
0000
0010
0100
,
0002
0000
0000
0000
2003
0000
0000
0000
3010
0100
0010
0100
0010
0000
1000
0000
,
0001
0100
0001
0100
0010
0000
1000
0000
0100
0010
0100
0010
0001
0000
1000
0000
,
1100
0000
0000
0000
0011
0000
0000
0000
1001
0000
0000
0000
0000
0000
0010
0001
,
1000
0000
0100
0000
1000
0001
1000
0000
0010
0000
0100
0000
0001
0010
0100
0000
,
1000
0000
0001
0000
0010
0100
0010
0000
0001
0000
1000
0000
0100
0010
0100
0000
,
0010
0000
0001
0000
0100
0010
0100
0000
1000
0000
0100
0000
0001
0010
0001
0000
,
1000
0000
0010
0000
0100
0001
1000
0000
0010
0100
0001
1000
0100
0010
0001
1000
,
0001
0000
0100
0000
0001
1000
0001
0000
0010
0000
0100
0000
1000
0010
0100
0000
,
0001
0000
0001
0000
1000
0010
1000
0000
0100
0000
0100
0000
0010
0001
0010
0000
,
0001
0000
0100
0000
1000
0100
0001
0000
1000
0000
0100
0000
0001
0100
1000
0000
,
0010
1000
0000
1000
0100
0000
0010
0000
1001
0000
0000
0000
0000
0000
0010
1000
,
0010
0000
1010
0000
0001
0100
0001
0000
0100
0000
0101
0000
1000
0001
1000
0000
,
0001
0000
0100
0000
0010
0000
1000
0000
0100
0010
0100
0000
1001
0000
0000
0000
,
0010
0000
0011
0000
1000
0100
1000
0000
0100
0000
1100
0000
0001
1000
0001
0000
,
1000
0100
0010
0001
0110
0000
1001
0000
,
0002
0010
0000
0010
,
0000
0010
0000
0010
,
2003
0100
0000
0100
,
0000
0100
0000
3100
,
1000
0010
0001
1000
0100
0001
1000
0100
,
0010
0010
0200
0000
1300
1000
0002
0000
,
1003
0100
0010
0001
0100
0010
1000
0001
,
0010
0001
0000
0001
0100
0000
0010
0000
1001
0000
0000
0000
0000
0000
0000
0000
,
0010
0000
1000
0000
0100
0000
0010
0000
0001
0000
1000
0000
0010
1000
0001
0000
,
0010
0000
0001
0000
0100
0000
0010
0000
1000
0000
0001
0000
0010
0001
1000
0000
,
0200
0000
0000
0000
0320
0000
0000
0000
0031
1000
0001
0000
0010
0000
0100
0000
,
1000
0000
0010
0000
0100
0000
0001
0000
0010
0100
0010
0100
1000
0010
0100
0001
,
0010
0000
0001
0000
0100
0000
0010
0000
1000
0000
0001
0000
0010
0001
1000
0000
,
0010
0000
1000
0000
0100
0000
0010
0000
0001
0000
1000
0000
0010
1000
0001
0000
,
1000
0100
1000
0100
0010
0001
0010
0001
0100
0010
1000
0100
0010
0001
0100
0010
,
1000
0000
0000
0000
0110
0000
0000
0000
1001
0000
0000
0000
0000
0000
0001
0100
,
0010
0000
0000
0000
0110
0000
0000
0000
1001
0000
0000
0000
0000
0000
0010
1000
,
0100
0010
2002
3003
,
1000
0100
1000
0000
0010
0000
0100
0000
0001
0000
0010
0001
0000
1000
0100
0000
,
0010
0001
0100
1000
0100
0001
0010
0000
,
0001
0100
0001
0000
0010
0000
0100
0000
1000
0000
0010
1000
0000
0001
0100
0000
,
0001
1000
0100
0010
0110
0000
1001
0000
,
0001
0100
0001
0100
0010
0000
1000
0000
0100
0000
0010
0001
0000
0001
1000
0000
,
0001
0100
1000
0100
0001
0010
0100
0000
,
1000
0100
1000
0100
0010
0000
0001
0000
0100
0000
0010
1000
0000
1000
0001
0000
,
1000
0100
0001
0100
1000
0000
1001
0000
,
0020
0000
0000
0030
,
0100
0000
0001
0000
1000
0010
1000
0000
0001
0000
0000
0000
1001
0000
0000
0000
,
0100
0000
1000
0000
0001
0010
0001
0000
1000
0000
0000
0000
1001
0000
0000
0000
;

//---------------dance-double - ----------------
#NOTES:
     dance-double:
     :
     Challenge:
     10:
     0.769149,0.908558,0.374146,0.301142,0.483652,590.000000,549.000000,41.000000,33.000000,0.000000,0.000000,0.769149,0.908558,0.374146,0.301142,0.483652,590.000000,549.000000,41.000000,33.000000,0.000000,0.000000:
// measure 0
00000000
00000000
00000000
00000000
,  // measure 1
00000000
00000000
00000000
00000000
,  // measure 2
00000000
00000000
00000000
00000000
,  // measure 3
00000001
00000010
00000001
00000000
00000100
00000000
00001000
00000000
00010000
00000000
01000000
10000000
00000000
01000000
10000000
00000000
,  // measure 4
00010000
10000000
01000000
00010000
00011000
00000000
00011000
00000000
,  // measure 5
00000020
00000000
00000000
00000000
00000031
00000000
00000100
00000000
00000020
00000000
00000000
00000000
00010030
00001000
00010000
00000000
,  // measure 6
00200000
00000000
00000000
00000000
10300000
00000000
01000000
00000000
00200000
00000000
00000000
00000000
00301000
00010000
00001000
00000000
,  // measure 7
00000020
00000000
00000230
00000000
00001300
00000001
00000010
00001000
,  // measure 8
00010000
00000000
00100000
00000000
10000000
00000000
00010000
00000000
01000000
00000000
00100000
10000000
00010000
00100000
01000000
10000000
,  // measure 9
00200000
00000000
00000000
00000000
10300000
00000000
01000000
00000000
00200000
00000000
00000000
00000000
00301000
00010000
00001000
00000000
,  // measure 10
00000020
00000000
00000000
00000000
00000031
00000000
00000100
00000000
00000020
00000000
00000000
00000000
00010030
00001000
00010000
00000000
,  // measure 11
00000010
00001000
00000010
00000000
00010000
00001000
00010000
00000000
00100000
10000000
00100000
10000000
01000000
00100000
00010000
01000000
,  // measure 12
00100000
00000000
00000000
00000000
01100000
00000000
00000000
00000000
10010000
00000000
00000000
00000000
00000000
00000000
10000000
01000000
,  // measure 13
00010000
00011000
00000000
00000000
00000010
00000110
00000000
00000000
,  // measure 14
00001000
00000000
00000100
00000000
00000010
00000000
00000001
00000000
00000010
00000100
00000010
00000000
00000110
00000000
00001000
00000000
,  // measure 15
00010000
00011000
00000000
00000000
00100000
01100000
00000000
00000000
,  // measure 16
10000000
01000000
00100000
00010000
10010000
00000000
10010000
00000000
,  // measure 17
00100000
00000000
10000000
00000000
01000000
00000000
00010000
00000000
00001000
00000000
00100000
00000000
00010000
01000000
00010000
00000000
,  // measure 18
00001000
00000000
00000010
00000000
00000100
00000000
00000001
00000000
00001000
00000000
00000100
00000000
00010000
00001000
00010000
00001000
,  // measure 19
00000200
00000000
00000320
00000000
00001030
00000001
00000100
00001000
,  // measure 20
00010000
00000000
01000000
00000000
10000000
00000000
00010000
00000000
00100000
00001000
00100000
00001000
00010000
00000100
00010000
00000100
,  // measure 21
00000010
00000000
00000001
00000000
00000100
00000000
00001000
00000000
00010000
00000000
00000010
00000000
00001000
00000100
00001000
00000000
,  // measure 22
00010000
00000000
00100000
00000000
01000000
00000000
10000000
00000000
00010000
00000000
01000000
00000000
00001000
00010000
00001000
00010000
,  // measure 23
01000000
10000000
01000000
10000000
00010000
01000000
00010000
01000000
00001000
00010000
00001000
00010000
00000100
00001000
00000100
00001000
,  // measure 24
00000001
00000000
00000000
00000000
00000110
00000000
00000000
00000000
00001001
00000000
00000000
00000000
00000000
00000000
00000010
00000001
,  // measure 25
00000200
00000000
00000000
00000000
00002300
00000000
00000000
00000000
00013000
00100000
01000000
00100000
00010000
00000000
00001000
00000000
,  // measure 26
02000000
00000000
00000000
00000000
03020000
00000000
00000000
00000000
10030000
01000000
00100000
00010000
10000000
00000000
01000000
00000000
,  // measure 27
01020000
00000000
00031000
00010000
00012000
00000000
00003010
00000001
,  // measure 28
00000101
00000000
00000000
00000000
00001001
00000000
00000000
00000000
00001010
00000000
00000000
00000000
00000001
00000000
00000100
00000001
,  // measure 29
00000020
00000000
00000000
00000000
00002030
00000000
00000000
00000000
00013000
01000000
00100000
01000000
00010000
00000000
00001000
00000000
,  // measure 30
00200000
00000000
00000000
00000000
00320000
00000000
00000000
00000000
10030000
00100000
01000000
00010000
10000000
00000000
00100000
00000000
,  // measure 31
00010000
00001000
00010000
00001000
00000100
00000000
00000001
00000000
00000010
00001000
00000010
00001000
00010000
00000000
00000100
00000000
,  // measure 32
00000110
00000000
00000000
00000000
00000011
00000000
00000000
00000000
00001001
00000000
00000000
00000000
00000000
00000000
00000010
00001000
,  // measure 33
00000001
00000000
00001000
00000000
00000010
00000100
00000010
00000000
00010000
00000000
00001000
00000000
01000000
00010000
01000000
00000000
,  // measure 34
00100000
00000000
00100000
00000000
10000000
00010000
10000000
00000000
01000000
00000000
01000000
00000000
00010000
00001000
00010000
00000000
,  // measure 35
00100000
00000000
10000000
00000000
01000000
10000000
01000000
00000000
00100000
00000000
00001000
00000000
00010000
00000100
00010000
00000000
,  // measure 36
00001000
00000000
00000010
00000000
00000001
00000100
00000001
00000000
00001000
00000100
00010000
00001000
00010000
00001000
00100000
00010000
,  // measure 37
10000000
00000000
00010000
00000000
00100000
01000000
00100000
00000000
00001000
00000000
00010000
00000000
00000100
00001000
00000100
00000000
,  // measure 38
00000010
00000000
00000010
00000000
00000001
00001000
00000001
00000000
00000100
00000000
00000100
00000000
00001000
00010000
00001000
00000000
,  // measure 39
00000010
00000000
00000001
00000000
00000100
00001000
00010000
00000000
00001000
00000000
00000010
00000000
00001000
00010000
01000000
00000000
,  // measure 40
10000000
00010000
00000000
00010000
01000000
00000000
00100000
00000000
10010000
00000000
00000000
00000000
00000000
00000000
10000000
00100000
,  // measure 41
00010000
00011000
00000000
00000000
00000100
00000110
00000000
00000000
,  // measure 42
00001000
00000000
00000010
00000000
00000100
00000000
00000001
00000000
00000100
00000010
00000100
00000000
00000110
00000000
00001000
00000000
,  // measure 43
00010000
00011000
00000000
00000000
01000000
01100000
00000000
00000000
,  // measure 44
10000000
00100000
01000000
00010000
10010000
00000000
10010000
00000000
,  // measure 45
20000000
00100000
00000000
00100000
,  // measure 46
30020000
00100000
00000000
00100000
,  // measure 47
00032000
00000100
00000000
00000100
,  // measure 48
00003002
00000100
00000000
00000100
,  // measure 49
00001003
00000100
00000010
00001000
00010000
00100000
00010000
00001000
,  // measure 50
01000000
01000000
00200000
00000000
10300000
10000000
00020000
00000000
,  // measure 51
10030000
01000000
00100000
00010000
00001000
00000100
00000010
00000001
,  // measure 52
00001000
00000001
00000000
00000001
00000100
00000000
00000010
00000000
00001001
00000000
00000000
00000000
00000000
00000000
00000000
00000000
,  // measure 53
00000010
00000000
00000001
00000000
00000100
00000000
00001000
00000000
00010000
00000000
00000010
00000000
00001000
00000100
00001000
00000000
,  // measure 54
00010000
00000000
00100000
00000000
01000000
00000000
10000000
00000000
00010000
00000000
01000000
00000000
00001000
00010000
00001000
00010000
,  // measure 55
02000000
00000000
03200000
00000000
00310000
10000000
01000000
00010000
,  // measure 56
00001000
00000000
00000100
00000000
00000001
00000000
00001000
00000000
00000010
00010000
00000010
00010000
00001000
01000000
00001000
01000000
,  // measure 57
00100000
00000000
10000000
00000000
01000000
00000000
00010000
00000000
00001000
00000000
00100000
00000000
00010000
01000000
00010000
00000000
,  // measure 58
00001000
00000000
00000010
00000000
00000100
00000000
00000001
00000000
00001000
00000000
00000100
00000000
00010000
00001000
00010000
00001000
,  // measure 59
00000100
00000001
00000100
00000001
00001000
00000100
00001000
00000100
00010000
00001000
00010000
00001000
01000000
00010000
01000000
00010000
,  // measure 60
10000000
00000000
00000000
00000000
01100000
00000000
00000000
00000000
10010000
00000000
00000000
00000000
00000000
00000000
00100000
01000000
,  // measure 61
00001000
00000000
00000000
00000000
01001000
00000000
00000000
00000000
00010100
00000000
00000000
00000000
00000000
00000000
00000010
00000001
,  // measure 62
00000100
00000010
00002002
00003003
,  // measure 63
00000001
00000100
00000001
00000000
00001000
00000000
00000100
00000000
00010000
00000000
00000000
00010000
00001000
00000000
00100000
00000000
,  // measure 64
00010000
10000000
01000000
00010000
00001000
00010000
00100000
00000000
,  // measure 65
10000000
01000000
10000000
00000000
00010000
00000000
01000000
00000000
00001000
00000000
00000000
00001000
00010000
00000000
00000010
00000000
,  // measure 66
00001000
00000001
00000100
00001000
00010000
00000000
00011000
00000000
,  // measure 67
00000100
00000001
00000100
00000001
00000100
00000000
00000010
00000000
00001000
00000000
00000100
00010000
00000000
00010000
00001000
00000000
,  // measure 68
00100000
00010000
10000000
01000000
00010000
00001000
00100000
00000000
,  // measure 69
01000000
10000000
01000000
10000000
01000000
00000000
00100000
00000000
00010000
00000000
01000000
00001000
00000000
00001000
00010000
00000000
,  // measure 70
00000010
00001000
00000001
00000100
00001000
00000000
00011000
00000000
,  // measure 71
02000000
00000000
00000000
03000000
,  // measure 72
00100000
10000000
01000000
00010000
00011000
00000000
00011000
00000000
,  // measure 73
00000010
00000001
00000100
00001000
00011000
00000000
00011000
00000000
;
