#TITLE:Rockabye;
#SUBTITLE:;
#ARTIST:Clean Bandit ft. Sean Paul & Anne-Marie;
#TITLETRANSLIT:;
#SUBTITLETRANSLIT:;
#ARTISTTRANSLIT:;
#GENRE:;
#CREDIT:;
#BANNER:Rockabye.png;
#BACKGROUND:Rockabye-bg.png;
#LYRICSPATH:;
#CDTITLE:;
#MUSIC:Rockabye.ogg;
#OFFSET:0.000000;
#SAMPLESTART:64.639061;
#SAMPLELENGTH:15.000000;
#SELECTABLE:YES;
#BPMS:0.000000=102.000000
;
#STOPS:
;
#BGCHANGES:;
#KEYSOUNDS:;
#ATTACKS:;

//---------------dance-single - ----------------
#NOTES:
     dance-single:
     :
     Beginner:
     1:
     0.067311,0.121379,0.010243,0.030729,0.000000,46.000000,45.000000,1.000000,3.000000,0.000000,0.000000,0.067311,0.121379,0.010243,0.030729,0.000000,46.000000,45.000000,1.000000,3.000000,0.000000,0.000000:
0000
0000
0000
0000
,
0000
0000
0000
0000
,
0000
0000
0000
0000
,
0000
0000
0000
0000
,
0001
0000
0000
0000
,
0001
0000
0000
0000
,
1000
0000
0000
0000
,
1000
0000
0000
0000
,
0001
0000
0000
0000
,
0001
0000
0000
0000
,
1000
0000
0000
0000
,
1000
0000
0000
0000
,
0010
0000
0000
0000
,
0010
0000
0000
0000
,
0010
0000
0000
0000
,
0200
0000
0300
0000
,
0010
0000
0000
0000
,
0010
0000
0000
0000
,
0010
0000
0000
0000
,
0200
0000
0300
0000
,
0001
0000
0000
0000
,
0000
0000
1000
0000
,
1000
0000
0000
0000
,
0000
0000
0001
0000
,
0001
0000
0000
0000
,
0000
0000
1000
0000
,
1000
0000
0000
0000
,
0001
0000
0000
0100
,
0100
0000
0100
0000
,
0010
0000
0010
0000
,
1000
0000
1000
0000
,
0001
0000
0001
0000
,
1001
0000
1000
0000
,
0001
0000
1000
0000
,
0010
0000
0100
0000
,
0010
0000
0100
0000
,
0001
0000
0000
0000
,
1000
0000
0000
0000
,
0010
0000
0000
0000
,
0200
0000
0300
0000
;

//---------------dance-single - ----------------
#NOTES:
     dance-single:
     :
     Hard:
     8:
     0.396549,0.505746,0.081944,0.307289,0.373868,271.000000,263.000000,8.000000,30.000000,0.000000,0.000000,0.396549,0.505746,0.081944,0.307289,0.373868,271.000000,263.000000,8.000000,30.000000,0.000000,0.000000:
0000
0000
0000
0000
,
0000
0000
0000
0000
,
0000
0000
0000
0000
,
0000
0000
0000
0000
0000
1000
0100
0010
,
0002
0000
0000
0000
0000
0003
0100
0010
,
2000
0000
0000
0000
3000
0001
1000
0100
,
0010
0010
0100
0100
1000
0001
0100
0010
,
0200
0000
0000
0000
0300
0001
0100
0001
,
0020
0000
0000
0000
0000
0030
0100
1000
,
0200
0000
0000
0000
0300
1000
0010
0100
,
0001
0001
1000
1000
0100
0010
0001
0010
,
0200
0000
0000
0000
0300
1000
0001
1000
,
1001
0000
0000
0100
0001
0000
1000
0000
0100
0000
0000
0010
0001
0010
0100
0000
,
1000
0000
0000
0001
0100
0000
0001
0000
1000
0000
0000
0010
1000
0100
1000
0000
,
0001
0000
0000
1000
0100
0000
0010
0000
0001
0000
0000
0100
0001
0100
0010
0000
,
2000
0000
0000
3020
0000
0000
0230
0000
0000
0000
0301
0000
0010
0000
0100
0000
,
1100
0000
0000
0001
1000
0000
0001
0000
0010
0000
0000
0100
1000
0010
1000
0000
,
0001
0000
0000
0100
0001
0000
1000
0000
0010
0000
0000
1000
0100
0010
0100
0000
,
1000
0000
0000
0001
0100
0000
0010
0000
0100
0000
0000
0010
1000
0100
0010
0000
,
0002
0000
0000
0023
0000
0000
0230
0000
0000
0000
1300
0000
0010
0000
0100
0000
,
0001
0000
0000
0001
0000
0000
1000
0000
0000
1000
0000
0000
0010
0000
0100
0020
,
0000
0000
0000
0000
0000
0000
0000
1030
0000
0100
0000
0010
0001
0000
1000
0000
,
0010
0000
0000
0010
0000
0000
0100
0000
0000
0100
0000
0000
0001
0000
0010
0200
,
0000
0000
0000
0000
0000
0000
0000
0310
0000
0001
0000
1000
0010
0000
0100
0000
,
0001
0000
0100
0002
0000
0000
2003
0000
0000
3020
0000
0000
0130
0000
0001
2000
,
0000
0000
0100
0000
3000
0000
0100
0001
0000
0100
0000
1000
0100
0000
0010
0000
,
0001
0000
1000
0020
0000
0000
0230
0000
0000
0302
0000
0000
1003
0000
0001
0020
,
0000
0000
0000
0000
0000
0000
0030
0000
0100
1000
0000
0001
0100
0000
0010
0000
,
0110
0000
0000
0101
0000
0001
0010
0000
0100
0000
1000
0100
0010
0000
1000
0000
,
0010
0000
0001
0010
0000
0100
1000
0010
1000
0000
0001
0000
0100
0000
0010
0000
,
0110
0000
0000
1010
0000
1000
0100
0010
0001
0000
0010
0001
0100
0000
1000
0000
,
0100
0000
0001
0010
0000
0100
1000
0010
0100
0000
0001
0000
1000
0000
0001
0000
,
0011
0000
0010
0100
1000
0000
0001
0000
0010
1000
0010
1000
0010
0000
0001
0000
,
0100
0000
0010
1000
0000
0010
1000
0100
0010
0000
0001
0100
0001
0000
1000
0000
,
1100
0000
0010
0001
0100
0000
0001
0000
0100
1000
0100
1000
0100
0000
0001
0000
,
0010
0100
0000
1000
0100
0000
0010
0001
0100
0000
0010
0100
0010
0000
1000
0000
,
0002
0000
0000
0000
0013
0100
1000
0000
0020
0000
0000
0000
0130
0000
0001
0000
,
2000
0000
0000
0000
3100
0001
0100
0000
0020
0000
0000
0000
0032
0000
0000
0000
,
0203
0000
0000
0000
0310
0001
0010
0000
2000
0000
0000
0000
3001
0000
0010
0000
,
0200
0000
0300
0000
;

//---------------dance-single - ----------------
#NOTES:
     dance-single:
     :
     Easy:
     2:
     0.158034,0.222528,0.071701,0.225345,0.000000,108.000000,101.000000,7.000000,22.000000,0.000000,0.000000,0.158034,0.222528,0.071701,0.225345,0.000000,108.000000,101.000000,7.000000,22.000000,0.000000,0.000000:
0000
0000
0000
0000
,
0000
0000
0000
0000
,
0000
0000
0000
0000
,
0000
0000
0000
0000
,
2000
0000
3000
0001
,
0020
0000
0030
0100
,
1000
1000
0001
0001
,
0200
0000
0300
0010
,
0020
0000
0030
0100
,
0200
0000
0300
0001
,
0001
1000
0001
1000
,
0002
0000
0003
1000
,
1001
0001
0100
0100
,
0010
0010
1000
1000
,
0001
0001
1000
1000
,
0020
0000
0000
0030
,
0100
0100
0001
0001
,
1000
1000
0100
0100
,
0010
0010
0001
0001
,
2000
0000
3000
0000
,
0002
0000
0003
0000
,
1001
0000
0010
0010
,
0200
0000
0300
0000
,
0110
0000
0001
0001
,
2000
0000
0001
0001
,
3020
0000
0230
0000
,
0302
0000
1000
1000
,
0023
0000
0000
0130
,
0110
0100
0010
0010
,
0001
1000
0001
0000
,
1001
0001
1000
1000
,
0010
0100
0010
0000
,
0110
0010
1000
1000
,
0001
0001
1000
1000
,
1001
0001
0100
0100
,
0010
0100
0001
1000
,
0002
0000
2003
0000
,
3020
0000
0230
0000
,
0302
0000
0023
0000
,
0230
0000
0300
0000
;

//---------------dance-single - ----------------
#NOTES:
     dance-single:
     :
     Medium:
     4:
     0.232662,0.283218,0.030729,0.307289,0.040972,159.000000,156.000000,3.000000,30.000000,0.000000,0.000000,0.232662,0.283218,0.030729,0.307289,0.040972,159.000000,156.000000,3.000000,30.000000,0.000000,0.000000:
0000
0000
0000
0000
,
0000
0000
0000
0000
,
0000
0000
0000
0000
,
0000
0000
0000
0000
,
2000
0000
0000
0000
3000
0000
0001
0100
,
0002
0000
0003
1000
,
0020
0000
0230
0000
0302
0000
1003
0100
,
2000
0000
0000
0000
3000
0000
0001
0100
,
0020
0000
0000
0000
0030
0000
0100
0001
,
0200
0000
0300
0010
,
2000
3020
0230
0302
,
0013
0200
0000
0000
0300
1000
0100
0010
,
0001
0000
0100
0000
0001
0000
1000
1000
,
0001
0000
0100
0000
0010
0000
0100
0100
,
0001
0000
1000
0000
0100
0000
0010
0010
,
0002
1000
1003
0010
,
0100
0000
0001
0000
1000
0000
0100
0100
,
1000
0000
0010
0000
0100
0000
0001
0100
,
0010
0000
1000
0000
0001
0000
1000
0100
,
2000
0001
3001
0000
,
0010
0000
0100
0000
0001
1000
0001
0000
,
2000
0000
3100
0100
,
0010
0000
0001
0000
0100
0001
0100
0000
,
0020
0000
0130
0100
,
0010
0000
0000
0010
0000
0000
0100
0000
0000
0100
0000
0000
0010
0000
0100
0000
,
0002
0000
1003
0001
,
0010
0000
0000
0010
0000
0000
0100
0000
0000
0100
0000
0000
0010
0000
0100
0000
,
2000
0000
3001
1001
,
0001
0000
0000
0001
0000
0000
0001
0000
1000
0000
0000
0000
0010
0000
0100
0000
,
0010
0000
0000
0010
0000
0000
1000
0000
0100
0000
0000
0000
0110
0000
0000
0000
,
0010
0000
0000
0010
0000
0000
0100
0000
1000
0000
0000
0000
0001
0000
0100
0000
,
0001
0000
0000
0001
0000
0000
1000
0000
0100
0000
0000
0000
0110
0000
0000
0000
,
0010
0000
0001
0000
1000
0001
1000
0000
,
0010
0000
0100
0000
0001
1000
0001
0000
,
0010
0000
0100
0000
1000
0001
1000
0000
,
0010
0100
0010
0000
1000
0001
1000
0000
,
0002
0000
0013
0100
2000
0000
3002
0000
,
0203
0000
0310
0100
0002
0000
2003
0000
,
3020
0230
0302
0023
,
0230
0000
0300
0000
;

//---------------dance-double - ----------------
#NOTES:
     dance-double:
     :
     Hard:
     9:
     0.471176,0.546206,0.194616,0.225345,0.537756,322.000000,303.000000,19.000000,22.000000,0.000000,0.000000,0.471176,0.546206,0.194616,0.225345,0.537756,322.000000,303.000000,19.000000,22.000000,0.000000,0.000000:
00000000
00000000
00000000
00000000
,
00000000
00000000
00000000
00000000
,
00000000
00000000
00000000
00000000
,
00000000
00000000
00000000
00000000
00000000
00000000
00000000
00000000
00000000
00000000
00010000
00000000
01000000
00000000
10000000
00010000
,
02000000
00000000
00000000
00001000
00000000
00000000
00001000
00000000
03020000
00000000
00000000
00100000
00000000
00000000
00100000
00000000
,
00032000
00000000
00000000
00000100
00000000
00000000
00000100
00000000
00003001
00000000
00001000
00000000
00000001
00000000
00000100
00001000
,
00000000
00000000
00010000
00000000
00100000
00000000
10000000
01000000
00000000
01000000
00010000
00000000
00001000
00000000
00100000
00001000
,
00010000
00000000
00000000
00000010
00000000
00000000
00010000
00000000
00011000
00000000
00001000
00000000
00000100
00000000
00000001
00001000
,
00000200
00000000
00000000
00010000
00000000
00000000
00010000
00000000
00002300
00000000
00000000
00000010
00000000
00000000
00000010
00000000
,
00023000
00000000
00000000
01000000
00000000
00000000
01000000
00000000
10030000
00000000
00010000
00000000
10000000
00000000
01000000
00010000
,
00000000
00000000
00001000
00000000
00000010
00000000
00000001
00000100
00000000
00000100
00001000
00000000
00010000
00000000
00000010
00010000
,
00001000
00000000
00000000
00100000
00000000
00000000
00001000
00000000
00011000
00000000
00010000
00000000
00100000
00000000
10000000
00000000
,
10010000
00000000
00000000
01000000
00010000
00000000
10000000
00100000
00000000
00100000
01000000
00010000
01000000
00010000
00100000
00000000
,
00001000
00000000
00000000
00010000
00000100
00000000
00000000
00000010
00000000
00000010
00000000
00000010
00000100
00001000
00000100
00000010
,
00000001
00000000
00000000
00001000
00000100
00000000
00001000
00000001
00000000
00000010
00000000
00000100
00010000
00001000
00010000
00000000
,
00002000
00000000
00000000
00203000
00000000
00000000
00310000
00000000
10000000
00000000
00000000
01000000
00100000
00000000
00010000
00000000
,
10010000
00000000
00000000
00100000
00010000
00000000
10000000
01000000
00000000
01000000
00100000
00010000
00100000
00010000
01000000
00000000
,
00001000
00000000
00000000
00010000
00000010
00000000
00000000
00000100
00000000
00000100
00000000
00000100
00000010
00001000
00000010
00000100
,
00000001
00000000
00000000
00001000
00000010
00000000
00001000
00000001
00000000
00000100
00000000
00000010
00010000
00001000
00010000
00000000
,
00002000
00000000
00000000
02003000
00000000
00000000
03020000
00000000
20030000
00000000
00000000
32000000
00000000
00000000
03010000
00000000
,
00011000
00000000
00001000
00000100
00000000
00000000
00010000
00000000
00100000
01000000
00000000
00000000
00010000
00000000
00001000
00000010
,
00000001
00000000
00000100
00000000
00010000
00000000
00000000
10000000
00000000
10000000
00000000
01000000
00010000
00000000
00001000
00000000
,
00011000
00000000
00010000
01000000
00000000
00000000
00001000
00000000
00000010
00000100
00000000
00000000
00001000
00000000
00010000
00100000
,
10000000
00000000
01000000
00000000
00001000
00000000
00000000
00000001
00000000
00000001
00000000
00000100
00001000
00000000
00010000
00000000
,
00011000
00000000
00001000
00000010
00000000
00000000
00010000
00000000
01000000
00100000
00000000
00000000
00010000
00000000
00001000
00000100
,
00000001
00000000
00000010
00000000
00010000
00000000
00000000
10000000
00000000
10000000
00000000
00100000
00010000
00000000
00001000
00000000
,
00011000
00000000
00010000
00100000
00000000
00000000
00001000
00000000
00000100
00000010
00000000
00000000
00001000
00000000
00010000
01000000
,
20000000
00000000
00000000
00000000
00000000
00000000
00000000
00000000
30010000
01000000
00000000
00001000
00100000
00000000
00001000
00000000
,
00011000
00000000
00000000
00010010
00000000
00000010
00001000
00000000
00001001
00000000
00000001
00000000
00000101
00000000
00001000
00000000
,
00011000
00000000
00001000
01000000
00010000
00000000
10000000
00010000
01000000
00001000
00010000
00000100
00000010
00000000
00001000
00000000
,
00011000
00000000
00000000
00101000
00000000
00100000
00010000
01000000
00010000
00000000
10000000
00000000
11000000
00000000
00010000
00000000
,
00011000
00000000
00010000
00000100
00001000
00000000
00000001
00001000
00000100
00010000
00001000
01000000
00100000
00000000
00000000
00000000
,
10010000
00000000
10000000
01000000
00010000
00000000
00000000
00000000
00001000
00000000
00010000
00000010
00001000
00000000
00000000
00000000
,
00000001
00000000
00000000
00000010
00000000
00000000
00000100
00000000
00001000
00000000
00000000
00000000
00000001
00000000
00000100
00000000
00001000
00000000
00000000
00000000
00010000
00000000
01000000
00000000
10000000
00000000
00000000
00000000
00010000
00000000
00000000
00000000
,
10010000
00000000
10000000
00100000
00010000
00000000
00000000
00000000
00001000
00000000
00010000
00000100
00000010
00000000
00000000
00000000
,
00000001
00000000
00000000
00000100
00000000
00000000
00000010
00000000
00001000
00000000
00000000
00000000
00000100
00000000
00000000
00000000
00010000
00000000
00000000
00001000
00000000
00000000
00100000
00000000
00010000
00000000
00000000
00000000
00000000
00000000
00000000
00000000
,
20000000
00000000
00000000
00000000
30100000
00010000
00001000
00000000
00000020
00000000
00000000
00000000
00000031
00000000
00000100
00000000
,
00002000
00000000
00000000
00000000
00003100
00000010
00010000
00000000
00200000
00000000
00000000
00000000
20300000
00000000
00000000
00000000
,
32000000
00000000
00000000
00000000
03010000
00001000
00000010
00000000
00000200
00000000
00000000
00000000
00010300
00000000
00001000
00000000
,
00000020
00000000
00000030
00000000
;

//---------------dance-double - ----------------
#NOTES:
     dance-double:
     :
     Medium:
     5:
     0.272170,0.323678,0.061458,0.245831,0.040972,186.000000,180.000000,6.000000,24.000000,0.000000,0.000000,0.272170,0.323678,0.061458,0.245831,0.040972,186.000000,180.000000,6.000000,24.000000,0.000000,0.000000:
00000000
00000000
00000000
00000000
,
00000000
00000000
00000000
00000000
,
00000000
00000000
00000000
00000000
,
00000000
00000000
00000000
00000000
,
00020000
00000000
00000000
00000000
00030000
00000000
00001000
00000100
,
00002000
00000000
00003000
00100000
,
00010000
10000000
00010000
00000000
10000000
01000000
10000000
00000000
,
00200000
00000000
00000000
00000000
00300000
00010000
00001000
00010000
,
00002000
00000000
00000000
00000000
00003000
00000000
00010000
01000000
,
00020000
00000000
00030000
00000010
,
00001000
00000001
00001000
00000000
00000001
00000100
00000001
00000000
,
00000020
00000000
00000000
00000000
00000030
00001000
00010000
01000000
,
10000000
00000000
00010000
00000000
00100000
00001000
00010000
00000000
,
00000100
00000000
00001000
00000000
00000001
00000000
00000010
00000001
,
00001000
00000000
00000100
00000000
00010000
00001000
01000000
00100000
,
20000000
00000000
30200000
00000000
00320000
00000000
00031000
00000100
,
00000001
00000000
00001000
00000000
00000010
00010000
00001000
00000000
,
01000000
00000000
00010000
00000000
10000000
00000000
00100000
10000000
,
00010000
00000000
01000000
00000000
00001000
00010000
00000100
00000010
,
00000002
00000000
00000023
00000000
00002030
00000000
00013000
00100000
,
10000000
00000000
00010000
00000000
01000000
00000000
00001000
00000000
00000000
00010000
00000000
00000000
00000100
00000000
00000100
00000000
,
00000020
00000000
00000000
00000000
00000031
00001000
00000010
00001000
,
00000001
00000000
00001000
00000000
00000100
00000000
00010000
00000000
00000000
00001000
00000000
00000000
00100000
00000000
00100000
00000000
,
02000000
00000000
00000000
00000000
13000000
00010000
01000000
00010000
,
10000000
00000000
00010000
00000000
00100000
00000000
00001000
00000000
00000000
00010000
00000000
00000000
00000010
00000000
00000010
00000000
,
00000200
00000000
00000000
00000000
00000301
00001000
00000100
00001000
,
00000001
00000000
00001000
00000000
00000010
00000000
00010000
00000000
00000000
00001000
00000000
00000000
01000000
00000000
01000000
00000000
,
00200000
00000000
00300000
00000000
,
10000000
00000000
00000000
10000000
00000000
00000000
10000000
00000000
00010000
00000000
00000000
00000000
00100000
00000000
01000000
00000000
,
00010000
00000000
00000000
00010000
00000000
00000000
00001000
00000000
00000100
00000000
00000000
00000000
00000110
00000000
00000000
00000000
,
00000001
00000000
00000000
00000001
00000000
00000000
00000001
00000000
00001000
00000000
00000000
00000000
00000010
00000000
00000100
00000000
,
00001000
00000000
00000000
00001000
00000000
00000000
00010000
00000000
01000000
00000000
00000000
00000000
01100000
00000000
00000000
00000000
,
10000000
00010000
10000000
01000000
00100000
00000000
00110000
00000000
,
00010000
01000000
00001000
00010000
00000100
00000000
00000110
00000000
,
00000001
00001000
00000001
00000100
00000010
00000000
00001010
00000000
,
00001000
00000100
00010000
00001000
01000000
00000000
01100000
00000000
,
20000000
00000000
30100000
01000000
00020000
00000000
00130000
00001000
,
00020000
00000000
00031000
00000100
00000020
00000000
00002030
00000000
,
00003002
00000000
00000013
00000100
00002000
00000000
00003010
00010000
,
00002000
00000000
00003000
00000000
;

//---------------dance-double - ----------------
#NOTES:
     dance-double:
     :
     Easy:
     2:
     0.141938,0.182069,0.040972,0.215102,0.000000,97.000000,93.000000,4.000000,21.000000,0.000000,0.000000,0.141938,0.182069,0.040972,0.215102,0.000000,97.000000,93.000000,4.000000,21.000000,0.000000,0.000000:
00000000
00000000
00000000
00000000
,
00000000
00000000
00000000
00000000
,
00000000
00000000
00000000
00000000
,
00000000
00000000
00000000
00000000
,
00002000
00000000
00003000
00000001
,
00000020
00000000
00000030
00000100
,
00010000
00010000
00001000
00001000
,
02000000
00000000
03000000
00100000
,
00200000
00000000
00300000
10000000
,
20000000
00000000
30000000
00010000
,
00010000
01000000
00001000
01000000
,
00002000
00000000
00003000
00010000
,
00010000
00001000
00001000
00000100
,
00000100
00000001
00000001
00001000
,
00001000
00000100
00000100
00010000
,
00020000
00000000
00000000
00031000
,
00001000
00010000
00010000
01000000
,
01000000
10000000
10000000
00010000
,
00010000
01000000
01000000
00001000
,
00002000
00000000
00003000
00000000
,
02000000
00000000
03000000
00000000
,
00011000
00000000
00000010
00000010
,
00000200
00000000
00000300
00000000
,
00011000
00000000
00100000
00100000
,
02000000
00000000
03000000
00000000
,
00011000
00000000
00000100
00000100
,
00000020
00000000
00000030
00000000
,
00022000
00000000
00000000
00033000
,
00100000
10000000
00010000
00000000
,
10000000
01000000
00010000
00000000
,
00001000
00000100
00000001
00000000
,
00000010
00000001
00001000
00000000
,
00000100
00010000
00001000
00000000
,
01000000
00001000
00010000
00000000
,
00000010
00001000
00000001
00000000
,
00000100
00001000
00010000
01000000
,
20000000
00000000
30020000
00000000
,
00230000
00000000
00302000
00000000
,
00023000
00000000
00030020
00000000
,
00000230
00000000
00000300
00000000
;

//---------------dance-single - ----------------
#NOTES:
     dance-single:
     :
     Challenge:
     9:
     0.577996,0.647355,0.081944,0.276560,0.706764,395.000000,387.000000,8.000000,27.000000,0.000000,0.000000,0.577996,0.647355,0.081944,0.276560,0.706764,395.000000,387.000000,8.000000,27.000000,0.000000,0.000000:
// measure 0
0000
0000
0000
0000
,  // measure 1
0000
0000
0000
0000
,  // measure 2
0000
0000
0000
0000
,  // measure 3
0000
0000
0000
0000
0000
0000
0000
0000
0000
0000
0010
0000
1000
0000
0001
0010
,  // measure 4
0100
0000
0000
0100
0000
0000
1000
0000
0001
0000
0000
0100
0010
0000
1000
0020
,  // measure 5
0000
0000
0130
0010
0000
0000
1000
0000
0001
0000
0010
0000
0100
0000
1000
0001
,  // measure 6
0000
0001
0010
0000
0100
0000
1000
0001
0000
0001
0100
0000
0010
0010
0000
1000
,  // measure 7
0000
0000
0001
0000
0000
0000
0010
0000
0100
1000
0100
0000
1000
0000
0001
0100
,  // measure 8
0010
0000
0000
0010
0000
0000
1000
0000
0001
0000
0000
0010
0001
0000
0010
0200
,  // measure 9
0000
0000
1300
0100
0000
0000
0010
0000
0100
1000
0010
0000
0100
0000
0001
1000
,  // measure 10
0000
1000
0010
0000
0100
0000
0001
1000
0000
1000
0100
0000
0010
0000
0010
0001
,  // measure 11
0000
0000
0000
0000
0000
0000
1000
0000
0000
0000
0000
0000
0010
0000
0000
0000
0000
0000
1000
0000
0000
0001
0000
0000
0000
0000
0000
0010
0000
0000
0100
0000
1000
0000
0100
0000
1000
0000
0000
0000
0000
0000
0001
0000
0000
0000
0000
0000
,  // measure 12
0100
0000
0010
1000
0000
1000
0001
0010
0000
0100
0010
0100
1000
0001
1000
0000
,  // measure 13
0010
0000
1000
0010
0000
0100
0010
1000
0000
0001
0010
0001
0100
0001
1000
0100
,  // measure 14
0010
0000
0001
0010
0000
0001
0100
0010
0000
1000
0010
1000
0100
1000
0001
0000
,  // measure 15
0100
0000
0001
0100
0010
0000
0010
0000
0100
0000
0010
0100
0001
0000
0001
0000
,  // measure 16
1000
0000
0100
1000
0010
0000
0100
0001
0000
0010
0001
0010
0100
0010
1000
0000
,  // measure 17
0010
0000
0001
0100
0010
0000
1000
0020
0000
0031
0010
0100
0010
0100
0001
1000
,  // measure 18
0100
0000
0010
0100
1000
0000
0010
0100
0000
0001
0100
0001
1000
0100
1000
0000
,  // measure 19
0010
0000
0100
0001
0010
0000
0010
0000
0100
0000
0010
0001
0100
0000
0100
0000
,  // measure 20
0101
0000
0001
1000
0100
0000
0010
0100
1000
0100
0001
0100
1000
0000
0001
0001
,  // measure 21
1000
0000
0001
0000
0010
0000
0100
0010
0001
0010
1000
0010
0001
0000
0100
0000
,  // measure 22
0010
0000
1000
0001
0010
0000
0001
0100
1000
0100
0001
0100
1000
0000
0100
0100
,  // measure 23
0010
0000
1000
0000
0001
0000
1000
0100
0001
0100
1000
0100
0001
0000
0100
0000
,  // measure 24
0010
0000
0001
0010
0100
0000
1000
0010
0001
0010
1000
0100
0001
0000
0100
0100
,  // measure 25
1000
0000
0010
0000
0100
0000
0001
0010
1000
0010
0001
0100
1000
0000
0100
0000
,  // measure 26
0010
0000
1000
0010
0100
0000
0001
0010
1000
0010
0001
0100
1000
0000
0100
0100
,  // measure 27
0020
0000
1030
0000
0000
0000
0000
0000
1010
1010
0000
0101
0101
0000
0001
1000
,  // measure 28
1100
0000
1000
0001
0100
0010
1000
1000
0001
0000
0010
0000
0100
0010
0200
1300
,  // measure 29
0100
0000
1000
1000
0001
0100
0010
0010
1000
0001
1000
0001
0100
0000
0010
1000
,  // measure 30
0100
0000
0010
0100
0000
0010
0100
1000
0001
0000
0100
0001
0100
0010
1000
0000
,  // measure 31
0001
0000
0010
0010
0001
0000
1000
1000
0010
0100
0010
0100
0001
1000
0100
0010
,  // measure 32
0110
0000
0010
0010
0100
0000
1000
0000
0001
0000
0100
0100
0010
0000
1000
0000
,  // measure 33
0001
0000
0000
0000
0010
0000
0000
0000
0100
0000
0000
0000
1000
0000
0000
0000
0000
0000
0001
0000
0000
0001
0000
0000
1000
0000
0000
0000
0000
0000
0010
0000
0000
0010
0000
0000
1000
0000
0000
0000
0000
0000
0100
0000
0000
0010
0000
0000
,  // measure 34
0001
0000
0100
0100
0010
1000
0001
0010
0001
0000
0010
0010
0100
0000
1000
0000
,  // measure 35
0001
0000
0100
0000
0010
0000
1000
0000
0000
1010
0000
0000
0010
0000
0100
0000
0010
0000
0100
0000
0000
0001
0000
0000
,  // measure 36
2000
0000
3200
0000
0301
0100
2000
0000
3020
0000
0032
0000
0023
0000
0230
0000
,  // measure 37
0302
0000
2003
0000
3001
1000
0200
0000
0320
0000
0032
0000
0203
0000
0320
0000
,  // measure 38
2030
0000
3002
0000
1003
0100
0002
0000
0203
0000
2300
0000
3020
0000
0032
0000
,  // measure 39
0203
0000
0300
0000
;

//---------------dance-double - ----------------
#NOTES:
     dance-double:
     :
     Challenge:
     9:
     0.520928,0.606896,0.122916,0.256074,0.604335,356.000000,344.000000,12.000000,25.000000,0.000000,0.000000,0.520928,0.606896,0.122916,0.256074,0.604335,356.000000,344.000000,12.000000,25.000000,0.000000,0.000000:
00000000
00000000
00000000
00000000
,
00000000
00000000
00000000
00000000
,
00000000
00000000
00000000
00000000
,
00000000
00000000
00000000
00000000
00000000
00000000
00000000
00000000
00000000
00000000
00100000
00000000
10000000
00000000
00010000
00100000
,
01000000
00000000
00000000
01000000
00000000
00000000
00010000
00000000
00001000
00000000
00000000
00000100
00000010
00000000
00001000
00000020
,
00000000
00000000
00000130
00000000
00000000
00000000
00000001
00000000
00000010
00000000
00001000
00000000
00000010
00000000
00000001
00000100
,
00000000
00000001
00000100
00000000
00001000
00000000
00010000
00100000
00000000
00100000
01000000
00000000
00010000
00000000
10000000
01000000
,
00000000
00000000
00010000
00000000
00000000
00000000
00001000
00000000
00000100
00000010
00000100
00000000
00000001
00000000
00001000
00000010
,
00000100
00000000
00000000
00000100
00000000
00000000
00001000
00000000
00010000
00000000
00000000
01000000
00100000
00000000
00010000
00200000
,
00000000
00000000
01300000
00000000
00000000
00000000
10000000
00000000
00100000
00000000
00010000
00000000
00100000
00000000
10000000
01000000
,
00000000
10000000
01000000
00000000
00010000
00000000
00001000
00000010
00000000
00000010
00000100
00000000
00001000
00000000
00000001
00000100
,
00000000
00000000
00000000
00001000
00000000
00000000
00010000
00000000
00000000
00100000
00000000
00000000
10000000
00000000
00000000
00010000
01000000
00010000
01000000
00000000
00000000
00100000
00000000
00000000
,
10000000
00000000
00000000
01000000
00010000
00000000
00001000
00000010
00000000
00000010
00000001
00000010
00000100
00000010
00001000
00000000
,
00010000
00000000
00000000
00010000
00100000
00000000
00010000
00001000
00000000
00001000
00000000
00001000
00010000
00100000
01000000
00100000
,
00010000
00000000
00000000
00010000
00001000
00000000
01000000
00100000
00000000
00100000
00000000
00100000
10000000
01000000
00010000
00000000
,
00001000
00000000
00000100
00000001
00001000
00000000
00000010
00000000
00000100
00001000
00010000
00000000
00001000
00000000
00000010
00000000
,
00000001
00000000
00000000
00000100
00001000
00000000
00010000
00100000
00000000
00100000
10000000
00100000
01000000
00100000
00010000
00000000
,
00001000
00000000
00000000
00001000
00000010
00000000
00001000
00010000
00000000
00010000
00000000
00010000
00001000
00000010
00000100
00000010
,
00001000
00000000
00000000
00001000
00010000
00000000
00000100
00000010
00000000
00000010
00000000
00000010
00000001
00000100
00001000
00000000
,
00010000
00000000
01000000
10000000
00010000
00000000
00100000
00000000
01000000
00010000
00001000
00000000
00000010
00000000
00000001
00000000
,
00001000
00000000
00000001
00000100
00010000
00000000
00100000
00000000
00010000
10000000
00010000
00001000
00000001
00000000
00000100
00001000
,
00010000
00000000
00100000
00000000
10000000
00000000
00000000
00010000
00000000
00010000
00000000
00100000
00010000
00000000
01000000
00000000
,
00010000
00000000
10000000
01000000
00001000
00000000
00000010
00000000
00001000
00000001
00001000
00010000
10000000
00000000
01000000
00010000
,
00001000
00000000
00000010
00000000
00000001
00000000
00000000
00001000
00000000
00001000
00000000
00000010
00001000
00000000
00000100
00000000
,
00001000
00000000
00000001
00000010
00010000
00000000
01000000
00000000
00010000
10000000
00010000
00001000
00000001
00000000
00000010
00001000
,
00010000
00000000
01000000
00000000
10000000
00000000
00000000
00010000
00000000
00010000
00000000
01000000
00010000
00000000
00100000
00000000
,
00010000
00000000
10000000
00100000
00001000
00000000
00000100
00000000
00001000
00000001
00001000
00010000
10000000
00000000
00100000
00010000
,
00002000
00000000
00000000
00000000
00003000
00000000
00000000
00000000
00100000
00010000
00000000
00001000
00000100
00000000
00000010
00000001
,
00000101
00000000
00000000
00000110
00000000
00000010
00001000
00010000
00100000
01000000
10000000
00000000
11000000
00000000
01010000
00000000
,
00011000
00000000
00001000
00010000
00100000
00000000
00100000
00010000
00001000
00000010
00001000
00010000
00100000
00000000
10000000
01000000
,
11000000
00000000
00000000
01100000
00000000
00100000
00010000
00001000
00000010
00000100
00000001
00000000
00000101
00000000
00001100
00000000
,
00011000
00000000
00010000
00001000
00000010
00000000
00000010
00001000
00010000
00100000
00010000
00001000
00000010
00000000
00000011
00000000
,
00001001
00000000
00000001
00000100
00010000
00000000
00000000
00000000
10000000
00000000
00100000
01000000
00100000
00000000
00000000
00000000
,
10000000
00000000
00000000
00000000
00100000
00000000
00000000
00000000
00010000
00000000
00000000
00000000
00001000
00000000
00000000
00000000
00000000
00000000
00000010
00000000
00000000
00001000
00000000
00000000
00010000
00000000
00000000
00000000
00000000
00000000
00100000
00000000
00000000
00010000
00000000
00000000
00001000
00000000
00000000
00000000
00000000
00000000
00100000
00000000
00000000
00000000
00000000
00000000
,
00010000
00000000
10000000
01000000
00001000
00000000
00000000
00000000
00000001
00000000
00000010
00000100
00000010
00000000
00000000
00000000
,
00000001
00000000
00000000
00000000
00000010
00000000
00000000
00000000
00001000
00000000
00000000
00000000
00010000
00000000
00000000
00000000
00000000
00000000
00100000
00000000
00000000
00100000
00000000
00000000
10000000
00000000
00000000
00000000
01000000
00000000
00000000
00000000
00010000
00000000
00000000
00000000
00001000
00000000
00000000
00000000
00000000
00000000
00000000
00000000
00000000
00000000
00000000
00000000
,
00000020
00000000
00000032
00000000
00000103
00001000
00020000
00000000
00032000
00000000
00003200
00000000
00020300
00000000
00032000
00000000
,
00203000
00000000
00320000
00000000
00031000
00010000
02000000
00000000
23000000
00000000
30200000
00000000
02300000
00000000
03020000
00000000
,
20030000
00000000
32000000
00000000
03010000
00001000
00000200
00000000
00020300
00000000
00032000
00000000
00003020
00000000
00000230
00000000
,
00000302
00000000
00000003
00000000
;
