#TITLE:Raison d'être~交差する宿命~;
#SUBTITLE:;
#ARTIST:Zektbach;
#TITLETRANSLIT:Raison d'etre ~Crossover of Fate~.;
#SUBTITLETRANSLIT:;
#ARTISTTRANSLIT:;
#GENRE:;
#CREDIT:;
#BANNER:Raison d'etre ~Kousa suru shukumei~.png;
#BACKGROUND:Raison d'etre ~Kousa suru shukumei~-bg.png;
#LYRICSPATH:;
#CDTITLE:;
#MUSIC:Raison d'etre ~Kousa suru shukumei~.ogg;
#OFFSET:-0.940000;
#SAMPLESTART:100.460007;
#SAMPLELENGTH:14.980000;
#SELECTABLE:YES;
#BPMS:0.000000=77.500000
,24.000000=155.000000
,40.000000=77.500000
,48.000000=87.500000
,52.000000=175.000000
,84.000000=87.500000
,100.000000=175.000000
,132.000000=87.500000
,148.000000=175.000000
,180.000000=87.499001
,196.000000=175.000000
,228.000000=87.499001
,230.000000=175.000000
,262.000000=87.499001
;
#STOPS:
;
#BGCHANGES:-0.500=Raison d'etre ~Kousa suru shukumei~.avi=1.000=1=0=0=StretchNoLoop==CrossFade==,
99999=-nosongbg-=1.000=0=0=0 // don't automatically add -songbackground-
;
#KEYSOUNDS:;
#ATTACKS:;

//---------------dance-single - ----------------
#NOTES:
     dance-single:
     :
     Hard:
     8:
     0.534209,0.794301,0.091954,0.122605,0.379310,488.000000,476.000000,12.000000,16.000000,0.000000,0.000000,0.534209,0.794301,0.091954,0.122605,0.379310,488.000000,476.000000,12.000000,16.000000,0.000000,0.000000:
0000
0000
0000
0000
,
0000
0000
0000
0000
,
2000
0000
3200
0000
,
0320
0000
0032
0000
,
1003
0001
1000
0001
1000
0001
0000
0000
0001
1000
0001
1000
0001
1000
0001
0100
,
0010
1000
0001
0100
0010
1000
0000
0100
0010
0001
1000
0100
0010
0001
1000
0100
,
0010
0000
0000
0010
0001
0000
0000
0001
0100
0000
0000
0100
0010
0000
0000
0010
,
1000
0000
0000
1000
0100
0000
0000
0100
0010
0000
0000
0010
0001
0000
0000
0001
,
1000
0000
0000
1000
0100
0000
0000
0100
0010
0000
0000
0010
0001
0000
0000
0001
,
1000
0000
0000
1000
0100
0000
0000
0100
0010
0000
0000
0010
0001
0000
0000
0001
,
1000
0010
0100
0010
1000
0010
0000
0100
0001
0100
0010
0100
0001
0100
0010
0100
,
0001
0010
0100
1000
0010
1000
0000
1000
0100
0010
0001
0100
0001
0010
0100
1000
,
0100
0010
0100
0000
0000
0000
0100
1000
0001
1000
0100
0000
0000
1000
0100
0010
,
0001
0000
0100
0000
0010
1000
0010
0100
,
0010
0000
0100
0000
0001
0010
0100
1000
,
0010
0010
0010
0000
1000
0100
0010
0001
,
0100
0000
0010
0000
1000
0010
0100
0001
,
0010
0000
0100
0000
1000
0010
1000
0100
,
0010
0000
0001
0000
0100
0001
0010
0100
,
1000
1000
1000
0000
0010
0100
0010
1000
,
0100
0000
0010
0000
0001
0100
0010
1000
,
0100
0000
0000
0000
0000
0000
0000
0000
0010
0000
0000
0000
0000
0000
0001
0010
0001
0000
0000
0000
0002
0000
0000
0000
0000
0000
0000
0000
0103
0000
0000
0000
,
0200
0000
0000
0000
0000
0000
0000
0000
0000
0000
0000
0000
0300
0000
0010
0100
0010
0000
0000
0000
0020
0000
0000
0000
0000
0000
0000
0000
1030
0000
0000
0000
,
2000
0000
0000
0000
0000
0000
0000
0000
0000
0000
0000
0000
3000
0000
0100
1000
0100
0000
0000
0000
0200
0000
0000
0000
0000
0000
0000
0000
0000
0000
0000
0000
,
0320
0000
0000
0000
0000
0000
0000
0000
0000
0000
0000
0000
0030
0000
0001
0010
0001
0000
0000
0000
0002
0000
0000
0000
0000
0000
0000
0000
0003
0000
0000
0000
,
0100
0010
1000
0100
0001
0100
1000
0000
,
0010
0100
0001
0010
1000
0010
0001
0000
,
1000
0000
0100
0000
0010
0000
0010
0000
0001
0000
0100
0000
,
0010
1000
0100
1000
0010
0000
0100
0000
,
0001
0000
0000
0000
0010
0000
0000
0010
0100
0000
0010
0000
0001
0000
0100
0000
,
0010
0000
0000
0000
1000
0000
0000
1000
0100
0000
0010
0000
0001
0000
0100
0000
,
0001
0000
0000
0000
0010
0000
0000
0100
1000
0000
0010
0000
0100
0000
0001
0000
,
0010
0100
0010
0001
0010
0100
1000
0010
,
0020
0000
0000
0000
0030
0000
1000
0100
0010
0001
0100
0000
0001
0000
0000
0000
,
0020
0000
0000
0000
0030
0000
0001
0100
0010
0000
1000
0000
0100
0000
0100
0000
,
0010
0000
0000
0001
0100
0020
0000
0000
,
1000
0000
0000
0000
0030
1100
1000
0010
,
0100
0001
0100
0000
0000
0010
0000
1000
,
0100
0010
0001
0010
0100
0010
0001
0010
,
0100
1000
0010
0000
0000
0100
0000
0001
,
0010
0100
1000
0100
0001
0100
1000
0100
,
0001
0100
1000
0000
0000
0010
0000
0010
,
1000
0100
1000
0010
1000
0100
1000
0010
,
0100
0001
0100
0000
0000
0001
0000
0010
,
0100
1000
0010
0100
0001
0010
0100
1000
,
1001
1000
0001
0001
0100
0100
0010
0010
,
1000
1000
0100
0100
0010
0010
0001
0001
,
0101
0001
0100
0010
1100
1000
0010
0100
,
0001
0000
0001
0000
0001
0000
0000
0000
1000
0000
1000
0000
1000
0000
0000
0000
0100
0000
0010
0000
0100
0010
0100
0010
0100
0010
0100
0010
0100
0010
0100
0010
,
0100
0000
1000
0010
0100
0001
0010
0000
,
0100
0000
1000
0010
0100
0001
0010
0001
,
0100
0000
0010
1000
0100
0000
0010
0000
,
0001
0100
0010
1000
0200
0000
0000
0000
,
0310
0000
0001
0100
1000
0100
0001
0000
,
0010
0000
0001
0100
0010
0100
0001
0100
,
0110
1001
0110
1001
,
1100
1100
0101
0101
,
0001
0000
0100
0000
0010
0000
1000
0000
0100
0000
1000
0100
0000
0000
0010
0000
,
0001
0000
0010
0001
0000
0000
0100
0000
0010
0000
0100
0010
0000
0000
0100
0000
,
0010
0000
1000
0010
0000
0000
1000
0000
0100
0000
0010
0100
0000
0000
0010
0000
,
0001
0000
0010
0001
0000
0000
0010
0000
0001
0000
0100
0001
0000
0000
0100
0000
,
0010
0000
0100
0010
0000
0000
0100
0000
0010
0000
1000
0010
0000
0000
0100
0000
,
0001
0000
0010
0100
0000
0000
0010
0000
0001
0000
0100
0010
0000
0000
0100
0000
,
0010
0000
1000
0100
0000
0000
0010
0000
0001
0000
0100
0010
0100
0000
0001
0000
,
0010
0000
0100
0010
0100
0000
1000
0000
0010
0000
1000
0010
1000
0000
0100
0000
,
0010
0001
0010
0000
0001
0010
0001
0000
0200
0000
1000
0000
0000
0000
1000
0000
,
0000
0010
0000
0010
0000
0001
0000
0301
;

//---------------dance-single - ----------------
#NOTES:
     dance-single:
     :
     Medium:
     6:
     0.361248,0.589320,0.153257,0.137931,0.084291,330.000000,310.000000,20.000000,18.000000,0.000000,0.000000,0.361248,0.589320,0.153257,0.137931,0.084291,330.000000,310.000000,20.000000,18.000000,0.000000,0.000000:
0000
0000
0000
0000
,
0000
0000
0000
0000
,
2000
0000
3200
0000
,
0320
0000
0032
0000
,
1003
0000
0001
1000
0001
1000
0000
0000
0001
0000
1000
0001
1000
0001
1000
0000
,
0100
0000
0100
0010
0100
0010
0000
0000
0100
0000
0010
0100
0010
0100
0010
0000
,
0002
0100
1000
0010
,
2003
0100
0001
0010
,
3002
0100
0010
1000
,
2003
0010
0100
3001
,
1001
0000
0000
0000
1000
0001
0000
0000
1001
0000
0000
0000
0001
1000
0001
1000
,
0100
0000
0000
0000
0100
0010
0000
0000
0010
0000
0000
0000
0001
0100
0001
0100
,
0010
0010
0000
1000
1000
1000
0000
0100
,
0100
0000
0000
0010
0000
0000
0100
0000
1000
0000
0010
0000
,
0200
0000
0010
0000
0000
0301
0000
0000
,
0001
0010
0100
0000
1000
0000
0100
0000
,
0010
0100
1000
0100
,
0010
0000
0000
0010
0000
0000
0001
0000
0100
0000
0010
0000
,
2000
0000
0100
0000
0000
3010
0000
0000
,
0010
1000
0100
0000
0010
0000
0001
0000
,
0100
0000
0001
0000
0010
0000
0100
1000
,
0010
0000
0010
0000
0100
0000
0000
0100
,
0100
0000
0200
0000
0000
0000
0000
0301
,
2000
0000
3200
0010
,
0320
0000
0000
0001
0001
0000
0000
0030
,
0100
0000
1000
0000
0010
0100
0010
0000
,
0100
0000
0001
0000
0010
0100
0010
0000
,
0001
0000
0100
0000
0010
0000
1000
0000
0100
0000
0010
0000
,
0001
0000
0100
0000
0001
0100
0001
0000
,
1000
0000
0010
0000
1000
0010
1000
0000
,
0100
0000
1000
0000
0100
1000
0100
0000
,
0010
0000
0001
0000
0010
0001
0010
0000
,
0001
0000
0100
0000
0010
0100
0010
0000
,
0110
0000
0000
0000
0000
1000
0000
0000
,
0100
0000
0000
0000
0000
0010
0010
0010
,
0001
0000
0000
0000
0000
0101
0000
0000
,
1100
0000
0000
0000
0000
1010
0000
0000
,
0011
0000
0001
0100
0000
0010
0000
1000
,
0000
1100
0000
0001
0000
0101
0000
0001
,
0100
0010
0100
0000
0000
0001
0000
0011
,
0000
0100
0000
1100
0000
1000
0000
0010
,
0100
0000
0100
0000
0000
0001
0000
0101
,
0000
1000
0000
1100
0000
0001
0000
0010
,
0100
1000
0000
0010
0000
1010
0000
0001
,
0000
0011
0000
1000
0000
0001
1000
0100
,
0020
0001
0000
0001
0000
0100
0000
0100
,
0000
1000
0000
1000
0000
0100
0000
0130
,
0001
0010
0100
0000
1000
0010
0100
0000
,
0001
0001
1000
1000
0100
0100
0010
0010
,
0001
0001
0100
0100
,
0010
0010
0110
0110
,
0010
0010
1000
1000
,
0100
0100
0110
0110
,
0001
0000
0001
0100
0001
0000
0001
0000
,
1000
0000
1000
0100
1000
0000
1000
0001
,
1000
0000
1000
0010
1000
0000
1000
0001
,
1000
0000
1000
0100
1000
0000
1000
0000
,
0200
0000
0000
0000
0310
0001
0010
0000
,
0001
0010
0001
0000
1000
0010
1000
0000
,
0010
1000
0010
0000
0100
0010
0100
0000
,
0010
0100
0010
0000
0100
0001
0100
0000
,
0100
1000
0100
0000
0100
0010
1000
0000
,
0100
0010
0001
0000
0010
0100
1000
0000
,
0010
0100
0001
0000
1000
0001
1000
0000
,
0001
1000
0001
0000
1000
0001
1000
0000
,
0001
1000
0001
0000
2002
0000
0000
0000
,
0000
0000
0000
0000
0000
0000
0000
3003
;

//---------------dance-single - ----------------
#NOTES:
     dance-single:
     :
     Easy:
     4:
     0.226601,0.307471,0.084291,0.084291,0.000000,207.000000,196.000000,11.000000,11.000000,0.000000,0.000000,0.226601,0.307471,0.084291,0.084291,0.000000,207.000000,196.000000,11.000000,11.000000,0.000000,0.000000:
0000
0000
0000
0000
,
0000
0000
0000
0000
,
2000
0000
3200
0000
,
0320
0000
0032
0000
,
1003
0000
0001
0000
,
1001
0000
1000
0000
,
0200
0000
0000
0000
,
2300
0000
0000
0000
,
3020
0000
0000
0000
,
0230
0000
0000
0000
,
0310
0000
0100
0000
,
0101
0000
1000
0000
,
1100
0000
1000
0000
,
0001
0001
0000
1000
,
1000
1000
0000
0100
,
0100
0100
0000
0010
,
0010
0010
0000
0001
,
0100
0001
0000
0010
,
0100
0010
0000
0100
,
1000
0100
0000
0010
,
0100
0010
0000
0001
,
0001
0000
0100
0000
0010
0000
0000
1000
,
1000
0000
0000
0000
0100
0100
0000
0010
,
0010
0000
0001
0100
,
0010
0000
0000
0000
1000
1000
0000
0000
,
1000
0100
1000
0000
,
0001
0100
0001
0000
,
1000
0010
1000
0010
,
0100
0100
0000
0000
,
0001
0001
0000
0010
,
0100
0100
0000
1000
,
0010
0010
0000
0100
,
0001
0001
0000
0010
,
0100
0000
0000
0000
0000
1000
0000
0000
,
0010
0000
0000
0000
0000
0100
0000
0000
,
0001
0000
0000
0000
0000
0010
0000
0000
,
0100
0000
0000
0000
0000
1000
0000
0000
,
0010
0000
0010
0000
0000
0100
0000
0100
,
0000
0010
0000
0010
0000
0010
0000
0000
,
1000
0000
1000
0000
0000
0001
0000
0001
,
0000
1000
0000
1000
0000
1000
0000
0000
,
0100
0000
0100
0000
0000
0010
0000
0010
,
0000
0001
0000
0001
0000
0001
0000
0000
,
0100
0000
0100
0000
0000
0010
0000
0010
,
0000
1000
0000
1000
0000
1000
0000
0000
,
1000
1000
0000
0010
0000
0100
0000
0001
,
0000
1000
0000
0010
0000
0100
0000
0001
,
0000
0010
0000
0100
0000
1000
0000
0001
,
0000
0010
0000
0100
0000
1000
0000
0001
,
1000
0000
0100
0010
,
0001
0010
0001
0100
,
0001
0000
0001
1000
,
0100
0100
1000
0000
,
1000
1000
0001
0001
,
0100
0100
0001
0001
,
1000
1000
0100
0100
,
0010
0010
0100
0100
,
2000
0000
3001
0100
,
0010
1000
1100
1000
,
0001
0100
0110
0100
,
0001
0010
0011
0010
,
0001
1000
1100
1000
,
0010
0100
0101
0001
,
0010
0100
1100
1000
,
0010
1000
1001
0100
,
0010
1000
2002
0000
,
0000
0000
0000
0000
0000
0000
0000
3003
;

//---------------dance-single - ----------------
#NOTES:
     dance-single:
     :
     Beginner:
     1:
     0.095238,0.150575,0.015326,0.000000,0.000000,87.000000,85.000000,2.000000,0.000000,0.000000,0.000000,0.095238,0.150575,0.015326,0.000000,0.000000,87.000000,85.000000,2.000000,0.000000,0.000000,0.000000:
0000
0000
0000
0000
,
0000
0000
0000
0000
,
1000
0000
1000
0000
,
0001
0000
0001
0000
,
1000
0000
1000
0000
,
0001
0000
0001
0000
,
0100
0000
0000
0000
,
0010
0000
0000
0000
,
1000
0000
0000
0000
,
0001
0000
0000
0000
,
1001
0000
1000
0000
,
0001
0000
0001
0000
,
0100
0000
0000
0000
,
0010
0000
0000
0000
,
1000
0000
0000
0000
,
0001
0000
0000
0000
,
0001
0000
0000
0000
,
1000
0000
0000
0000
,
0010
0000
0000
0000
,
0100
0000
0000
0000
,
0100
0000
0000
0000
,
0001
0000
0001
0000
,
1000
0000
1000
0000
,
0100
0000
0100
0000
,
0010
0000
0010
0000
,
0010
0000
0000
0000
,
0001
0000
0000
0000
,
0100
0000
0100
0000
,
0100
0000
0000
0000
,
0010
0000
0000
0000
,
0010
0000
0000
0000
,
1000
0000
0000
0000
,
1000
0000
0000
0000
,
0001
0000
0000
0000
,
0001
0000
0000
0000
,
1000
0000
0000
0000
,
1000
0000
0000
0000
,
0010
0010
0000
0000
,
0000
0000
0000
0000
,
0100
0100
0000
0000
,
0000
0000
0000
0000
,
0001
0001
0000
0000
,
0000
0000
0000
0000
,
1000
1000
0000
0000
,
0000
0000
0000
0000
,
1001
0000
0000
0000
,
0000
0000
0000
0000
,
1000
0000
0010
0000
,
0100
0000
0001
0000
,
0001
0000
0001
0000
,
0001
0000
0001
0000
,
1000
0000
1000
0000
,
1000
0000
1000
0000
,
0010
0000
0010
0000
,
0010
0000
0010
0000
,
0100
0000
0100
0000
,
0100
0000
0100
0000
,
0100
0000
0001
0000
,
0000
0000
0010
0000
,
0000
0000
0100
0000
,
0000
0000
1000
0000
,
0000
0000
0010
0000
,
0000
0000
0100
0000
,
0000
0000
0001
0000
,
0000
0000
0010
0000
,
0000
0000
0100
0000
;

//---------------dance-double - ----------------
#NOTES:
     dance-double:
     :
     Hard:
     9:
     0.533114,0.794301,0.168582,0.122605,0.321839,487.000000,465.000000,22.000000,16.000000,0.000000,0.000000,0.533114,0.794301,0.168582,0.122605,0.321839,487.000000,465.000000,22.000000,16.000000,0.000000,0.000000:
// measure 0
00000000
00000000
00000000
00000000
,  // measure 1
00000000
00000000
00000000
00000000
,  // measure 2
20000000
00000000
32000000
00000000
,  // measure 3
03020000
00000000
00032000
00000000
,  // measure 4
00013000
00001000
00010000
00001000
00010000
00001000
00000000
00000000
00001000
00010000
00001000
00010000
00001000
00010000
00001000
00010000
,  // measure 5
00001000
00000100
00001000
00010000
00001000
00000100
00000000
00001000
00010000
01000000
00010000
00001000
00010000
01000000
00010000
00001000
,  // measure 6
00010000
00000000
00000000
00010000
00001000
00000000
00000000
00001000
00000100
00000000
00000000
00000100
00000001
00000000
00000000
00000001
,  // measure 7
00000010
00000000
00000000
00000010
00001000
00000000
00000000
00001000
00010000
00000000
00000000
00010000
00100000
00000000
00000000
00100000
,  // measure 8
10000000
00000000
00000000
10000000
01000000
00000000
00000000
01000000
00010000
00000000
00000000
00010000
00001000
00000000
00000000
00001000
,  // measure 9
00000100
00000000
00000000
00000100
00001000
00000000
00000000
00001000
00010000
00000000
00000000
00010000
00100000
00000000
00000000
00100000
,  // measure 10
00010000
00000100
00001000
00000100
00010000
00000100
00000000
00000100
00010000
00001000
00100000
00001000
00010000
00001000
00100000
00001000
,  // measure 11
00010000
00000010
00010000
00001000
00010000
00000010
00000000
00000010
00010000
00001000
00100000
00001000
00010000
00001000
00100000
00001000
,  // measure 12
00010000
00000100
00001000
00000000
00000000
00001000
00000010
00000100
00000001
00000000
00000010
00000000
00000000
00000100
00010000
00001000
,  // measure 13
00100000
00000000
00010000
00000000
01000000
00100000
10000000
01000000
,  // measure 14
00010000
00000000
00001000
00000000
00000100
00000001
00000010
00000100
,  // measure 15
00001000
00001000
00001000
00000000
00000100
00000010
00000001
00000100
,  // measure 16
00001000
00000000
00010000
00000000
00001000
00100000
00010000
01000000
,  // measure 17
00100000
00000000
10000000
00000000
01000000
00100000
00010000
00100000
,  // measure 18
01000000
00000000
10000000
00000000
00100000
01000000
00010000
00100000
,  // measure 19
00001000
00001000
00001000
00000000
00010000
00000100
00001000
00000010
,  // measure 20
00000100
00000000
00000001
00000000
00000010
00001000
00010000
00001000
,  // measure 21
00020000
00000000
00000000
00000000
00000000
00000000
00000000
00000000
00000000
00000000
00000000
00000000
00000000
00000000
00031000
00010000
00001000
00000000
00000000
00000000
00002000
00000000
00000000
00000000
00000000
00000000
00000000
00000000
00003000
00000000
00000000
00000000
,  // measure 22
00000200
00000000
00000000
00000000
00000000
00000000
00000000
00000000
00000000
00000000
00000000
00000000
00000000
00000300
00000010
00000100
00000010
00000000
00000000
00000000
00000020
00000000
00000000
00000000
00000000
00000000
00000000
00000000
00000000
00000000
00000000
00000000
,  // measure 23
00002030
00000000
00000000
00000000
00000000
00000000
00000000
00000000
00000000
00000000
00000000
00000000
00000000
00000000
00003100
00001000
00000100
00000000
00000000
00000000
00000200
00000000
00000000
00000000
00000000
00000000
00000000
00000000
00000000
00000000
00000000
00000000
,  // measure 24
00020300
00000000
00000000
00000000
00000000
00000000
00000000
00000000
00000000
00000000
00000000
00000000
00000000
00000000
00031000
00010000
00001000
00000000
00000000
00000000
00002000
00000000
00000000
00000000
00000000
00000000
00000000
00000000
00000000
00000000
00000000
00000000
,  // measure 25
00013000
00000100
00001000
00000010
00000100
00000001
00000010
00000000
,  // measure 26
00000010
00000001
00000100
00000010
00001000
00000100
00010000
00000000
,  // measure 27
00001000
00000000
00010000
00000000
01000000
00000000
10000000
00000000
00100000
00000000
01000000
00000000
,  // measure 28
00001000
00000000
00000000
00000000
00001000
00000000
00000000
00010000
00001000
00000000
00010000
00000000
00000100
00000000
00001000
00000000
,  // measure 29
00000010
00000000
00000000
00000000
00000010
00000000
00000000
00000100
00000010
00000000
00001000
00000000
00000100
00000000
00000001
00000000
,  // measure 30
00000100
00000000
00000000
00000000
00000100
00000000
00000000
00001000
00000100
00000000
00010000
00000000
00001000
00000000
00100000
00000000
,  // measure 31
00010000
00000000
00000000
00000000
00010000
00000000
00000000
01000000
00010000
00000000
00100000
00000000
01000000
00000000
10000000
00000000
,  // measure 32
00100000
00000000
00000000
00000000
00100000
00000000
00000000
10000000
00100000
00000000
01000000
00000000
00010000
00000000
00100000
00000000
,  // measure 33
00001000
00000000
00000000
00000000
00000000
00000000
00001000
00000100
00000001
00000100
00001000
00000000
00001000
00000000
00000000
00000000
,  // measure 34
00010000
00000000
00000000
00000000
00000000
00000000
01000000
10000000
00100000
00000000
01000000
00000000
01000000
00000000
00010000
00000000
,  // measure 35
00001000
00000000
00000000
00000100
00001000
00001100
00000000
00000000
,  // measure 36
00021000
00031000
00000000
00000000
00000000
00110000
00000000
00000000
,  // measure 37
10010000
10000000
01000000
00000000
00000000
00110000
00000000
00100000
,  // measure 38
00001000
00000100
00001000
00100000
00001000
00000100
00001000
00100000
,  // measure 39
00001000
00010000
00001000
00000100
00000001
00000100
00001000
00000100
,  // measure 40
00000001
00000100
00001000
00000100
00000001
00000010
00000001
00000100
,  // measure 41
00001000
00000000
00010000
00000000
00000000
00100000
00000000
10000000
,  // measure 42
01000000
00010000
01000000
10000000
01000000
00010000
01000000
10000000
,  // measure 43
00100000
10000000
01000000
00000000
00000000
00100000
00001000
00010000
,  // measure 44
00001000
00100000
00001000
00010000
00001000
00100000
00001000
00010000
,  // measure 45
00011000
00010000
00000100
00000100
00000010
00000010
00000001
00000001
,  // measure 46
00000100
00000100
00001000
00001000
01000000
01000000
10000000
10000000
,  // measure 47
01000000
00010000
00001000
00000000
00010000
00001000
00000010
00000000
,  // measure 48
00000010
00000000
00001000
00000000
00000100
00000000
00000000
00000000
00000100
00000000
00010000
00000000
00001000
00000000
00000000
00000000
00010000
00000000
00001000
00000000
00010000
00001000
00010000
00001000
00010000
00001000
00010000
00001000
00010000
00001000
00010000
00001000
,  // measure 49
00010000
00011000
00001000
00011000
,  // measure 50
00010000
00000100
00001000
00000010
00000100
00000100
00000100
00000100
,  // measure 51
00000100
00000101
00001000
00001100
,  // measure 52
00000100
00010000
00001000
00100000
00010000
00010000
00010000
00000000
,  // measure 53
01010000
00000000
01000000
00100000
10100000
00000000
10000000
01000000
,  // measure 54
11000000
00000000
10000000
00100000
01000000
00010000
00100000
00001000
,  // measure 55
00011000
00011000
00001100
00001100
,  // measure 56
00011000
00011000
00110000
00110000
,  // measure 57
00022000
00000000
00000000
00033000
00010000
01000000
10000000
01000000
,  // measure 58
00010000
01000000
10000000
01000000
00010000
00001000
00010000
01000000
,  // measure 59
00010000
00001000
00010000
01000000
00010000
00001000
00000100
00001000
,  // measure 60
00010000
00001000
00000100
00001000
00010000
00001000
00000100
00000001
,  // measure 61
00000100
00001000
00000100
00000001
00000100
00001000
00010000
00001000
,  // measure 62
00000100
00001000
00010000
00001000
00000010
00000001
00000010
00001000
,  // measure 63
00000010
00000001
00000010
00001000
00010000
00100000
00010000
00001000
,  // measure 64
00010000
00100000
00010000
00001000
00010000
00100000
10000000
00100000
,  // measure 65
00010000
00100000
10000000
01000000
00200000
00010000
00000000
00010000
,  // measure 66
00000000
00001000
00000000
00001000
00000000
00010000
00000000
00310000
;

//---------------dance-double - ----------------
#NOTES:
     dance-double:
     :
     Medium:
     6:
     0.405036,0.563697,0.306513,0.122605,0.076628,370.000000,330.000000,40.000000,16.000000,0.000000,0.000000,0.405036,0.563697,0.306513,0.122605,0.076628,370.000000,330.000000,40.000000,16.000000,0.000000,0.000000:
00000000
00000000
00000000
00000000
,
00000000
00000000
00000000
00000000
,
20000000
00000000
32000000
00000000
,
03020000
00000000
00032000
00000000
,
00013000
00000000
00001000
00000000
00010000
00001000
00000000
00000000
00001000
00000000
00010000
00000000
00001000
00010000
00001000
00010000
,
00001000
00000000
00010000
00000000
00001000
00010000
00000000
00000000
00010000
00000000
00000100
00000000
00001000
00000010
00001000
00000010
,
00000100
00000001
00000010
00001000
,
00010000
01000000
10000000
00100000
,
00010000
00001000
00000100
00000001
,
00000010
00001000
00010000
00001000
,
00011000
00000000
00001000
00000000
00010000
00001000
00000000
00000000
00001000
00000000
00010000
00000000
00001000
00010000
00001000
00010000
,
00001000
00000000
00010000
00000000
00001000
00010000
00000000
00000000
00010000
00000000
00001000
00000000
00010000
00001000
00010000
00001000
,
00010000
01000000
00000000
01000000
00010000
00001000
00000000
00000100
,
00001000
00000000
00000000
00010000
00000000
00000000
00100000
00000000
00010000
00000000
00001000
00000000
,
00000100
00001000
00010000
00001000
,
00100000
00010000
01000000
00000000
00100000
00000000
10000000
01000000
,
00100000
00000000
00001000
00000000
00010000
00000000
00000100
00001000
,
00000010
00000000
00000000
00000100
00000000
00000000
00000001
00000000
00000010
00000000
00001000
00000000
,
00010000
01000000
10000000
00100000
,
01000000
00010000
01000000
00000000
00100000
00000000
10000000
01000000
,
00100000
00000000
00001000
00000000
00010000
00000000
00000100
00001000
,
00000200
00000000
00000320
00000000
00000031
00000002
00000000
00000100
,
00000203
00000000
00000000
00000000
00001300
00002000
00000000
00010000
,
00023000
00000000
00000000
00000000
01030000
02000000
00000000
00000000
,
23000000
00000000
00000000
30000000
00100000
00200000
00000000
00300000
,
00010000
00000000
00001000
00000000
00010000
00000000
00000100
00001000
,
00000100
00000010
00000001
00000100
,
00000010
00000000
00001000
00000000
00000100
00000000
00010000
00000000
00001000
00000000
00100000
00000000
,
00010000
00000000
01000000
00000000
00100000
00000000
10000000
01000000
,
00100000
00000000
00001000
00000000
00010000
00000000
00000100
00001000
,
00000010
00000000
00000100
00000000
00000001
00000000
00000010
00000100
,
00001000
00000000
00000100
00000000
00010000
00000000
00100000
10000000
,
01000000
00000000
00100000
00000000
00001000
00000000
00010000
00001000
,
00011000
00000000
00000000
00000000
00000000
00001100
00000000
00000000
,
00001001
00000000
00000000
00000000
00000000
00011000
00000000
00000000
,
10010000
00000000
00000000
00000000
00000000
00011000
00000000
00000000
,
00001001
00000000
00000000
00000000
00000000
00011000
00000000
00000000
,
00011000
00000000
00011000
00000000
00000000
00010000
00000000
00110000
,
00000000
00110000
00000000
10100000
00000000
10100000
00000000
10000000
,
00010000
00000000
01010000
00000000
00000000
01010000
00000000
01010000
,
00000000
00001100
00000000
00001100
00000000
00001001
00000000
00000001
,
00001000
00000000
00001100
00000000
00000000
00001000
00000000
00001010
,
00000000
00001010
00000000
00011000
00000000
00011000
00000000
00101000
,
00000000
00100000
00001000
00010000
00000000
00011000
00000000
00001100
,
00000000
00011000
00000000
00110000
00000000
00011000
00000000
00010000
,
00002000
00010000
00000000
00100000
00000000
01000000
00000000
00100000
,
00000000
00000100
00000000
00000001
00000000
00000100
00000000
00013000
,
00001000
00100000
00010000
00000000
00010000
10000000
00100000
00000000
,
01000000
00010000
00100000
00000000
00100000
00001000
00010000
00010000
,
00000100
00001000
00000100
00000000
00000100
00000010
00000100
00000000
,
00000010
00000000
00000001
00000000
00000100
00000100
00000100
00000000
,
00000010
00000000
00000010
00001000
00000100
00000000
00000100
00010000
,
00001000
00001000
00010000
00010000
,
01000000
00000000
01000000
10000000
00100000
00000000
00100000
01000000
,
00010000
00000000
00010000
00100000
00001000
00000000
00010000
00000000
,
00001100
00001100
00000101
00000101
,
00001100
00001100
00011000
00011000
,
00020000
00000000
00000000
00000000
00031000
00010000
00001000
00010000
,
00001000
00010000
00001000
00010000
00001000
00000100
00001000
00000100
,
00001000
00000100
00001000
00000100
00000001
00000100
00000001
00000100
,
00000001
00000100
00000001
00000100
00000001
00000010
00000001
00000010
,
00000001
00000010
00000001
00000010
00001000
00000010
00001000
00000010
,
00001000
00000010
00001000
00000010
00001000
00010000
00001000
00010000
,
00001000
00010000
00001000
00010000
00001000
00010000
00100000
00010000
,
00100000
00010000
00100000
00010000
00100000
10000000
00100000
10000000
,
00100000
10000000
01000000
00100000
00020000
00000000
00000000
00000000
,
00000000
00000000
00000000
00000000
00000000
00000000
00000000
00030000
;

//---------------dance-double - ----------------
#NOTES:
     dance-double:
     :
     Easy:
     4:
     0.232074,0.333094,0.061303,0.107280,0.000000,212.000000,204.000000,8.000000,14.000000,0.000000,0.000000,0.232074,0.333094,0.061303,0.107280,0.000000,212.000000,204.000000,8.000000,14.000000,0.000000,0.000000:
00000000
00000000
00000000
00000000
,
00000000
00000000
00000000
00000000
,
20000000
00000000
32000000
00000000
,
03020000
00000000
00000000
00000000
00032000
00000000
00000000
00003000
,
00010000
00000000
00001000
00000000
,
00011000
00000000
00001000
00000000
,
00010000
00001000
00010000
00001000
,
00010000
00000100
00010000
00000100
,
00010000
00000010
00010000
00000010
,
00010000
00000100
00010000
00000100
,
00010000
00000000
00001000
00000000
,
00011000
00000000
00001000
00000000
,
00010000
00000000
00001000
00000000
,
00010000
00010000
00000000
00000100
,
00001000
00010000
00000000
00100000
,
10000000
01000000
00000000
00010000
,
00001000
00000100
00000000
00000100
,
00001000
00010000
00000000
00010000
,
00001000
00000010
00000000
00000010
,
00001000
00010000
00000000
00100000
,
00010000
00001000
00000000
00001000
,
00020000
00000000
00032000
00000000
,
00203000
00000000
00320000
00000000
,
02030000
00000000
03200000
00000000
,
20300000
00000000
32000000
00000000
,
03100000
00100000
00001000
00010000
,
00000100
00000100
00001000
00000010
,
00000100
00000001
00000010
00001000
,
00010000
00010000
00001000
00100000
,
00010000
00010000
01000000
00100000
,
10000000
10000000
01000000
00100000
,
00001000
00001000
00010000
00000100
,
00001000
00001000
00000010
00000100
,
00000100
00000000
00000000
00000000
00000000
00000001
00000000
00000000
,
00000010
00000000
00000000
00000000
00000000
00001000
00000000
00000000
,
00010000
00000000
00000000
00000000
00000000
00100000
00000000
00000000
,
10000000
00000000
00000000
00000000
00000000
01000000
00000000
00000000
,
00100000
00000000
00100000
00000000
00000000
00001000
00000000
00001000
,
00000000
00000100
00000000
00000100
00000000
00001000
00000000
00001000
,
00000000
00010000
00001000
00000000
00000000
00001000
00000000
00001000
,
00000000
00010000
00000000
00010000
00000000
01000000
00000000
00000000
,
01000000
00000000
01000000
00000000
00000000
10000000
00000000
10000000
,
00000000
00100000
00000000
00100000
00000000
01000000
00000000
01000000
,
00000000
00010000
00100000
00000000
00000000
00001000
00000000
00010000
,
00000000
00001000
00000000
00010000
00000000
00001000
00000000
00010000
,
00000000
00000100
00000000
00000010
00000000
00000001
00000000
00000100
,
00000000
00001000
00000000
00010000
00000000
01000000
00000000
10000000
,
10100000
00000000
00110000
00000000
,
00001010
00001001
00000011
00001001
,
00000001
00000000
00001000
00000000
,
00010000
00000000
10000000
00000000
,
00010000
00000000
00001000
00000000
,
00000001
00000001
00000001
00000000
,
00000100
00000100
00000100
00000000
,
00001000
00001000
00001000
00000000
,
00010000
00010000
00010000
00100000
,
01000000
01000000
01000000
00001000
,
00020000
00000000
00031000
00000010
,
00000001
00000100
00001000
00000100
,
00000001
00000010
00001000
00010000
,
01000000
10000000
00100000
10000000
,
01000000
00010000
00001000
00000010
,
00000001
00000100
00001000
00010000
,
00100000
10000000
01000000
00010000
,
01000000
10000000
00100000
00010000
,
00001000
00000100
00002000
00000000
,
00000000
00000000
00000000
00000000
00000000
00000000
00000000
00003000
;

//---------------dance-single - ----------------
#NOTES:
     dance-single:
     :
     Challenge:
     10:
     0.812261,1.340230,0.260536,0.390805,1.034483,742.000000,708.000000,34.000000,51.000000,0.000000,0.000000,0.812261,1.340230,0.260536,0.390805,1.034483,742.000000,708.000000,34.000000,51.000000,0.000000,0.000000:
0000
0000
0000
0000
,
0000
0000
0000
0000
,
2001
0000
0000
3001
0100
0010
0100
0010
1000
0000
1000
0000
0000
0000
0000
0000
0002
0000
0000
1003
0100
1000
0100
1000
0010
0000
0010
0000
0000
0000
0000
0000
,
0200
0000
0000
0301
0010
0001
0010
0001
1000
0000
1000
0000
0000
0000
0000
0000
0020
0000
0000
0130
0001
1000
0001
1000
0100
0000
0100
0000
0000
0000
0000
0000
,
1001
0000
1000
0010
0100
0000
0010
0100
0001
0000
0010
0000
0000
0000
0001
0010
0100
0000
0010
0000
0000
0000
0100
1000
0100
0010
0001
0000
0000
0000
1000
0000
,
1001
0000
0001
0010
0001
0000
0100
0001
0100
0000
0010
0000
0000
0000
0100
1000
0100
0000
0010
0000
0000
0000
0100
0001
0010
0100
1000
0000
0001
0000
0001
0000
,
2001
0000
0000
3001
1000
0001
1000
0001
1000
0000
0100
0000
1000
0000
0000
0000
,
1020
0000
0000
1030
0001
1000
0001
1000
0001
0000
0100
0000
0001
0000
0000
0000
,
0021
0000
0000
0031
1000
0001
1000
0001
1000
0000
0010
0000
1000
0000
0000
0000
,
1200
0000
0000
1300
0001
1000
0001
1000
0001
0000
0010
0000
0001
0000
0000
0000
,
1001
0000
0001
1000
0100
0000
1000
0001
0100
0000
0010
0000
0000
0000
0100
0001
1000
0000
0100
0000
0000
0000
0010
0001
0010
0100
1000
0000
0000
0000
0010
0000
,
0110
0000
0010
0100
0001
0000
0100
0010
1000
0000
0001
0000
0000
0000
0010
0100
1000
0000
0010
0000
0000
0000
1000
0100
0010
0001
0100
0000
0000
0000
0110
0000
,
2002
0000
0000
3003
,
1001
0000
1020
0000
1030
0100
1000
0010
,
0110
0000
0102
0000
1003
0001
0010
0100
,
1000
1000
0020
0000
0031
0001
0010
0010
,
1000
1000
0200
0000
1300
1000
0010
0100
,
0101
0000
0021
0000
0031
1000
0100
1000
,
1001
0000
0102
0000
1003
0100
1000
0010
,
0100
0010
2000
0000
0001
3001
0010
0010
,
0100
0000
0100
0000
0002
0000
0000
0000
1000
0003
1000
0000
0010
0000
0010
0000
,
0012
0010
0103
1000
0010
1000
0100
0010
0002
0000
0100
0000
0010
0000
1003
0000
,
0001
0010
1000
0010
0100
1000
0100
0010
0200
0000
0010
0000
0001
0000
1300
0000
,
0001
0010
0100
1000
0010
0100
0001
1000
0002
0000
1000
0000
0010
0000
0103
0000
,
0001
1000
0001
1000
0100
1000
0100
1000
0010
0100
0010
0100
0002
0000
0013
0000
,
2001
0000
0000
0000
3001
0010
0001
0010
0100
0000
0010
0000
0001
1000
0001
1000
,
0100
0000
0010
0000
0001
0100
0001
0100
0010
0000
1000
0000
0001
0010
0001
0010
,
0100
0000
1000
0000
0001
0100
0001
0100
0010
0000
1000
0000
0100
1000
0100
1000
,
0010
0000
1000
0000
0100
0010
0100
0010
0001
0000
1000
0000
0010
0100
0010
0100
,
0001
0000
1000
0000
0100
1000
0100
1000
0001
0000
0010
0000
1000
0010
1000
0010
,
0001
0000
1000
0000
0010
0100
0010
0100
0001
0000
1000
0000
0001
0100
0001
0100
,
0010
0000
1000
0000
0100
1000
0100
1000
0010
0000
1000
0000
0001
0010
0001
0010
,
0100
0000
1000
0000
0001
0100
0001
0100
0010
0000
1000
0000
0100
0010
0100
0010
,
0002
0000
1003
0100
0001
0100
0010
0001
0010
0100
1200
0000
1300
0010
0100
0001
,
0102
0000
1003
0100
1000
0001
0100
1000
0100
0010
1020
0000
0130
0001
1000
0010
,
0210
0000
0310
1000
0001
0010
0100
1000
0100
0001
0102
0000
0103
1000
0001
0100
,
0120
0000
1030
0100
1000
0010
0100
0001
0100
0010
0120
0000
1030
0010
0100
0001
,
1001
0000
0000
0000
0101
0000
0000
0000
1000
0000
0010
1000
0000
0000
1000
0100
,
0000
0000
0100
0010
0000
0000
0010
1000
0000
0000
1000
0010
0000
0000
0010
0000
,
0001
0000
0100
0000
0101
0000
0000
0000
0010
0000
0010
1000
0000
0000
1000
0100
,
0000
0000
0100
0001
0000
0000
0001
0100
0000
0000
0100
0010
0000
0000
0010
0000
,
0011
0000
0000
0000
1100
0000
0000
0000
1000
0000
0001
0100
0000
0000
0001
1000
,
0000
0000
0001
0010
0000
0000
0100
1000
0000
0000
0001
1000
0000
0000
0010
1000
,
0001
0000
0100
0000
0101
0000
0000
0000
0001
0000
0001
0010
0000
0000
0010
1000
,
0000
0000
1000
0100
0000
0000
0100
0001
0000
0000
0001
1000
0001
1000
0001
1000
,
0001
0000
0010
0000
0100
0000
1000
0000
0010
0000
0100
0000
0001
1000
0001
1000
0100
0000
1000
0000
0010
0000
0100
0000
0001
0000
1000
0000
0100
0010
0100
0010
,
0001
0000
0010
0000
0100
0000
1000
0000
0001
0000
0010
0000
0100
1000
0100
1000
0010
0000
1000
0000
0010
0000
0001
0000
0010
0000
1000
0000
0010
1000
0010
1000
,
0001
0000
0010
0000
0100
1000
0100
1000
0001
0000
0100
0000
0010
1000
0010
1000
0001
0000
0010
0000
0001
0100
0001
0100
0010
0000
1000
0000
0001
1000
0001
1000
,
0100
0000
1000
0000
0001
0010
0001
0010
1000
0000
0010
0000
0001
0100
0001
0100
0010
1000
0010
1000
0001
0100
0001
0100
0001
0010
0001
0010
0200
0000
0000
0000
,
1300
0100
1000
0010
0001
0010
1000
0001
,
0010
0100
0010
0001
1000
0010
0100
0001
,
1000
0100
1000
0001
0010
0001
0100
0010
,
1000
0100
0010
0001
0010
0100
1000
0001
,
2000
0010
3020
0001
0032
0010
0023
0100
,
0230
0001
0302
1000
2003
0100
3200
0010
,
0320
1000
2030
0010
3020
0001
0032
1000
,
2003
0010
3020
0001
0032
0100
0103
2000
,
0002
0000
0000
0000
3000
0000
0000
0000
1003
0000
0100
0000
0010
0001
0010
0100
,
1000
0000
0010
0000
0100
0001
1000
0100
1000
0000
0010
0000
1000
0001
1000
0100
,
1000
0000
0001
0000
0010
0100
0010
0001
1000
0000
0010
0000
1000
0010
0100
0010
,
1000
0000
0001
0000
1000
0001
0100
0001
1000
0000
0001
0000
0010
0001
0100
0010
,
1000
0000
0100
0000
0010
0001
0010
0100
1000
0000
0001
0000
0010
0001
0010
0001
,
1000
0000
0100
0000
1000
0010
1000
0010
0100
0000
0001
0000
1000
0100
1000
0100
,
0001
0000
0100
0000
1000
0010
1000
0010
0100
0000
1000
0000
0100
0001
0100
0001
,
1000
0000
0001
0000
0010
0100
0010
0100
0001
0000
0100
0000
1000
0010
1000
0010
,
0100
0000
0001
0000
0010
0100
0010
0100
2000
0000
0000
0000
0000
0000
0000
0000
,
3000
0000
0000
0000
;

//---------------dance-double - ----------------
#NOTES:
     dance-double:
     :
     Challenge:
     10:
     0.732348,0.995546,0.298851,0.352490,0.743295,669.000000,630.000000,39.000000,46.000000,0.000000,0.000000,0.732348,0.995546,0.298851,0.352490,0.743295,669.000000,630.000000,39.000000,46.000000,0.000000,0.000000:
00000000
00000000
00000000
00000000
,
00000000
00000000
00000000
00000000
,
00000200
00000000
00000000
00000310
00001000
00000000
00000100
00000000
00010000
00000000
00001000
00000000
00011000
00000000
00000000
00000000
00200000
00000000
00000000
00310000
01000000
00000000
00010000
00000000
00100000
00000000
00001000
00000000
00011000
00000000
00000000
00000000
,
00020000
00000000
00000000
01030000
10000000
00000000
00010000
00000000
01000000
00000000
00001000
00000000
00011000
00000000
00000000
00000000
00020000
00000000
00000000
00030010
00000100
00000000
00001000
00000000
00010000
00000000
00001000
00000000
00011000
00000000
00000000
00000000
,
00110000
00000000
00010000
00000000
00100000
00000000
01000000
00100000
01000000
00000000
10000000
00000000
00000000
00000000
00100000
01000000
00100000
00000000
00010000
00000000
00000000
00000000
00100000
10000000
01000000
10000000
00010000
00000000
00000000
00000000
01000000
00000000
,
01010000
00000000
00010000
00000000
01000000
00000000
00001000
00100000
00001000
00000000
00000100
00000000
00000000
00000000
00001000
00010000
00001000
00000000
00100000
00000000
00000000
00000000
00001000
00010000
00001000
00000100
00001000
00000000
00010000
00000000
00001000
00000000
,
00102000
00000000
00000000
01003000
00010000
01000000
00010000
01000000
00010000
00000000
10000000
00000000
01000000
00000000
00000000
00000000
,
00210000
00000000
00000000
00310000
01000000
00010000
01000000
00010000
10000000
00000000
01000000
00000000
00100000
00000000
00000000
00000000
,
00021000
00000000
00000000
00031000
00000010
00001000
00000010
00001000
00000010
00000000
00000001
00000000
00000100
00000000
00000000
00000000
,
00000210
00000000
00000000
00000310
00000001
00000010
00000001
00000010
00000001
00000000
00000010
00000000
00001000
00000000
00000000
00000000
,
00001010
00000000
00000010
00000000
00010000
00000000
00001000
01000000
00010000
00000000
10000000
00000000
00000000
00000000
10000000
00100000
01000000
00000000
00010000
00000000
00000000
00000000
00100000
00001000
00010000
00000100
00001000
00000000
00000000
00000000
00000001
00000000
,
00001001
00000000
00001000
00000000
00000100
00000000
00000010
00000001
00000010
00000000
00000001
00000000
00000000
00000000
00000001
00000100
00000010
00000000
00001000
00000000
00000000
00000000
00000100
00010000
00001000
00100000
00001000
00000000
00000000
00000000
00010000
00000000
,
00022000
00000000
00000000
00033000
,
00110000
00000000
12000000
00000000
13000000
00100000
00010000
00001000
,
00011000
00000000
00002010
00000000
00003010
00000001
00000010
00001000
,
00000100
00010000
00001000
00000000
00001000
00000100
00001000
00010000
,
00001000
00100000
01000000
00000000
01000000
10000000
01000000
00100000
,
00110000
00000000
00001200
00000000
00001300
00000100
00010000
00001000
,
00011000
00000000
01020000
00000000
01030000
00010000
00100000
00001000
,
00100000
00010000
00001000
00000000
00001000
00010000
00001000
00000100
,
00000010
00000001
00001000
00000000
00000100
00001000
00000001
00001000
,
00001100
00000100
00001000
00000100
00000010
00000001
00000100
00000010
00001000
00000100
00010000
00001000
00100000
00010000
01000000
00100000
,
10000000
01000000
10000000
00100000
01000000
00010000
00100000
01000000
10000000
00100000
01000000
00010000
00100000
00001000
00010000
00000100
,
00001000
00000010
00000100
00000001
00000010
00000001
00000100
00000010
00001000
00000100
00000010
00000001
00000100
00000010
00001000
00000100
,
00010000
01000000
10000000
00100000
00010000
00001000
01000000
00100000
10000000
01000000
00100000
00001000
00020000
00000000
00000000
00000000
,
00032000
00000000
00000000
00000000
00103000
00010000
00100000
00000000
00001000
00000000
00000010
00000000
00000100
00001000
00000100
00000000
,
00000010
00000000
00001000
00000000
00100000
00010000
00100000
00000000
01000000
00000000
00010000
00000000
01000000
10000000
01000000
00000000
,
10000000
00000000
00100000
00000000
01000000
00010000
01000000
00000000
10000000
00000000
01000000
00000000
00010000
10000000
00010000
00000000
,
00100000
00000000
00001000
00000000
00010000
00001000
00010000
00000000
00000100
00000000
00000010
00000000
00000100
00001000
00000100
00000000
,
00010000
00000000
00001000
00000000
00100000
00001000
00100000
00000000
00001000
00000000
00010000
00000000
00000100
00010000
00000100
00000000
,
00010000
00000000
00001000
00000000
00010000
00100000
00010000
00000000
00001000
00000000
00100000
00000000
00010000
00001000
00010000
00000000
,
00001000
00000000
00000100
00000000
00010000
00100000
01000000
00000000
00010000
00000000
01000000
00000000
00100000
10000000
00010000
00000000
,
00100000
00000000
00001000
00000000
00000010
00000100
00001000
00000000
00000001
00000000
00000010
00000000
00000100
00001000
00000001
00000000
,
00000201
00000000
00000000
00000000
00000310
00000100
00000010
00000100
00000001
00000010
00000200
00000000
00001300
00000010
00000100
00000010
,
00002000
00000000
00000000
00000000
00003100
00010000
00001000
00000100
00001000
00010000
00002000
00000000
00013000
00000100
00001000
00000010
,
00000200
00000000
00001300
00100000
01000000
00010000
01000000
10000000
00010000
00100000
00002000
00000000
00013000
00100000
00010000
00001000
,
00000200
00000000
00000310
00001000
00000100
00000010
00000001
00000100
00000010
00001000
00000200
00000000
00010300
00100000
10000000
00000000
,
11000000
00000000
01100000
00000000
00000000
10100000
00000000
01010000
,
00000000
01100000
00000000
00110000
00000000
00011000
00000000
00001000
,
00000010
00000000
00000110
00000000
00000100
00000100
00000000
00000101
,
00000000
00001010
00000000
00010100
00000000
00101000
00000000
01010000
,
10100000
00000000
00000000
00000000
01100000
00000000
00000000
00000000
00100000
00000000
10000000
01000000
00000000
00000000
01000000
00100000
,
00000000
00000000
00100000
00010000
00000000
00000000
00010000
00001000
00000000
00000000
00001000
00000010
00000000
00000000
00000010
00000100
,
00000000
00000000
00000010
00000000
00001010
00000000
00000000
00000000
00001000
00000000
00001000
00000100
00000000
00000000
00010000
00001000
,
00000000
00000000
00100000
00001000
00000000
00000000
01000000
00010000
00000000
00000000
00100000
00010000
00100000
00010000
00100000
00010000
,
00100000
01000000
10000000
00000000
10000000
00100000
01000000
00000000
01000000
00010000
00100000
00000000
00100000
00001000
00010000
00000000
,
00010000
00001000
00000100
00000000
00000100
00000010
00001000
00000000
00001000
00000100
00000001
00000000
00000001
00000100
00000010
00000000
,
00000010
00000100
00001000
00000100
00010000
00001000
00000200
00000000
00001300
00000100
00000001
00000010
00000100
00010000
00002000
00000000
,
01003000
00000000
01000000
00000000
00200000
00000000
00000000
00000000
10300000
00000000
10000000
00000000
02000000
00000000
00000000
00000000
03100000
00000000
00010000
00000000
00001000
00010000
00001000
00010000
00001000
00010000
00001000
00010000
00001000
00010000
00001000
00010000
,
00001000
00010000
00100000
01000000
10000000
00010000
00100000
01000000
,
10000000
00010000
00001000
00010000
00100000
01000000
00010000
01000000
,
10000000
00100000
00010000
00001000
00000100
00000001
00000010
00000100
,
00000001
00000100
00001000
00100000
10000000
01000000
00100000
00010000
,
20000000
00010000
30020000
00100000
00230000
00001000
00302000
01000000
,
02003000
00010000
03020000
00100000
00230000
01000000
02300000
10000000
,
23000000
00100000
30200000
00010000
00320000
00000100
00030200
00000010
,
00000320
00000001
00000032
00000100
00000203
00001000
00002300
00010000
,
00020000
00000000
00000000
00000000
00003000
00000000
00000000
00000000
00030010
00000000
00001000
00000000
00000100
00000000
00100000
00010000
,
00100000
00000000
00001000
00000000
00010000
00000000
00000100
00001000
00000100
00000000
00010000
00000000
00001000
00000000
00100000
01000000
,
00100000
00000000
00001000
00000000
00000100
00000000
00000010
00001000
00000010
00000000
00010000
00000000
00001000
00000000
01000000
00010000
,
01000000
00000000
00001000
00000000
00010000
00000000
00000100
00001000
00000100
00000000
00000010
00000000
00000001
00000000
00000100
00000010
,
00000100
00000000
00000001
00000000
00001000
00000000
00000100
00010000
00001000
00000000
00100000
00000000
01000000
00000000
00100000
00010000
,
10000000
00000000
00100000
00000000
01000000
00000000
00100000
01000000
00010000
00000000
00100000
00000000
01000000
00000000
00100000
00001000
,
00010000
00000000
00000100
00000000
00001000
00000000
00000100
00000010
00000001
00000000
00001000
00000000
00000010
00000000
00000100
00000001
,
00001000
00000000
00000100
00000000
00000010
00000000
00000100
00001000
00010000
00000000
00001000
00000000
00000010
00000000
00001000
00010000
,
00100000
00000000
01000000
00000000
10000000
00000000
00100000
00010000
00002000
00000000
00000000
00000000
00000000
00000000
00000000
00000000
,
00000000
00000000
00000000
00000000
00000000
00003000
00000000
00000000
;
