#TITLE:PLASMA;
#SUBTITLE:;
#ARTIST:Sota Fujimori;
#TITLETRANSLIT:;
#SUBTITLETRANSLIT:;
#ARTISTTRANSLIT:;
#GENRE:;
#CREDIT:;
#BANNER:PLASMA.png;
#BACKGROUND:PLASMA-bg.png;
#LYRICSPATH:;
#CDTITLE:;
#MUSIC:Plasma.ogg;
#OFFSET:-4.898400;
#SAMPLESTART:25.979000;
#SAMPLELENGTH:12.000000;
#SELECTABLE:YES;
#BPMS:0.000000=148.000000
;
#STOPS:
;
#BGCHANGES:;
#KEYSOUNDS:;
#ATTACKS:;

//---------------dance-single - ----------------
#NOTES:
     dance-single:
     :
     Hard:
     7:
     0.431342,0.472234,0.072466,0.084543,0.157009,250.000000,244.000000,6.000000,7.000000,0.000000,0.000000,0.431342,0.472234,0.072466,0.084543,0.157009,250.000000,244.000000,6.000000,7.000000,0.000000,0.000000:
0000
0000
0000
0000
,
0010
1000
0100
0000
0010
0001
0100
0000
,
0010
1000
0100
0000
1000
0001
0100
0000
,
0010
1000
0001
0000
0010
0100
1000
0000
,
2002
0000
0000
3003
,
1000
0000
0010
0000
0100
0001
0100
0000
,
0010
0000
1000
0000
0100
0010
0100
0000
,
1000
0000
0001
0000
0100
0010
0100
0000
,
0001
0000
1000
0000
0100
0010
0001
0100
,
0010
0000
0100
0000
0001
1000
0100
0000
,
1000
0000
0010
0000
0100
0001
0100
0000
,
0010
0000
1000
0000
0001
1000
0001
0000
,
0010
0100
1000
0110
,
0100
0000
0000
0100
0001
0000
0000
0001
0010
0000
0000
0010
0100
0000
0000
0100
,
1000
0000
0000
1000
0010
0000
0000
0010
0100
0000
0000
0100
0001
0000
0000
0001
,
0010
0000
0001
0000
0010
0000
0000
0010
0100
0000
0000
0100
1000
0000
0000
1000
,
0001
0000
0000
0001
0100
0000
0000
0100
0020
0000
0000
0000
0030
0000
0000
0000
,
0100
0000
0000
0100
1000
0000
0000
1000
0100
0000
0000
0100
0010
0000
0000
0010
,
1000
0000
0000
1000
0100
0000
0000
0100
0010
0000
0000
0010
0001
0000
0000
0001
,
0100
0000
0010
0000
0100
0000
0000
0100
0001
0000
0000
0001
1000
0000
0000
1000
,
0100
0000
0000
0100
0010
0000
0000
0010
0002
0000
0000
0000
0003
0000
0000
0000
,
0100
0000
0010
0000
1000
0100
1000
0000
,
0010
0000
0100
0000
0001
0010
0001
0000
,
0100
0100
0100
0000
0010
0000
1000
0000
,
0100
0010
0100
0000
1001
0000
1000
0000
,
0010
0000
0100
0000
0001
0010
0100
0000
,
0010
0000
0001
0000
0100
0010
1000
0000
,
0010
0010
0010
0000
1000
0000
0100
0000
,
0001
0100
0210
0000
,
0310
0000
0001
0000
0100
0010
0100
0001
,
1000
0000
0100
0000
0010
0001
0100
0000
,
0010
0000
1000
0000
0100
0010
0100
1000
,
0001
0000
0100
0000
0010
1000
0001
0000
,
1000
0000
0010
0000
0100
0001
0010
0100
,
0010
0000
0001
0000
0100
0010
0100
0001
,
1000
0000
0100
0000
0010
0100
1000
0010
,
0100
0000
1000
0000
0100
0010
1000
0100
,
0010
0000
0001
0000
0100
1000
0100
0000
,
0001
0000
0010
0000
0100
1000
0001
0000
,
0100
0000
0010
0000
1000
0100
0001
0000
,
0100
0000
0010
0000
0001
0100
0010
0000
,
1000
0000
0100
0000
0010
0001
1000
0000
,
0010
0000
0100
0000
0001
1000
0100
0000
,
0010
0000
0100
0000
1000
0010
0100
0000
,
0001
0100
0010
1000
,
2002
0000
0000
0000
3003
0100
0010
0000
,
0110
0000
0000
0000
;

//---------------dance-single - ----------------
#NOTES:
     dance-single:
     :
     Medium:
     6:
     0.364053,0.388898,0.108698,0.048310,0.000000,211.000000,202.000000,9.000000,4.000000,0.000000,0.000000,0.364053,0.388898,0.108698,0.048310,0.000000,211.000000,202.000000,9.000000,4.000000,0.000000,0.000000:
0000
0000
0000
0000
,
0010
0000
1000
0000
0100
0010
0100
0000
,
1000
0000
0010
0000
0100
0001
0100
0000
,
0010
1000
0100
0010
,
2002
0000
0000
3003
,
0010
1000
0100
1000
,
0010
0000
0100
0000
0001
0100
0001
0000
,
0010
0100
1000
0001
,
0100
0000
0010
0000
1000
0000
0100
1000
,
0001
0100
0010
1000
,
0100
0000
0010
0000
0100
1000
0100
0000
,
0010
0001
0100
0010
,
1000
0001
1000
0001
,
1000
0100
0001
0010
,
1000
0100
0010
0001
,
0100
0010
0100
0000
0001
0000
0010
0000
,
1000
0100
0010
0000
,
0010
0100
1000
0010
,
0001
0100
0010
1000
,
0100
0010
0100
0000
1000
0000
0010
0000
,
0001
0100
1000
0100
,
0010
0001
0100
0010
,
0100
0001
1000
0100
,
0010
0001
0100
0000
0010
0000
1000
0000
,
0100
0010
0110
0000
,
0100
1000
0010
0100
,
0001
1000
0100
0010
,
0001
1000
0001
0000
0100
0000
0010
0000
,
1000
0001
1001
0000
,
1000
0000
0010
0000
0100
0001
1000
0001
,
0100
0010
1000
0100
,
0010
0000
0001
0000
0100
0010
0100
0001
,
1000
0000
0100
0000
0010
0001
1000
0000
,
0010
0000
0100
0000
0001
0010
0100
0010
,
0001
1000
0010
0100
,
0001
0000
0100
0000
0010
1000
0001
1000
,
0010
0000
0100
0000
0001
1000
0100
0000
,
0010
0000
1001
0000
0010
0100
0001
0000
,
0100
0000
0010
0000
1000
0100
0010
0100
,
1000
0000
1100
0000
1000
0010
0100
0000
,
0001
0000
0100
0000
0010
1000
0001
1000
,
0010
0000
0110
0000
0100
0001
0010
0000
,
0100
0000
0010
0000
0001
0100
0010
0100
,
0001
1001
1000
0100
,
0010
0001
0100
0000
0010
1000
0001
0000
,
2002
0000
0000
3003
,
0110
0000
0000
0000
;

//---------------dance-single - ----------------
#NOTES:
     dance-single:
     :
     Easy:
     3:
     0.184615,0.250006,0.036233,0.060388,0.000000,107.000000,104.000000,3.000000,5.000000,0.000000,0.000000,0.184615,0.250006,0.036233,0.060388,0.000000,107.000000,104.000000,3.000000,5.000000,0.000000,0.000000:
0000
0000
0000
0000
,
1000
0000
0100
0000
,
0010
0000
0001
0000
,
0100
0000
0010
0000
,
2002
0000
3003
0000
,
0000
1000
0000
0001
,
0000
1000
0000
0001
,
0000
0100
0000
0010
,
0000
0100
0000
0010
,
0000
1000
0000
0100
,
0000
0001
0000
0100
,
0000
1000
0000
0010
,
0020
0000
0000
0000
,
0130
0010
0100
0010
,
1000
0001
1000
0001
,
1000
0000
0100
0000
,
0010
0000
0001
0000
,
0100
0010
0100
0010
,
1000
0001
1000
0001
,
1000
0000
0001
0000
,
0100
0000
0010
0000
,
1000
0100
1000
0100
,
0010
0001
0010
0001
,
0010
0000
0100
0000
,
1000
0000
0001
0000
,
0100
0001
0100
0001
,
1000
0010
1000
0010
,
1000
0000
0010
0000
,
0100
0000
0001
0000
,
1000
0000
0100
0000
,
0010
0000
0001
0000
,
0100
0000
0010
0000
,
1000
0000
0100
0000
,
0010
0000
0100
0000
,
0001
0000
0100
0000
,
0010
0000
0001
0000
,
0100
0000
0010
0000
,
1000
0000
0001
0000
,
1000
0000
0010
0000
,
0100
0000
0001
0000
,
1000
0000
0100
0000
,
0010
0000
0100
0000
,
1000
0000
0010
0000
,
0100
0000
0001
0000
,
0010
0000
0100
0000
,
0220
0000
0330
0000
,
1001
0000
0000
0000
;

//---------------dance-single - ----------------
#NOTES:
     dance-single:
     :
     Beginner:
     1:
     0.082818,0.111114,0.012078,0.000000,0.000000,48.000000,47.000000,1.000000,0.000000,0.000000,0.000000,0.082818,0.111114,0.012078,0.000000,0.000000,48.000000,47.000000,1.000000,0.000000,0.000000,0.000000:
0000
0000
0000
0000
,
1000
0000
0000
0000
,
0010
0000
0000
0000
,
0100
0000
0000
0000
,
0001
0000
0000
0000
,
0000
0001
0000
0001
,
0000
0001
0000
0000
,
0000
1000
0000
1000
,
0000
1000
0000
0000
,
0000
0010
0000
0010
,
0000
0010
0000
0000
,
0000
0100
0000
0100
,
0000
0000
0000
0000
,
0010
0000
0000
0000
,
1000
0000
0000
0000
,
0010
0000
0000
0000
,
1000
0000
0000
0000
,
0001
0000
0000
0000
,
0100
0000
0000
0000
,
0001
0000
0000
0000
,
0100
0000
0000
0000
,
0010
0000
0000
0000
,
1000
0000
0000
0000
,
0001
0000
0000
0000
,
0100
0000
0000
0000
,
0001
0000
0000
0000
,
1000
0000
0000
0000
,
0010
0000
0000
0000
,
0100
0000
0000
0000
,
0001
0000
0000
0000
,
1000
0000
0000
0000
,
0001
0000
0000
0000
,
0000
0000
0000
0000
,
0100
0000
0000
0000
,
0010
0000
0000
0000
,
0100
0000
0000
0000
,
0000
0000
0000
0000
,
0001
0000
0000
0000
,
0010
0000
0000
0000
,
0100
0000
0000
0000
,
1000
0000
0000
0000
,
0010
0000
0000
0000
,
0100
0000
0000
0000
,
0001
0000
0000
0000
,
1000
0000
0000
0000
,
0010
0000
0000
0000
,
1001
0000
0000
0000
;

//---------------dance-double - ----------------
#NOTES:
     dance-double:
     :
     Hard:
     8:
     0.498632,0.527791,0.072466,0.120776,0.253629,289.000000,283.000000,6.000000,10.000000,0.000000,0.000000,0.498632,0.527791,0.072466,0.120776,0.253629,289.000000,283.000000,6.000000,10.000000,0.000000,0.000000:
// measure 0
00000000
00000000
00000000
00000000
,  // measure 1
00010000
00001000
00000100
00000000
00001000
00010000
01000000
00000000
,  // measure 2
00010000
00001000
00000010
00000000
00001000
00010000
00100000
00000000
,  // measure 3
10000000
01000000
00100000
00010000
00001000
00000100
00000010
00000000
,  // measure 4
00002002
00000000
00000000
00003003
,  // measure 5
00000010
00000000
00000000
00000010
00000001
00000000
00001000
00000000
00000100
00000010
00000000
00000000
00000100
00000000
00000000
00000000
,  // measure 6
00010000
00000000
00000000
00010000
00001000
00000000
00100000
00000000
00020000
00000000
00000000
00000000
02030000
00000000
00000000
00000000
,  // measure 7
03100000
00000000
00000000
00100000
10000000
00000000
00010000
00000000
01000000
00100000
00000000
00000000
01000000
00000000
00000000
00000000
,  // measure 8
00001000
00000000
00000000
00001000
00010000
00000000
00000100
00000000
00000010
00000001
00000000
00000000
00001000
00000000
00000001
00000100
,  // measure 9
00000001
00000000
00000000
00000010
00000000
00000000
00000100
00000000
00001000
00000010
00000000
00000000
00010000
00000000
00001000
00010000
,  // measure 10
00001000
00000000
00000000
00100000
00010000
00000000
10000000
00000000
00010000
01000000
00000000
00000000
00100000
00000000
00000000
00000000
,  // measure 11
10000000
01000000
00010000
00100000
,  // measure 12
10000000
01000000
00100000
00010000
00001000
00000100
00000010
00000001
,  // measure 13
00000100
00001000
00000010
00000001
,  // measure 14
00000100
00001000
00010000
00000000
01000000
00010000
00001000
00000000
,  // measure 15
00010000
00100000
10000000
00000000
01000000
00000000
00010000
00000000
,  // measure 16
01000000
10000000
02200000
03300000
,  // measure 17
01000000
00010000
00100000
10000000
,  // measure 18
01000000
00010000
00001000
00000000
00000100
00001000
00010000
00000000
,  // measure 19
00001000
00000010
00000001
00000000
00000100
00000000
00001000
00000000
,  // measure 20
00000100
00000001
00000220
00000330
,  // measure 21
00000001
00000000
00000000
00000001
00000100
00000000
00000000
00000100
00000010
00000000
00000000
00000010
00010000
00000000
00000000
00010000
,  // measure 22
00001000
00000000
00000000
00001000
00100000
00000000
00000000
00100000
01000000
00000000
00000000
01000000
10000000
00000000
00000000
10000000
,  // measure 23
00010000
01000000
10000000
00000000
00100000
00000000
00010000
00000000
,  // measure 24
01000000
00001000
00022000
00033000
,  // measure 25
00100000
00000000
00000000
00100000
10000000
00000000
00000000
10000000
01000000
00000000
00000000
01000000
00010000
00000000
00000000
00010000
,  // measure 26
00001000
00000000
00000000
00001000
00000010
00000000
00000000
00000010
00000001
00000000
00000000
00000001
00001000
00000000
00000000
00001000
,  // measure 27
00000001
00000100
00001000
00000000
00010000
00000000
00100000
00000000
,  // measure 28
10000000
00010000
10000000
01000000
00010000
00001000
00000010
00000001
,  // measure 29
00001000
00000000
00000000
00000001
00000000
00000100
00000000
00000010
00000000
00000000
00010000
00000000
00000100
00000000
00001000
00000000
,  // measure 30
00010000
00000000
00000000
00100000
00000000
01000000
00000000
00000000
00000000
10000000
00010000
00000000
00100000
00000000
00000000
00100000
,  // measure 31
00001000
00000000
00010000
00000000
00000000
00000000
00100000
00000000
00010000
00001000
00000000
00000000
00000010
00000000
00000001
00000100
,  // measure 32
00000001
00000000
00000000
00000001
00000010
00000000
00001000
00000000
00010000
00000000
00011000
00000000
00011000
00000000
00000000
00000000
,  // measure 33
00100000
10000000
01000000
00010000
00001000
00100000
00010000
00000000
,  // measure 34
10000000
01000000
00010000
00001000
00000100
00000001
00000010
00000000
,  // measure 35
00000010
00000001
00000100
00001000
00010000
00000010
00001000
00000000
,  // measure 36
00010000
01000000
00100000
10000000
01000000
00100000
00010000
10000000
,  // measure 37
00100000
00000000
00010000
00000000
00001000
00010000
00001000
00000000
,  // measure 38
00000010
00000000
00001000
00000000
00010000
00001000
00010000
00000000
,  // measure 39
01000000
00000000
00010000
00000000
00001000
00010000
00001000
00000000
,  // measure 40
00000100
00000000
00001000
00000000
00010000
00001000
00010000
00000000
,  // measure 41
00001000
00000010
00000001
00001000
00000100
00010000
00001000
00100000
,  // measure 42
01000000
10000000
00010000
00100000
00001000
00000010
00000001
00001000
,  // measure 43
00000100
00010000
01000000
10000000
00100000
10000000
00010000
01000000
,  // measure 44
00001000
00000100
00000001
00001000
00000010
00010000
00100000
00000000
,  // measure 45
10000000
00010000
00000000
00010000
00100000
00000000
00000000
00000000
00000000
00000000
00001000
00010000
00001000
00000000
00010000
00000000
,  // measure 46
00000010
00000000
00000000
00000000
;

//---------------dance-double - ----------------
#NOTES:
     dance-double:
     :
     Medium:
     6:
     0.379581,0.388898,0.084543,0.120776,0.000000,220.000000,213.000000,7.000000,10.000000,0.000000,0.000000,0.379581,0.388898,0.084543,0.120776,0.000000,220.000000,213.000000,7.000000,10.000000,0.000000,0.000000:
00000000
00000000
00000000
00000000
,
00000100
00000000
00010000
00000000
00001000
00100000
00001000
00000000
,
01000000
00000000
00001000
00000000
00010000
00000010
00010000
00000000
,
00001000
00000100
00000001
00000010
,
00002002
00000000
00000000
00003003
,
00000010
00000000
00000001
00000000
00000100
00001000
00010000
00000000
,
00100000
10000000
02000000
03200000
,
00320000
00000000
00000000
20030000
00000000
00000000
31000000
00000000
,
00010000
00000000
00001000
00000010
00000001
00000000
00001001
00000000
,
00000100
00000000
00000001
00000000
00000010
00001000
00010000
00000000
,
01000000
10000000
00200000
02300000
,
03020000
00000000
00000000
20030000
00000000
00000000
30100000
00000000
,
01000000
00010000
01000000
00001000
00010000
00000100
00001000
00000000
,
00000001
00000100
00000100
00000010
,
00000010
00000100
00001000
00010000
,
00001000
00100000
01000000
00000000
10000000
00000000
01000000
00000000
,
00010000
01000000
10010000
00000000
,
10000000
01000000
01000000
00100000
,
00100000
01000000
00010000
00001000
,
00010000
00000010
00000100
00000000
00000001
00000000
00000100
00000000
,
00001000
00000100
00001001
00000000
,
00000010
00000001
00000100
00000000
00001000
00000000
00000100
00000010
,
00010000
00000000
00001000
00010000
00100000
00000000
10000000
00000000
,
01000000
00010000
00001000
00000000
00010000
00000000
00100000
00000000
,
10000000
00100000
01000000
00000000
,
00100000
10000000
01000000
00000000
00010000
00000000
01000000
00100000
,
00001000
00000000
00010000
00001000
00000010
00000000
00000001
00000000
,
00000100
00001000
00010000
00000000
00001000
00000000
00000010
00000000
,
00000001
00000010
00000100
00000000
,
00001000
00000000
00000001
00000100
00000010
00000000
00001000
00000000
,
00000100
00000000
00010000
00001000
01000000
00010000
10000000
00000000
,
00100000
10000000
01000000
00010000
,
00001000
00000000
00100000
00010000
01000000
00100000
10000000
00000000
,
00010000
00000000
10000000
01000000
00100000
00000000
00010000
00000000
,
01000000
00000000
00001000
00010000
00000100
00001000
00000001
00000000
,
00000010
00000001
00000100
00001000
,
00010000
00001000
00010000
00001000
01000000
00100000
01000000
00000000
,
00010000
00000000
10000000
00000000
01000000
00100000
00010000
00000000
,
00100000
00000000
00001000
00000000
00010000
00001000
00010000
00000000
,
00000100
00000000
00000010
00000001
00001000
00000001
00000100
00000010
,
00001000
00000110
00000001
00000110
,
00001000
00000000
00000001
00000000
00000100
00000010
00001000
00000000
,
00000010
00000000
00010000
00000000
00001000
00010000
00001000
00000000
,
01000000
00000000
00100000
10000000
00010000
10000000
01000000
00100000
,
00010000
00000000
01000000
00000000
00001000
00010000
00001000
00000000
,
00000100
00000000
00001001
00000000
00000000
00000001
00000010
00000100
,
00001000
00000000
00000000
00000000
;

//---------------dance-double - ----------------
#NOTES:
     dance-double:
     :
     Easy:
     3:
     0.191516,0.250006,0.012078,0.036233,0.000000,111.000000,110.000000,1.000000,3.000000,0.000000,0.000000,0.191516,0.250006,0.012078,0.036233,0.000000,111.000000,110.000000,1.000000,3.000000,0.000000,0.000000:
00000000
00000000
00000000
00000000
,
10000000
00000000
01000000
00000000
,
00100000
00000000
00010000
00000000
,
00001000
00000000
00000100
00000000
,
00000020
00000000
00000000
00000030
,
00000000
00000001
00000000
00000100
,
00000000
00001000
00000000
00000100
,
00000000
00000001
00000000
00000010
,
00000000
00001000
00010000
00100000
,
00000000
10000000
00000000
01000000
,
00000000
00010000
00000000
01000000
,
00000000
10000000
00000000
00100000
,
00200000
00000000
00000000
00000000
,
10300000
00010000
00010000
00100000
,
00100000
00001000
00010000
00001000
,
00010000
00000000
00000100
00000000
,
00000010
00000001
00001000
00000000
,
00000001
00001000
00001000
00000010
,
00000010
00010000
00001000
00010000
,
00001000
00000000
01000000
00000000
,
00100000
10000000
00010000
00000000
,
10000000
00100000
10000000
00100000
,
01000000
00010000
01000000
00010000
,
00100000
00000000
00001000
00000000
,
00010000
00000010
00000100
00000000
,
00000001
00000010
00000001
00000010
,
00000100
00001000
00000100
00001000
,
00000010
00000000
00010000
00000000
,
00001000
00100000
01000000
00000000
,
10000000
00000000
01000000
00000000
,
00100000
00000000
00010000
00000000
,
01000000
00000000
00100000
00000000
,
10000000
00000000
01000000
00000000
,
00010000
00000000
00001000
00000000
,
00000100
00000000
00000001
00000000
,
00000010
00000000
00000100
00000000
,
00001000
00000000
00000010
00000000
,
00001000
00000000
00000001
00000000
,
00000100
00000000
00001000
00000000
,
00010000
00000000
00100000
00000000
,
10000000
00000000
00010000
00000000
,
10000000
00000000
01000000
00000000
,
00010000
00000000
00001000
00000000
,
00000010
00000000
00000001
00000000
,
00001000
00000000
00000100
00000000
,
00020000
00001000
00000000
00030000
,
00011000
00000000
00000000
00000000
;
