#TITLE:PARANOiA CLiMAX;
#SUBTITLE:;
#ARTIST:DG177;
#TITLETRANSLIT:;
#SUBTITLETRANSLIT:;
#ARTISTTRANSLIT:;
#GENRE:;
#CREDIT:darkanine;
#BANNER:PARANOiA CLiMAX.png;
#BACKGROUND:PARANOiA CLiMAX-bg.png;
#LYRICSPATH:;
#CDTITLE:;
#MUSIC:PARANOiA CLiMAX.mp3;
#OFFSET:-0.038000;
#SAMPLESTART:78.724724;
#SAMPLELENGTH:15.000000;
#SELECTABLE:YES;
#BPMS:0.000000=177.000000
,31.000000=88.500000
,32.000000=177.000000
,92.000000=88.500000
,93.000000=177.000000
;
#STOPS:0.000000=1.017000,
1.000000=0.678000,
31.000000=0.678000,
92.000000=0.678000
;
#BGCHANGES:;
#KEYSOUNDS:;
#ATTACKS:;

//---------------dance-single - ----------------
#NOTES:
     dance-single:
     :
     Hard:
     9:
     0.657420,0.641862,0.453579,0.179542,0.000000,487.000000,439.000000,48.000000,19.000000,0.000000,0.000000,0.657420,0.641862,0.453579,0.179542,0.000000,487.000000,439.000000,48.000000,19.000000,0.000000,0.000000:
0000
0000
0000
0000
0100
0100
1010
0000
,
1000
0001
0011
0100
,
1010
1000
0011
1000
,
1100
0001
0101
0010
,
1100
0000
1000
0000
0101
0000
0001
0010
,
0100
0000
0011
0000
0100
0000
1000
0010
,
0100
0000
1010
0000
0100
0000
0001
0010
,
1000
0000
0000
0000
0010
0000
0000
0000
0100
0000
0000
0000
2002
3003
0000
0000
,
1000
0010
0100
0000
0001
0001
0100
0000
,
0001
0010
0100
0000
1000
1000
0001
0000
,
0100
0100
0001
1000
1000
0100
0000
0000
,
0110
1001
0110
1000
,
0010
1000
0001
0010
0000
0000
0100
0000
,
0010
0011
1100
1000
,
0100
1000
0001
0100
0000
0000
0010
0000
,
1010
0000
0101
0000
1000
0010
0100
0001
,
1000
1000
0100
0000
1000
1000
0010
0000
,
0100
0100
0001
0000
0010
0010
0001
0000
,
1000
0100
0010
0000
0010
0001
0100
0000
,
0001
0100
0010
0000
1000
0010
0100
0000
,
0001
0001
0010
0000
0001
0001
0100
0000
,
0010
0010
1000
0000
0100
0100
1000
0000
,
0001
0010
1000
0000
0010
0001
1000
0000
,
0202
0303
0000
0000
1000
0000
0001
0000
0100
0000
0000
0000
0010
0000
0010
0000
,
0010
0000
1000
0000
0001
0010
0100
0100
,
0100
0000
1000
0010
0100
0001
0010
0100
,
1000
0000
0001
0001
0001
0010
1000
0010
,
0001
0000
1000
0010
0100
0001
0010
0010
,
0010
0001
1000
0010
0100
0001
0100
0100
,
0100
0000
0001
0010
0100
1000
0010
0000
,
0100
0002
0023
2030
,
3200
0000
0301
0001
1000
0100
0010
0100
,
1000
0000
0001
1000
0010
0100
0010
1000
,
0001
0000
0010
0010
0001
1000
1000
0010
,
0100
0001
0010
0001
0010
0100
0100
1000
,
0001
0000
1000
0010
0100
0001
0100
0010
,
1000
0000
0001
0010
0100
1000
0100
0010
,
0001
0000
1000
0010
0001
0010
1000
0100
,
0010
0001
2000
0000
3020
0000
0032
0000
,
0203
0000
1300
0100
1000
0001
1000
0010
,
1000
0001
0100
0010
0100
0001
0010
0100
,
0010
0001
1000
0100
0010
0100
1000
0010
,
0100
0010
1000
0001
0010
0100
1000
0001
,
0100
0100
0001
0010
0100
0010
0001
1000
,
0010
1000
0001
0100
0010
0100
0001
0010
,
0100
1000
0010
0100
0001
0100
1000
0100
,
0010
1000
0001
0010
1000
0010
0001
0000
,
0100
0000
1100
1000
0000
0001
0101
0000
,
1001
0000
0001
0000
0110
0000
1000
0010
,
0110
0000
0001
0100
0010
1010
0000
0001
,
0011
1001
0110
1001
,
0100
0000
0011
0001
1000
1010
0000
0100
,
0110
0011
1100
0110
,
1000
0000
0101
0001
1000
1100
0000
0010
,
0110
0000
2000
0000
3020
0000
0031
0010
,
1000
0100
0001
0100
1000
0000
0010
0010
,
0010
0000
0100
0001
0010
1000
0000
1000
,
0010
0000
0001
0001
0100
1000
1000
0100
,
0010
0010
0110
0000
1000
0010
0010
0001
,
0010
0010
1010
0000
0100
0001
0010
0010
,
0010
0000
0100
1000
0010
0001
0000
0001
,
0010
1000
0100
0100
0001
0100
0100
1000
,
0010
0100
0002
0000
0100
0000
1000
1000
,
1003
0000
0110
0110
1000
0100
0010
0010
,
0010
0001
1000
0010
0100
1000
0100
0001
,
1000
0100
0010
0010
0001
0010
0010
0100
,
1000
0001
0200
0010
0310
0010
1000
0001
,
0010
0100
1000
0100
0001
0100
1000
0001
,
0001
0001
0100
0010
0100
1000
0000
1000
,
0100
0012
0103
2010
,
3001
0000
0110
0000
1001
0000
0110
0100
,
1001
0001
0020
0000
0030
0000
0000
0000
;

//---------------dance-single - ----------------
#NOTES:
     dance-single:
     :
     Medium:
     7:
     0.515676,0.538625,0.302386,0.085046,0.000000,382.000000,350.000000,32.000000,9.000000,0.000000,0.000000,0.515676,0.538625,0.302386,0.085046,0.000000,382.000000,350.000000,32.000000,9.000000,0.000000,0.000000:
0000
0000
0000
1000
,
1010
0001
0011
0100
,
1100
0000
0100
0000
0101
0000
1000
0100
,
1000
0000
0100
0000
1100
0000
0001
0100
,
0001
0000
0100
0000
0101
0000
1000
0010
,
1000
0000
0010
0000
0110
0000
0001
0010
,
0001
0000
0010
0000
0110
0000
1000
0001
,
1000
0001
1001
0110
,
1000
0100
1000
0000
0010
0000
0100
0000
,
0001
0100
0001
0000
1000
0000
0100
0000
,
0010
0001
0010
0000
0100
0000
1000
0000
,
0010
1000
0010
0000
0100
0000
0001
0000
,
1000
0100
0001
0000
0100
0000
1000
0000
,
0010
0100
0001
0000
1000
0000
0100
0000
,
0001
0100
1000
0000
0010
0000
0100
0000
,
0001
0000
1000
0000
0100
0010
0100
0000
,
1000
1000
0001
0001
,
1000
0010
1000
0000
0001
0100
0001
0000
,
0010
0010
0100
0100
,
0010
0001
0010
0000
0100
1000
0100
0000
,
1000
1000
0010
0010
,
1000
0100
1000
0000
0010
0100
0010
0000
,
0100
0100
0001
0001
,
0101
0000
1000
0000
1000
0000
0100
0010
,
0100
0000
0001
0000
0001
0000
0100
0010
,
0100
1000
0010
0001
,
0010
0000
0100
0010
0100
0000
0001
0000
,
1000
0000
0001
0000
0001
0000
0100
0010
,
0100
0000
1000
0000
1000
0000
0100
0010
,
0100
0001
0010
1000
,
0010
0002
0103
2000
,
3010
0110
0001
1000
,
1000
0000
0001
0010
1000
0000
1000
0010
,
0001
1000
0010
0001
,
0010
0000
1000
0000
0001
0100
0010
0100
,
0010
1000
1000
0001
,
0001
0000
1000
0010
0001
0000
0001
0010
,
1000
0100
0001
0100
,
1000
0010
2000
3100
,
0002
0000
1003
0010
1000
0000
1000
0100
,
1000
0000
1000
0001
1000
0000
1000
0100
,
1000
0000
0010
0100
0010
0000
0010
1000
,
0010
0000
0010
0001
0010
0000
0010
0100
,
0010
0000
0001
0010
0001
0000
0001
1000
,
0001
0000
0001
0100
0001
0000
0001
1000
,
0001
0000
0010
0100
0010
0000
0010
0100
,
0010
2000
0100
0010
,
3001
0000
1000
0001
1000
0000
0100
0000
,
1100
0001
0110
1000
,
0110
0000
0001
0010
0001
0000
1000
0000
,
1001
0001
1010
0001
,
1100
0000
1000
0010
0001
0000
0010
0000
,
0110
0010
1100
0010
,
0101
0000
1000
0100
0001
0000
0100
0000
,
1001
2000
3010
0002
,
0103
1000
1000
0001
,
0001
0000
1000
0010
0001
0000
0001
0010
,
1000
1001
0100
1001
,
0010
1001
0110
1001
,
0100
0001
0001
1000
,
1000
0000
0001
0010
1000
0000
1000
0010
,
0001
1010
0100
0011
,
0100
2002
0000
0000
,
3003
0000
1000
0100
1000
0000
1000
0001
,
1000
0000
0001
0100
0001
0000
0001
1000
,
0001
0000
0010
0001
0010
0000
0010
0100
,
0010
0000
0100
1000
0100
0001
0100
0000
,
1001
0000
0001
0010
0001
0000
0001
1000
,
0001
0000
1000
0010
1000
0000
1000
0001
,
1000
0000
0001
0010
0100
0000
1000
0010
,
0100
0000
0001
1000
0001
1000
0001
1000
,
0001
1000
1001
0000
0000
0000
0000
0000
;

//---------------dance-single - ----------------
#NOTES:
     dance-single:
     :
     Easy:
     4:
     0.329385,0.403969,0.151193,0.103945,0.000000,244.000000,228.000000,16.000000,11.000000,0.000000,0.000000,0.329385,0.403969,0.151193,0.103945,0.000000,244.000000,228.000000,16.000000,11.000000,0.000000,0.000000:
0000
0000
0000
1000
,
0010
1000
0010
0001
,
0010
0001
0010
0100
,
0010
0100
0010
1000
,
0010
0001
0010
1000
,
0100
0010
0100
0001
,
0100
0010
0100
1000
,
0010
0100
0001
1001
,
0010
0010
0010
0010
,
0100
0100
0100
0100
,
0001
0001
1000
1000
,
0010
0100
0010
0000
,
1000
1000
0010
0010
,
0001
1000
0001
0000
,
1000
1000
0100
0100
,
0001
1000
0010
0100
,
0001
0001
0101
0000
,
0010
0010
0110
0000
,
1000
1000
1100
0000
,
0001
0001
1001
0000
,
0010
0010
1010
0000
,
0100
0100
0101
0000
,
0010
0010
0110
0000
,
1001
0100
0000
0010
,
0010
1000
0000
0001
,
0001
1000
0000
0001
,
0000
0010
0010
0100
,
0100
0001
0000
1000
,
1000
0001
0000
0010
,
0010
0100
0000
0010
,
0010
0002
0000
0000
,
0000
1003
0000
1000
,
0000
0100
0100
0100
,
0000
0001
0000
0001
,
0000
0010
0010
0100
,
0100
0001
0000
0001
,
0000
0100
0100
0100
,
0000
1000
0000
1000
,
0000
0020
0000
0000
,
0000
0130
0100
0100
,
0100
1000
0001
1000
,
0000
0010
0010
0010
,
0010
0100
0001
0100
,
0000
1000
1000
1000
,
1000
0001
0100
0001
,
0000
0100
0100
0100
,
0100
2002
0000
3003
,
0000
0010
1000
0000
,
1000
0010
0001
0000
,
0001
1000
0100
0000
,
0100
0001
0100
0000
,
0100
1000
0010
0000
,
0010
0001
1000
0000
,
1000
0100
0010
0000
,
0010
0200
0000
0000
,
0000
1300
1000
0001
,
0001
0100
0010
0100
,
0000
0010
0010
0100
,
0100
0001
0010
1000
,
0010
0100
0100
0010
,
0010
0001
1000
0001
,
0000
1000
0010
0001
,
0010
0220
0000
0000
,
0330
1000
1000
0001
,
0001
0100
0100
0010
,
0010
1000
1000
0100
,
0010
0001
0001
0100
,
0010
1000
1000
0100
,
0100
0001
0001
0010
,
0010
2002
3003
0220
,
0330
1001
0100
1001
,
0010
0110
0000
0000
;

//---------------dance-single - ----------------
#NOTES:
     dance-single:
     :
     Beginner:
     2:
     0.198441,0.269313,0.037798,0.000000,0.000000,147.000000,143.000000,4.000000,0.000000,0.000000,0.000000,0.198441,0.269313,0.037798,0.000000,0.000000,147.000000,143.000000,4.000000,0.000000,0.000000,0.000000:
0000
0000
0000
0000
,
1000
0000
1000
0000
,
0001
0000
0001
0000
,
1000
0000
1000
0000
,
0001
0000
0001
0000
,
0100
0000
0100
0000
,
0010
0000
0010
0000
,
0100
0000
0000
0110
,
0001
0000
0001
0000
,
0001
0000
0100
0000
,
0010
0000
0010
0000
,
0100
0000
0001
0000
,
1000
0000
1000
0000
,
0001
0000
0001
0000
,
1000
0000
0001
0000
,
0100
0000
0010
0000
,
1000
1000
1000
0000
,
0100
0000
0100
0000
,
0001
0001
0001
0000
,
0010
0000
0010
0000
,
1000
1000
1000
0000
,
0100
0000
0100
0000
,
0001
0001
0001
0000
,
1001
1000
0000
0010
,
0000
0001
0000
0010
,
0000
0100
0000
0100
,
0000
0010
0000
0010
,
0000
0001
0000
0100
,
0000
1000
0000
0100
,
0000
0001
0000
0010
,
0000
0100
0000
0000
,
0000
0000
1000
0000
,
1000
0000
0010
0000
,
0010
0000
0100
0000
,
0100
0000
0001
0000
,
0001
0000
0010
0000
,
0010
0000
0100
0000
,
0100
0000
1000
0000
,
0001
0000
0000
0000
,
0000
1000
1000
0000
,
0000
0001
0001
0000
,
0000
1000
1000
0000
,
0000
0010
0010
0000
,
0000
0001
0001
0000
,
0000
1000
1000
0000
,
0000
0100
0100
0000
,
0000
0010
0000
0000
,
0000
0000
0100
0000
,
0100
0000
0010
0000
,
0010
0000
1000
0000
,
0001
0000
0100
0000
,
0010
0000
0001
0000
,
0001
0000
1000
0000
,
1000
0000
0010
0000
,
0100
0000
0000
0000
,
0000
1000
0000
0100
,
0000
0001
0000
0010
,
0000
1000
0000
0100
,
0000
0001
0000
1000
,
0000
0001
0000
0100
,
0000
1000
0000
0010
,
0000
0001
0000
1000
,
0000
1001
0000
0000
,
0000
0010
0000
0010
,
0000
0100
0000
0100
,
0000
1000
1000
1000
,
0000
0001
0001
0001
,
0000
0100
0000
0100
,
0000
0010
0000
0010
,
0000
1000
0000
0001
,
0000
0100
0100
0100
,
0100
0110
0000
0000
;

//---------------dance-double - ----------------
#NOTES:
     dance-double:
     :
     Hard:
     8:
     0.593973,0.538625,0.519726,0.113395,0.000000,440.000000,385.000000,55.000000,12.000000,0.000000,0.000000,0.593973,0.538625,0.519726,0.113395,0.000000,440.000000,385.000000,55.000000,12.000000,0.000000,0.000000:
00000000
00000000
00000000
00000000
00010000
00010000
00011000
00000000
,
00000010
00000001
00000101
00001000
,
00001010
00000000
00000100
00000000
00011000
00000000
00010000
01000000
,
10000000
00010000
10000000
00100000
01000000
00001000
00010000
00000000
,
00100000
00000000
10000000
01000000
00100000
00000000
10010000
00000000
,
00100000
10000000
11000000
00010000
,
00110000
00000000
01000000
00000000
00011000
00000000
00001000
00000100
,
00000001
00000100
00000010
00001000
00000100
00010000
00002000
00000000
,
00013000
01010000
10000000
00100000
,
00010000
00001000
00000100
00000000
00001000
00010000
01000000
00000000
,
00011000
00000100
00011000
00000010
,
00000110
00000000
00001001
00000000
00000110
00000000
00000001
00000100
,
00001000
00001100
00000001
00000010
,
00001000
00010000
01000000
00000000
00010000
00001000
00000100
00000000
,
00011000
01000000
00011000
00100000
,
01100000
10010000
01100000
00000000
,
10000000
00010000
00000000
00010000
01000000
00100000
00000000
00010000
,
00001000
00000100
00000010
00001000
00000001
00000100
00000010
00000000
,
00001000
00000100
00000000
00000001
00000100
00000000
00000110
00000000
,
00000011
00000000
00000001
00000100
00000010
00001000
00000001
00000000
,
00000001
00001000
00000000
00001000
00000100
00000010
00000000
00001000
,
00010000
01000000
00100000
00010000
10000000
01000000
00100000
00000000
,
00010000
01000000
00000000
10000000
01000000
00000000
01100000
00000000
,
20020000
30030000
00000000
00000000
10000000
00000000
00000000
00000000
10100000
00000000
00000000
00000000
00010000
00000000
00001000
00000000
,
00010000
00000010
00001000
00000000
00000001
00000000
00000100
00000001
,
00001000
00000010
00010010
00000000
00000000
01001000
00000000
00000000
,
01010000
00000000
10000000
00100000
00010000
00001000
00000010
00000001
,
00001000
00000000
00000001
00000000
00000011
00000000
00001000
00010000
,
00001000
00100000
00010000
00000000
10000000
00000000
01000000
10000000
,
00010000
00100000
00101000
00000000
00000000
00010100
00000000
00000000
,
00001100
00000001
00001000
00010000
,
10000000
00000000
00010000
10000000
01000000
10000000
00010000
00100000
,
00001000
00000000
00010000
00000100
00000010
00000001
00001000
00000010
,
00000100
00000000
00000001
00000100
00000010
00010000
00001000
01000000
,
00010000
10000000
00100000
01000000
00001000
00010000
00000100
00000010
,
00000001
00000000
00001000
00000001
00000100
00000001
00001000
00000010
,
00010000
00000000
00001000
01000000
00100000
10000000
00010000
00100000
,
01000000
00000000
10000000
01000000
00100000
00001000
00010000
00000100
,
00001000
00000001
00000020
00000000
00000000
00000000
00000000
00000000
,
00000000
00000000
00000031
00000100
00000001
00001000
00000001
00000010
,
00000001
00000000
00001000
00000010
00001000
00000001
00001000
00000100
,
00001000
00000000
00010000
00100000
00010000
10000000
00010000
01000000
,
00010000
00000000
10000000
01000000
00100000
00010000
10000000
00000000
,
10010000
00000000
10000000
01000000
10000000
00010000
10000000
00100000
,
10000000
00000000
00010000
00100000
00010000
10000000
00010000
01000000
,
00010000
00000000
00001000
00000010
00001000
00000001
00001000
00000100
,
00001000
00002002
00000000
00000000
,
00003003
00000000
00000001
00000100
00001000
00010000
00100000
00000000
,
00000000
00000000
10000000
01000000
00100000
00000000
00010000
00000000
,
10010000
00000000
10000000
01000000
00010000
00001000
00000010
00000000
,
00000000
00000000
00000001
00000100
00000010
00000000
00001000
00000000
,
00001001
00000000
00000011
00000000
00000000
00001010
00000000
00000000
,
00010000
00000000
00001000
00010000
00100000
00000000
00010000
00001000
,
00000010
00000000
00001010
00000000
00000000
00011000
00000000
00000000
,
00100000
20020000
00000000
00000000
,
30030000
00000000
10000000
01000000
00100000
00010000
10000000
00100000
,
01000000
00000000
00001000
00010000
00000100
00000010
00000001
00001000
,
00000010
00000000
00001000
00000001
00000100
00000010
00010000
00001000
,
01000000
00010000
10000000
00100000
01000000
00001000
00010000
00000100
,
00001000
00000000
00000001
00000100
00000010
00001000
00000001
00000010
,
00000100
00000000
00010000
00001000
01000000
00100000
10000000
00010000
,
00100000
00001000
00010000
00000010
,
00001000
00002002
00000000
00000000
,
00003003
00000000
00000001
00000011
00000000
00001010
00000000
00010000
,
00001000
00000100
00001000
00000000
00010000
01000000
10000000
00010000
,
01000000
00000000
10100000
00000000
00000000
01010000
00000000
00100000
,
00001000
00010000
00000100
00000000
00000110
00000000
00001000
00010000
,
01000000
00000000
10000000
10100000
00000000
00110000
00000000
00001000
,
00010000
01000000
00010000
00000000
00001000
00000100
00000001
00001000
,
00000100
00000012
00001003
00002010
,
00003100
00010100
01001000
01010000
,
00100000
10010000
00000000
00000000
;

//---------------dance-double - ----------------
#NOTES:
     dance-double:
     :
     Medium:
     7:
     0.488677,0.504961,0.368533,0.066147,0.000000,362.000000,323.000000,39.000000,7.000000,0.000000,0.000000,0.488677,0.504961,0.368533,0.066147,0.000000,362.000000,323.000000,39.000000,7.000000,0.000000,0.000000:
00000000
00000000
00000000
00001000
,
00011000
01000000
01010000
00100000
,
10100000
00100000
00110000
00001000
,
00010000
00000000
00001000
00000100
00001000
00000000
00000100
00000000
,
00000001
00000000
00000010
00000001
00000010
00000000
00000100
00000000
,
00001000
00000000
00010000
00100000
00010000
00000000
10000000
00000000
,
01000000
20020000
30030000
10000000
,
00010000
01000000
00100000
01000000
00010000
00000000
01100000
00000000
,
10000000
01000000
00010000
00001000
,
00000010
00000001
00000010
00000000
00000100
00000000
00001001
00000000
,
00000001
00000100
00001000
00010000
,
00100000
10000000
00100000
00000000
01000000
00000000
10010000
00000000
,
10000000
00100000
00010000
00001000
,
00000100
00000001
00000100
00000000
00000010
00000000
00001001
00000000
,
00000001
00000010
00001000
00010000
,
01000000
10000000
01000000
00000000
00100000
00000000
10010000
00000000
,
10000000
01000000
00000000
01000000
00010000
00010000
00000000
00000000
,
00001000
00000100
00000001
00000010
,
00000001
00001000
00000000
00001000
00000100
00000000
00010100
00000000
,
00011000
00001010
00000011
00001001
,
00000001
00000100
00000000
00000100
00001000
00001000
00000000
00000000
,
00010000
01000000
10000000
00100000
,
10000000
00010000
00000000
00010000
01000000
00000000
01001000
00000000
,
00022000
00033000
00000000
00000000
00000100
00000000
00000000
00000000
00000100
00000000
00000000
00000000
00000001
00000000
00000010
00000000
,
00000001
00000000
00000100
00000000
00000100
00000000
00001000
00010000
,
00001000
00100000
10000000
00010000
,
01000000
00000000
10000000
00010000
10000000
00010000
10000000
00000000
,
10010000
00000000
01000000
00000000
01000000
00000000
10000000
00100000
,
10000000
00000000
01000000
00000000
01000000
00000000
00010000
00001000
,
00010000
00000010
00000001
00001000
,
00000100
00000000
00000001
00000010
00000001
00000010
00000100
00001000
,
00000100
00001000
00000100
00000000
00000110
00000000
00000001
00000000
,
00000100
00001000
00010000
00000000
01000000
00010000
00001000
00000000
,
00010000
00100000
10000000
00100000
,
00010000
00000000
00001000
00000000
00000100
00000001
00000100
00000001
,
00001000
00000100
00000110
00000001
,
00000010
00001000
00010000
00000000
00100000
00010000
00001000
00000000
,
00010000
01000000
10000000
01000000
,
00010000
00000000
00001000
00010000
00001000
00010000
00000010
00001000
,
00000010
00001000
00000001
00000000
00000100
00000000
00001000
00000000
,
00010000
00100000
10000000
00010000
,
10000000
01000000
00010000
00001000
,
00000010
00000001
00001000
00000001
,
00000100
00001000
00010000
00100000
,
10000000
00010000
10000000
01000000
,
00010000
00001000
00000010
00000001
,
00001000
00002002
00000000
00000000
,
00003003
00000000
00000001
00000100
00000000
00001000
00010000
00000000
,
00000010
00000000
00010000
00100000
10000000
00000000
01000000
00000000
,
10010000
00000000
10000000
01000000
00000000
00010000
00001000
00000000
,
00100000
00000000
00001000
00000010
00000001
00000000
00000100
00000000
,
00001001
00000000
00000011
00000000
00000000
00001100
00000000
00000000
,
00000010
00000000
00010000
01000000
10000000
00000000
00100000
00000000
,
01000000
00000000
10100000
00000000
00000000
01010000
00000000
00000000
,
00100000
00000000
00001000
00000100
00000001
00000000
00000020
00000000
,
00000000
00000000
00000031
00000000
00001000
00000000
00000100
00000010
,
00001000
00000000
00010000
00000000
01000000
10000000
00000000
10000000
,
00100000
00000000
01010000
00000000
00000000
10100000
00000000
00000000
,
10010000
00000000
10000000
01000000
00100000
00000000
00010000
01000000
,
00100000
00000000
10000000
00000000
00010000
00000000
01000000
00100000
,
00010000
00000000
00001000
00000000
00000100
00000001
00000000
00000001
,
00000010
00000000
00001100
00000000
00000000
00000011
00000000
00000000
,
00001001
00000000
00000010
00000001
00000010
00000100
00001000
00000000
,
00001100
00000000
00000010
00000010
00000000
00000000
00000001
00000000
,
00000100
00001000
00010000
00000000
00000000
01010000
00000000
00000000
,
11000000
00000000
00100000
00100000
00000000
00010000
00000000
10000000
,
01000000
00100000
00001000
00000000
00010000
00000000
01000000
00000000
,
10000000
00000000
00100000
00100000
00000000
00000000
10000000
00000000
,
01000000
00010000
00001000
00000000
00000000
00001100
00000000
00000000
,
00000101
00000000
00000010
00000010
00000000
00000000
00000100
00000100
,
00000000
00000001
00000100
00001000
,
00010000
01100000
00000000
00000000
;

//---------------dance-double - ----------------
#NOTES:
     dance-double:
     :
     Easy:
     4:
     0.338834,0.336641,0.188991,0.018899,0.000000,251.000000,231.000000,20.000000,2.000000,0.000000,0.000000,0.338834,0.336641,0.188991,0.018899,0.000000,251.000000,231.000000,20.000000,2.000000,0.000000,0.000000:
// measure 0
00000000
00000000
00000000
10000000
,  // measure 1
00100000
10000000
00100000
00010000
,  // measure 2
00100000
00010000
00100000
00010000
,  // measure 3
00001000
00010000
00001000
00010000
,  // measure 4
00001000
00000010
00001000
00000010
,  // measure 5
00001000
00000010
00000001
00000010
,  // measure 6
00000001
00000100
00000001
00000100
,  // measure 7
00000001
00000100
00001000
00011000
,  // measure 8
00100000
00100000
00100000
00100000
,  // measure 9
01000000
01000000
01000000
01000000
,  // measure 10
10000000
10000000
00010000
00010000
,  // measure 11
00100000
00001000
00010000
00000000
,  // measure 12
00000010
00000010
00000010
00000010
,  // measure 13
00000100
00000100
00000100
00000100
,  // measure 14
00000001
00000001
00001000
00001000
,  // measure 15
00000010
00010000
00001000
01000000
,  // measure 16
00010000
00010000
01010000
00000000
,  // measure 17
10000000
10000000
10100000
00000000
,  // measure 18
00010000
00010000
00011000
00000000
,  // measure 19
00000010
00000010
00000011
00000000
,  // measure 20
00001000
00001000
00001100
00000000
,  // measure 21
00000001
00000001
00000011
00000000
,  // measure 22
00001000
00001000
00011000
00000000
,  // measure 23
01100000
10000000
00010000
10000000
,  // measure 24
10000000
01000000
00000000
00010000
,  // measure 25
00010000
00001000
00000000
00000010
,  // measure 26
00000010
00000001
00000100
00001000
,  // measure 27
00000100
00000001
00001000
00000001
,  // measure 28
00000001
00000100
00000000
00001000
,  // measure 29
00001000
00010000
00000000
00100000
,  // measure 30
00100000
10000000
01000000
00010000
,  // measure 31
01000000
10000000
00000000
10000000
,  // measure 32
00000000
01000000
01000000
01000000
,  // measure 33
00000000
00010000
00000000
00010000
,  // measure 34
00000000
00001000
00000100
00000001
,  // measure 35
00001000
00000001
00000000
00000001
,  // measure 36
00000000
00000010
00000010
00000010
,  // measure 37
00000000
00001000
00000000
00001000
,  // measure 38
00000000
00010000
00100000
10000000
,  // measure 39
00010000
10000000
10000000
10000000
,  // measure 40
10000000
00010000
00100000
00001000
,  // measure 41
00000000
00000100
00000100
00000100
,  // measure 42
00000100
00000001
00001000
00000010
,  // measure 43
00000000
00010000
00010000
00010000
,  // measure 44
00010000
00001000
00100000
01000000
,  // measure 45
00000000
10000000
10000000
10000000
,  // measure 46
10000000
00100000
00010000
00001000
,  // measure 47
00000000
00000010
00000001
00001000
,  // measure 48
00000000
00000001
00000010
00001000
,  // measure 49
00000000
00010000
00000000
01000000
,  // measure 50
00000000
10000000
00100000
00010000
,  // measure 51
00000000
00001000
00000000
00000010
,  // measure 52
00000000
00000001
00000100
00001000
,  // measure 53
00000000
00010000
00000000
00100000
,  // measure 54
00000000
10000000
01000000
00010000
,  // measure 55
00000000
00011000
00000000
00001100
,  // measure 56
00000000
00000010
00000010
00000001
,  // measure 57
00000001
00001000
00000000
00010100
,  // measure 58
00000000
00001000
01000000
00100000
,  // measure 59
00010000
00011000
00000000
01010000
,  // measure 60
00000000
00100000
00100000
10000000
,  // measure 61
10000000
00010000
00000000
01001000
,  // measure 62
00000000
00022000
00000000
00000000
,  // measure 63
00033000
00000010
00000010
00000001
,  // measure 64
00000001
00000100
00000100
00001000
,  // measure 65
00001000
00011000
00000000
00110000
,  // measure 66
00000000
00010000
00100000
01000000
,  // measure 67
10000000
00100000
00100000
10000000
,  // measure 68
10000000
01000000
01000000
00010000
,  // measure 69
00010000
00011000
00000000
00001010
,  // measure 70
00000000
00000001
00000010
00000100
,  // measure 71
00001000
00000001
00000000
00000000
;
