#TITLE:Ooh La La;
#SUBTITLE:;
#ARTIST:Goldfrapp;
#TITLETRANSLIT:;
#SUBTITLETRANSLIT:;
#ARTISTTRANSLIT:;
#GENRE:;
#CREDIT:;
#BANNER:Ooh La La.png;
#BACKGROUND:Ooh La La-bg.png;
#LYRICSPATH:;
#CDTITLE:;
#MUSIC:Ooh La La.ogg;
#OFFSET:-0.635329;
#SAMPLESTART:89.712997;
#SAMPLELENGTH:15.000000;
#SELECTABLE:YES;
#BPMS:0.000000=144.589996
;
#STOPS:
;
#BGCHANGES:-0.500=Ooh La La.avi=1.000=1=0=0=StretchNoLoop==CrossFade==,
99999=-nosongbg-=1.000=0=0=0 // don't automatically add -songbackground-
;
#KEYSOUNDS:;
#ATTACKS:;

//---------------dance-single - ----------------
#NOTES:
     dance-single:
     :
     Beginner:
     1:
     0.070150,0.115272,0.008323,0.049937,0.000000,59.000000,58.000000,1.000000,6.000000,0.000000,0.000000,0.070150,0.115272,0.008323,0.049937,0.000000,59.000000,58.000000,1.000000,6.000000,0.000000,0.000000:
0000
0000
0000
0000
,
0000
0000
0000
0000
,
0000
0000
0000
0000
,
0000
0000
0000
0000
,
0010
0000
0000
0000
,
0000
0000
0000
0000
,
0100
0000
0000
0000
,
0000
0000
0000
0000
,
0001
0000
0000
0000
,
0000
0000
0000
0000
,
1000
0000
0000
0000
,
0000
0000
0000
0000
,
0000
0100
0000
0000
,
0000
0100
0000
0000
,
0000
0100
0000
0000
,
0000
0100
0000
0000
,
0000
0001
0000
0000
,
0000
0001
0000
0000
,
0000
1000
0000
0000
,
0000
1000
0000
0000
,
0000
0010
0000
0000
,
0000
0010
0000
0000
,
0000
0010
0000
0000
,
0000
0010
0000
0000
,
0000
1000
0000
0000
,
0000
1000
0000
0000
,
0000
0001
0000
0000
,
0002
0000
0003
0000
,
0100
0000
0000
0000
,
0100
0000
0000
0000
,
0010
0000
0000
0000
,
0020
0030
0000
0000
,
0100
0000
0000
0000
,
0100
0000
0000
0000
,
0010
0000
0000
0000
,
0020
0030
0000
0000
,
1000
0000
0000
0000
,
0000
0000
0000
0000
,
0001
0000
0000
0000
,
0000
0000
0000
0000
,
1000
0000
0000
0000
,
0000
0000
0000
0000
,
0010
0000
0000
0000
,
0000
0000
0000
0000
,
0100
0000
0000
0000
,
0000
0000
0000
0000
,
0000
0001
0000
0000
,
0000
0001
0000
0000
,
0000
1000
0000
0000
,
0000
1000
0000
0000
,
0000
0010
0000
0000
,
0000
0010
0000
0000
,
0000
0010
0000
0000
,
0010
0000
0010
0000
,
0010
0000
0000
0000
,
1000
0000
0000
0000
,
0100
0000
0000
0000
,
1000
0000
0000
0000
,
0010
0000
0000
0000
,
0001
0000
0000
0000
,
0100
0000
0000
0000
,
0001
0000
0000
0000
,
1000
0000
0000
0000
,
0001
0000
0000
0000
,
1000
0000
0000
0000
,
0002
0000
0003
0000
,
1000
0000
0000
0000
,
0001
0000
0000
0000
,
1000
0000
0000
0000
,
0220
0330
0000
0000
;

//---------------dance-single - ----------------
#NOTES:
     dance-single:
     :
     Easy:
     3:
     0.168835,0.260297,0.000000,0.083229,0.000000,142.000000,142.000000,0.000000,10.000000,0.000000,0.000000,0.168835,0.260297,0.000000,0.083229,0.000000,142.000000,142.000000,0.000000,10.000000,0.000000,0.000000:
0000
0000
0000
0000
,
0000
0000
0000
0000
,
0000
0000
0000
0000
,
0000
0000
0000
0000
,
0001
0000
0000
0000
,
0001
0000
1000
0000
,
0020
0000
0000
0030
,
0100
0000
0000
0000
,
0001
0000
0000
0000
,
1000
0000
0100
0000
,
0020
0000
0030
0000
,
0001
0000
0000
0000
,
1000
0001
1000
0000
,
0010
0100
0010
0000
,
1000
0010
1000
0000
,
0001
0100
0001
0000
,
1000
0000
0001
0000
,
0010
0000
0100
0000
,
1000
0000
0010
0000
,
0200
0000
0300
0000
,
0001
0001
0001
0000
,
1000
1000
1000
0000
,
0100
0100
0100
0000
,
0010
0010
0010
0000
,
0001
0000
1000
0000
,
0010
0000
1000
0000
,
0100
0000
0010
0000
,
0001
0000
0000
0000
,
1000
1000
1000
1000
,
0001
0001
0000
0000
,
0010
0010
0010
0000
,
0020
0000
0030
0000
,
0100
0100
0100
0100
,
0010
0010
0000
0000
,
1000
1000
1000
0000
,
0002
0003
0000
0000
,
2000
0000
0000
0000
,
0000
0000
0000
3000
,
0001
0000
0001
0000
,
1000
0000
1000
0000
,
0010
0000
0010
0000
,
0100
0000
0100
0000
,
0001
0000
1000
0000
,
0001
0000
1000
0000
,
0010
0000
0100
0000
,
0010
0000
0100
0000
,
0001
0000
0000
0001
,
0001
0000
0000
0000
,
1000
0000
0000
1000
,
1000
0000
0000
0000
,
0010
0000
1000
0000
,
0100
0000
0010
0000
,
0001
0000
0000
0000
,
1000
0001
1000
0001
,
0100
0100
0100
0100
,
0010
0010
0000
0000
,
1000
1000
1000
0000
,
0002
0000
0003
0000
,
0010
0010
0010
0010
,
0100
0100
0000
0000
,
1000
1000
1000
0000
,
0002
0000
0003
0000
,
1000
1000
0100
0100
,
0010
0010
0000
0000
,
0001
0001
0100
0100
,
0020
0000
0030
0000
,
1000
1000
0010
0010
,
0100
0100
0000
0000
,
0001
0001
0010
0010
,
0200
0000
0300
0000
;

//---------------dance-single - ----------------
#NOTES:
     dance-single:
     :
     Medium:
     6:
     0.378096,0.433829,0.307946,0.516017,0.166457,318.000000,281.000000,37.000000,62.000000,0.000000,0.000000,0.378096,0.433829,0.307946,0.516017,0.166457,318.000000,281.000000,37.000000,62.000000,0.000000,0.000000:
0000
0000
0000
0000
,
0000
0000
0000
0000
,
0000
0000
0000
0000
,
0000
0000
0000
0000
,
0001
0101
0001
0101
,
1000
1100
1000
1100
,
0001
0011
0001
0011
,
1000
1010
1000
1010
,
0001
0000
0001
1000
0000
1000
0001
0000
0000
0100
0000
0000
,
0010
0000
0010
0100
0000
0100
0010
0000
0000
1000
0000
0000
,
0001
0000
0000
1000
0000
0000
0100
0000
0010
0001
0000
1000
,
0020
0000
0100
0130
,
0010
1010
1000
1001
,
1000
1100
2000
3001
,
0001
0011
0001
1001
,
0001
0101
0002
1003
,
1000
0000
1000
0001
0000
0000
0001
0000
0001
1000
0000
0000
,
1000
0000
1000
0001
0000
0000
0001
0000
0001
1000
0000
0000
,
0001
0100
0010
1000
,
0001
0000
0000
1000
0000
0100
0010
0000
0010
0100
0000
0100
,
0010
0101
0001
1001
,
0001
0011
0002
1003
,
1000
1100
1000
1001
,
1000
1010
2000
3001
,
1000
0000
0000
0100
0000
1000
0001
0000
0000
0100
0000
0000
,
0001
0000
0000
1000
0000
0010
0100
0000
0000
0001
0000
0000
,
1000
0100
0010
0001
,
2000
0000
0000
0000
0000
0000
3000
0000
0000
0001
0000
0001
,
2000
3200
0320
0032
,
1003
0000
0000
1001
0000
0000
1000
0000
1000
0010
0000
0010
,
2000
3020
0230
0301
,
1001
0000
0000
0000
0000
0000
0001
0000
0001
1000
0000
1000
,
0002
0203
0320
2030
,
3001
0000
0000
1001
0000
0000
0000
0000
1000
0010
0000
0100
,
0002
0023
0230
1300
,
1001
0000
0001
0001
,
2000
3002
2003
3002
,
2003
3002
2003
3002
,
1003
0010
0100
0001
,
1000
0000
0000
0100
0000
0000
0010
0000
0000
0001
0000
1000
,
0010
0100
0001
1000
,
0020
0000
0000
0000
0000
0030
0000
0000
0000
0000
0000
0000
,
0100
0001
1000
0100
,
0010
0000
0000
0001
0000
0000
1000
0000
0000
0010
0000
1000
,
0100
0010
0001
0100
,
0002
0000
0000
0000
0000
0003
0000
0000
0000
0000
0000
0000
,
1000
1100
1000
1001
,
1000
1010
2000
3001
,
0001
0101
0001
1001
,
0001
0011
0002
1003
,
1000
0000
0000
0010
0000
0000
0100
0000
0000
0001
0000
0010
,
0000
0000
0000
0100
0000
1000
0000
0000
1000
0000
0000
0000
,
0010
0010
0010
0010
,
1000
0000
0001
1000
0000
0001
1000
0000
0001
1000
0000
0001
,
2000
3200
0320
0031
,
0101
0000
0000
0101
0000
0000
0000
0000
0000
0001
0000
0001
,
0020
0230
2300
3001
,
1001
0000
0000
0000
0000
0000
0000
0000
0001
1000
0000
1000
,
0002
0203
0320
1030
,
1010
0000
0000
1010
0000
0000
0000
0000
0000
1000
0000
1000
,
0200
0320
0032
1003
,
1001
0000
0000
0000
0000
0000
0010
0000
1000
0100
0000
0000
,
2000
3200
0320
0032
,
0103
0000
0000
0010
0000
0000
1000
0000
0001
1000
0000
0001
,
0200
0320
2030
3200
,
0310
0000
0000
0001
0000
0000
0100
0000
0000
0001
0000
0010
,
0200
2300
3020
0230
,
0302
0000
0000
1003
0000
0000
0100
0000
0000
0010
0000
0001
,
0200
0320
2030
3001
,
2002
0000
3003
0000
;

//---------------dance-single - ----------------
#NOTES:
     dance-single:
     :
     Hard:
     8:
     0.461324,0.491673,0.391174,0.341237,0.495210,388.000000,341.000000,47.000000,41.000000,0.000000,0.000000,0.461324,0.491673,0.391174,0.341237,0.495210,388.000000,341.000000,47.000000,41.000000,0.000000,0.000000:
0000
0000
0000
0000
,
0000
0000
0000
0000
,
0000
0000
0000
0000
,
0000
0000
0000
0000
,
1000
0000
0000
1100
0000
0000
1000
0000
1000
0100
0000
0000
,
0001
0000
0000
0101
0000
0000
0001
0000
0001
0100
0000
0000
,
1000
0000
0000
1010
0000
0000
1000
0000
1000
0010
0000
0000
,
0001
0000
0000
0011
0000
0000
0001
0000
0001
0010
0000
0000
,
1000
0000
1000
0100
0000
0100
0010
0000
0000
0011
0000
0000
,
0001
0000
0001
0100
0000
0100
0010
0000
0000
1010
0000
0000
,
1000
0000
1000
0001
0000
0001
1000
0000
0000
1001
0000
0000
,
0100
0000
0100
0010
0000
0010
0100
0000
0000
0110
0000
0000
,
1000
0000
0000
0101
0000
0000
0001
0000
0100
0010
0000
0020
,
0000
1000
1000
1030
,
0001
0000
0000
1100
0000
0000
1000
0000
0100
0010
0000
0020
,
0000
0001
0001
0031
,
1000
0000
0000
1100
0000
0000
0101
0000
0000
0001
0000
0010
,
0000
0000
0000
1000
0000
0100
0000
0000
0100
0000
0000
0000
,
0001
0000
0000
1001
0000
0000
1000
0000
0001
0000
0000
1001
,
0000
0000
0000
0000
0000
1000
0001
0000
0001
1000
0000
1000
,
0100
0000
0000
2000
0000
0000
0000
0000
3100
0000
0000
1100
,
0000
0000
0000
0000
0000
0010
0100
0000
0100
0010
0000
0010
,
0001
0000
0000
0002
0000
0000
0000
0000
0103
0000
0000
0101
,
0000
0000
0000
0000
0000
0001
1000
0000
1000
0001
0000
0001
,
1000
0000
0000
1010
0000
0000
0011
0000
0000
0001
0000
1000
,
0000
0000
1000
0000
0000
0010
0000
0000
0010
0000
0000
0000
,
0100
0000
0000
0101
0000
0000
1000
0000
0001
0000
0000
1001
,
0000
0000
0000
1000
0001
1000
0001
0000
1000
0001
0000
0001
,
2000
3020
0230
0301
,
0110
0000
0000
1001
0000
0000
0000
0000
0100
1000
0000
1000
,
0002
0000
0000
0023
0000
0000
0130
0000
0100
0000
0000
0110
,
0000
0000
0000
1000
0000
0000
0001
0000
1000
0100
0000
0010
,
0002
2003
3020
0130
,
0101
0000
0000
1010
0000
0000
0000
0000
0001
0100
0000
0010
,
1000
0000
0000
0002
0000
0000
1003
0000
1100
0000
0000
0011
,
0000
0100
0001
1000
,
0100
0000
1000
0100
0000
1000
0100
0000
1000
0100
0000
0010
,
0001
0000
0100
0001
0000
0100
0001
0000
0100
0001
0000
0000
,
1000
0000
0000
1100
0000
0000
1000
0000
1000
0100
0000
0000
,
0001
0000
0000
0101
0000
0000
0001
0000
0001
0100
0000
0000
,
0001
0000
0010
0100
0000
1000
0010
0000
0100
0001
0000
0000
,
0210
0010
1000
0301
,
0001
0000
0000
0011
0000
0000
0001
0000
0001
0010
0000
0000
,
1000
0000
0000
1010
0000
0000
1000
0000
1000
0010
0000
0000
,
1000
0000
0010
0100
0000
0001
0010
0000
0100
1000
0000
0000
,
1002
0100
0010
1003
,
1000
0000
0001
0100
0000
0000
0010
0000
1000
0100
0000
0000
,
0010
0000
0001
0100
0000
0010
0100
0000
0001
1000
0000
0000
,
0100
0000
0010
0001
0000
0000
0100
0000
0010
1000
0000
0000
,
0100
0000
0010
0001
0000
0100
0010
0000
1000
0100
0000
0000
,
1000
0000
0000
0002
0000
0000
0023
0000
0000
0130
0000
2000
,
0000
0000
0000
3010
0000
0100
0000
0000
0101
0000
0000
0000
,
0010
0000
1000
0100
0000
0000
0010
0000
0001
0100
0000
0000
,
0010
1000
0010
0100
0001
0100
0010
0000
1000
0100
0000
0010
,
0002
0023
0230
1300
,
0101
0000
0000
1100
0000
0000
0001
0000
1000
0010
0000
0100
,
0002
0000
0000
0023
0000
0000
0130
0000
1000
0000
0000
1001
,
0000
0000
0001
1000
0000
0100
0010
0000
0001
0100
0000
0010
,
2000
3020
0230
0301
,
0011
0000
0000
1010
0000
0000
1000
0000
0001
0100
0000
0001
,
2000
0000
0000
3020
0000
0000
0130
0000
0001
0000
0000
1001
,
0000
0000
0000
0010
0000
0000
1000
0001
1000
0001
0100
0010
,
2000
3020
0230
0301
,
1100
0000
0000
0101
0000
0000
0010
0000
1000
0100
0000
0010
,
0002
0000
0000
2003
0000
0000
3020
0000
0130
0000
0000
0110
,
0000
0000
0000
0001
0000
1000
0010
0000
0100
0001
0000
1000
,
0200
0320
0032
2003
,
3020
0000
0000
0130
0000
0000
0001
0000
0100
0010
0000
1000
,
0100
0000
0000
0011
0000
0000
1100
0000
1001
0000
0000
0220
,
0000
0000
0330
0000
;

//---------------dance-double - ----------------
#NOTES:
     dance-double:
     :
     Hard:
     8:
     0.443490,0.495210,0.307946,0.124843,0.486887,373.000000,336.000000,37.000000,15.000000,0.000000,0.000000,0.443490,0.495210,0.307946,0.124843,0.486887,373.000000,336.000000,37.000000,15.000000,0.000000,0.000000:
00000000
00000000
00000000
00000000
,
00000000
00000000
00000000
00000000
,
00000000
00000000
00000000
00000000
,
00000000
00000000
00000000
00000000
,
10000000
00010000
00000000
00010000
,
00001000
00010000
00000000
00001000
,
00000001
00001000
00000000
00000001
,
00000100
00000000
00000000
00001000
00000000
00000000
00010000
00000000
00010000
00100000
00000000
00000000
,
10000000
00010000
00000000
00010000
,
00001000
00010000
00000000
00001000
,
00000001
00001000
00000000
00000001
,
00000100
00000000
00000000
00001000
00000000
00000000
00010000
00000000
00010000
00100000
00000000
00000000
,
10000000
00000000
10000000
01000000
00000000
00000000
00010000
00000000
00001000
00000000
00000000
00000010
,
00000000
00000000
00000001
00000010
00000000
00000000
00000100
00000000
00000100
00000010
00000000
00000000
,
00000001
00000000
00000001
00000100
00000000
00000000
00001000
00000000
00010000
00000000
00000000
00100000
,
00000000
00000000
10000000
00100000
00000000
00000000
10000000
00000000
10000000
01000000
10000000
01000000
,
00010000
00000000
00000000
00001000
00000000
00000000
00010000
00000000
00001000
00000010
00000000
00000001
,
00000000
00000000
00000000
00000100
00000000
00000010
00000000
00000000
00001000
00000000
00000000
00000000
,
00010000
00000000
00000000
10000000
00000000
00000000
01000000
00000000
00000000
00010000
00000000
00001000
,
00000000
00000000
00000100
00000010
00000000
00000000
00001000
00000000
00001000
00000001
00000000
00000001
,
00000010
00000000
00000000
00000011
00000000
00000001
00000100
00000000
00001000
00000000
00000000
00010000
,
00100000
00000000
00100000
10000000
00000000
00000000
00010000
00100000
01000000
10000000
00000000
10000000
,
00100000
00000000
00000000
10100000
00000000
10000000
01000000
00000000
00010000
00000000
00000000
00001000
,
00000010
00000000
00000010
00000001
00000000
00000000
00001000
00000010
00000100
00000001
00000000
00000001
,
00000010
00000000
00000000
00000001
00000000
00000001
00000100
00000000
00000100
00001000
00000000
00001000
,
00010000
00000000
00010000
00100000
00000000
00100000
10000000
00000000
10000000
00010000
00000000
00000000
,
10010000
00000000
10000000
01000000
00000000
00000000
00010000
00000000
00010000
00001000
00000000
00000000
,
00000010
00000000
00000010
00000001
00000100
00000010
00000000
00000000
00001000
00000001
00000000
00000000
,
00002000
00000100
00000001
00000010
,
00013000
00000000
00000000
01010000
00000000
00000000
00000000
00000000
01000000
00100000
00000000
00000000
,
10020000
00000000
00000000
01000000
00000000
00000000
10000000
00000000
00100000
00000000
00000000
00001000
,
00030000
00000000
00010000
00001000
00000000
00000000
00000001
00000000
00000010
00000100
00000000
00000000
,
00002000
00000010
00000001
00000100
,
00013000
00000000
00000000
00110000
00000000
00000000
00000000
00000000
00100000
01000000
00000000
00000000
,
10020000
00000000
00000000
00100000
00000000
00000000
10000000
00000000
01000000
00000000
00000000
00001000
,
00030000
00000000
00010000
00001000
00000010
00001000
00000100
00000010
00000001
00000100
00000010
00001000
,
00000200
00000000
00000000
00000000
,
00000020
00000000
00000000
00000330
,
00001000
00000000
00000000
00001001
00000000
00000000
00000001
00000000
00000000
00000011
00000000
00000010
,
00001000
00011000
01000000
10010000
,
10000000
00000000
10000000
01000000
00000000
00000000
00100000
00000000
00100000
00010000
00000000
00000000
,
00001000
00000000
00000000
00001001
00000000
00000000
00000001
00000010
00000100
00001000
00000000
00000000
,
00010000
00000000
00000000
10010000
00000000
00000000
10000000
00000000
00000000
10100000
00000000
00100000
,
00010000
00011000
00000100
00001001
,
00000001
00000000
00000001
00000100
00000000
00000000
00000010
00000000
00000010
00001000
00000000
00000000
,
00010000
00000000
00000000
10010000
00000000
00000000
10000000
00100000
01000000
00010000
00000000
00010000
,
10000000
00000000
10000000
01000000
00000000
00000000
00010000
00000000
00001000
00000000
00000000
00000010
,
00000000
00000000
00000001
00000010
00000000
00000000
00000100
00000000
00000100
00000010
00000000
00000000
,
00000001
00000000
00000001
00000100
00000000
00000000
00001000
00000000
00010000
00000000
00000000
00100000
,
00000000
00000000
10000000
00100000
00000000
00000000
10000000
00000000
10000000
01000000
10000000
01000000
,
00010000
00000000
00000000
00001000
00000000
00000000
00010000
00000000
00001000
00000010
00000000
00000001
,
00000000
00000000
00000000
00000100
00000000
00000010
00000000
00000000
00001000
00000000
00000000
00000000
,
00020000
00000000
00000000
00000000
,
10030000
01000000
00100000
00010000
01000000
00100000
10000000
00000000
00010000
10000000
00000000
00000000
,
00020000
01000000
10000000
00100000
,
00031000
00000000
00000000
00001100
00000000
00000000
00000000
00000000
00000100
00000010
00000000
00000000
,
00002001
00000000
00000000
00000100
00000000
00000000
00000001
00000000
00000010
00000000
00000000
00010000
,
00003000
00000000
00001000
00010000
00000000
00010000
10000000
00000000
00100000
01000000
00000000
00000000
,
00020000
00100000
10000000
01000000
,
00031000
00000000
00000000
00001010
00000000
00000000
00000000
00000000
00000010
00000100
00000000
00000000
,
00002001
00000000
00000000
00000010
00000000
00000000
00000001
00000000
00000100
00000000
00000000
00010000
,
00003000
00000000
00001000
00010000
00000000
00010000
10000000
00000000
01000000
00100000
00000000
00000000
,
00110000
10100000
11000000
01010000
,
00001010
00000000
00000000
00001001
00000000
00000000
00000100
00000000
00000100
00000010
00000000
00000000
,
00000011
00000000
00000000
00001001
00000000
00000000
00000001
00000000
00000001
00000010
00000000
00000010
,
00001000
00010000
00000010
00010000
00000000
00001000
00000000
00000000
00000100
00000010
00000000
00000000
,
00001010
00000011
00000101
00001100
,
00110000
00000000
00000000
10010000
00000000
00000000
01000000
00000000
01000000
00100000
00000000
00000000
,
10100000
00000000
00000000
10010000
00000000
00000000
10000000
00000000
10000000
00100000
00000000
00100000
,
00020000
00032000
00003200
00000302
,
00000013
00000000
00000000
00000000
;

//---------------dance-double - ----------------
#NOTES:
     dance-double:
     :
     Medium:
     6:
     0.336481,0.433829,0.249686,0.516017,0.224717,283.000000,253.000000,30.000000,62.000000,0.000000,0.000000,0.336481,0.433829,0.249686,0.516017,0.224717,283.000000,253.000000,30.000000,62.000000,0.000000,0.000000:
00000000
00000000
00000000
00000000
,
00000000
00000000
00000000
00000000
,
00000000
00000000
00000000
00000000
,
00000000
00000000
00000000
00000000
,
00010000
00001000
00000000
00001000
,
00000010
00000001
00000000
00000001
,
00000100
00001000
00000000
00010000
,
00100000
00000000
00000000
10000000
00000000
00000000
00010000
00000000
00010000
00100000
00000000
00000000
,
00001000
00010000
00000000
00010000
,
00100000
10000000
00000000
10000000
,
01000000
00010000
00000000
00001000
,
00000010
00000000
00000000
00000001
00000000
00000000
00001000
00000000
00001000
00000010
00000000
00000000
,
00010000
00000000
00010000
00001000
00000000
00000000
00000000
00000000
00100000
00000000
00000000
00010000
,
00000000
10000000
11000000
01010000
,
00001000
00000000
00001000
00010000
00000000
00000000
00000000
00000000
00000100
00000000
00000000
00001000
,
00000000
00000001
00000011
00001010
,
00010000
00100000
10000000
01000000
,
00010000
00001000
00000010
00000001
,
00001000
00001100
00000100
00010100
,
00010000
00000000
00000000
00011000
00000000
00000000
00001000
00000000
00001000
00100000
00000000
00100000
,
00001000
00000000
00001000
00010000
00000000
00000000
00000000
00000000
00000010
00000000
00000000
00001000
,
00000000
00000001
00000101
00001100
,
00010000
00000000
00010000
00001000
00000000
00000000
00000000
00000000
01000000
00000000
00000000
00010000
,
00000000
10000000
10100000
00110000
,
00001000
00000010
00000001
00000100
,
00001000
00010000
00100000
10000000
,
10010000
00000000
00000000
00020000
00000000
00000000
00000000
00000000
20030000
00000000
00000000
32000000
,
00000000
00000000
03000000
00010000
00001000
00010000
00000000
00000000
00000010
00002000
00000000
00000000
,
00003002
00000023
00000230
00002300
,
00023000
00000000
00000000
00230000
00000000
00000000
00300000
00000000
01000000
10000000
00000000
00000000
,
00020000
00000000
00000000
20030000
00000000
00000000
01000000
00000000
31000000
00000000
00000000
10010000
,
00000000
00000000
00000000
01001000
00000000
00000000
00110000
00000000
00100000
00020000
00000000
00000000
,
20030000
32000000
03200000
00320000
,
00032000
00000000
00000000
00003200
00000000
00000000
00000300
00000000
00000010
00000001
00000000
00000000
,
00002000
00000000
00000000
00003002
00000000
00000000
00000100
00000000
00000103
00000000
00000000
00001001
,
00000000
00000000
00000001
00000010
,
00002000
00000000
00000000
00000000
,
00020000
00000000
00000000
00033000
,
00001000
00010000
00000000
00010000
,
00100000
10000000
00000000
10000000
,
01000000
00010000
00000000
00001000
,
00000010
00000000
00000000
00000001
00000000
00000000
00001000
00000000
00001000
00000010
00000000
00000000
,
00010000
00001000
00000000
00001000
,
00000010
00000001
00000000
00000001
,
00000100
00001000
00000000
00010000
,
00100000
00000000
00000000
10000000
00000000
00000000
00010000
00000000
00010000
00100000
00000000
00000000
,
00001000
00000000
00001000
00010000
00000000
00000000
00000000
00000000
00000010
00000000
00000000
00001000
,
00000000
00000001
00000101
00001100
,
00010000
00000000
00010000
00001000
00000000
00000000
00000000
00000000
01000000
00000000
00000000
00010000
,
00000000
10000000
10100000
00110000
,
00001000
00000010
00000001
00000100
,
00001000
00010000
00100000
10000000
,
00020000
00000000
00000000
00000000
,
10030000
00000000
10000000
00010000
00000000
00010000
00100000
00000000
00100000
00020000
00000000
00000000
,
20030000
30200000
02300000
03020000
,
00032000
00000000
00000000
00003020
00000000
00000000
00000030
00000000
00000100
00000001
00000000
00000000
,
00002000
00000000
00000000
00003002
00000000
00000000
00000100
00000000
00000103
00000000
00000000
00001001
,
00000000
00000000
00000000
00010100
00000000
00000000
00001010
00000000
00000010
00002000
00000000
00000000
,
00003002
00000203
00000320
00002030
,
00023000
00000000
00000000
02030000
00000000
00000000
03000000
00000000
00100000
10000000
00000000
00000000
,
00020000
00000000
00000000
20030000
00000000
00000000
01000000
00000000
31000000
00000000
00000000
10010000
,
00000000
00000000
00000000
00110000
00000000
00000000
01001000
00000000
01000000
00020000
00000000
00000000
,
20030000
32000000
03200000
00320000
,
00032000
00000000
00000000
00003200
00000000
00000000
00000300
00000000
00000010
00000001
00000000
00000000
,
00002000
00000000
00000000
00003002
00000000
00000000
00000010
00000000
00000013
00000000
00000000
00001001
,
00000000
00000000
00000000
00010010
00000000
00000000
00001100
00000000
00000100
00002000
00000000
00000000
,
00003002
00000203
00000320
00002030
,
00023000
00000000
00000000
02030000
00000000
00000000
03000000
00000000
00100000
10000000
00000000
00000000
,
00020000
00000000
00000000
20030000
00000000
00000000
00100000
00000000
30100000
00000000
00000000
20020000
,
00000000
00000000
30030000
00000000
;

//---------------dance-double - ----------------
#NOTES:
     dance-double:
     :
     Easy:
     3:
     0.174780,0.231376,0.016646,0.091551,0.000000,147.000000,145.000000,2.000000,11.000000,0.000000,0.000000,0.174780,0.231376,0.016646,0.091551,0.000000,147.000000,145.000000,2.000000,11.000000,0.000000,0.000000:
// measure 0
00000000
00000000
00000000
00000000
,  // measure 1
00000000
00000000
00000000
00000000
,  // measure 2
00000000
00000000
00000000
00000000
,  // measure 3
00000000
00000000
00000000
00000000
,  // measure 4
00010000
00000000
00000000
00000000
,  // measure 5
00010000
00000000
00001000
00000000
,  // measure 6
00200000
00000000
00000000
00300000
,  // measure 7
01000000
00000000
00000000
00000000
,  // measure 8
10000000
00000000
00000000
00000000
,  // measure 9
10000000
00000000
01000000
00000000
,  // measure 10
00020000
00000000
00030000
00000000
,  // measure 11
00001000
00000000
00000000
00000000
,  // measure 12
00000010
00000001
00000010
00000000
,  // measure 13
00000001
00000100
00000001
00000000
,  // measure 14
00000100
00001000
00000100
00000000
,  // measure 15
00001000
00010000
00001000
00000000
,  // measure 16
00010000
00000000
00100000
00000000
,  // measure 17
10000000
00000000
01000000
00000000
,  // measure 18
00100000
00000000
00010000
00000000
,  // measure 19
00002000
00000000
00003000
00000000
,  // measure 20
00000001
00000001
00000001
00000000
,  // measure 21
00000100
00000100
00000100
00000000
,  // measure 22
00001000
00001000
00001000
00000000
,  // measure 23
00010000
00010000
00010000
00000000
,  // measure 24
00001000
00000000
00000010
00000000
,  // measure 25
00000001
00000000
00000100
00000000
,  // measure 26
00000010
00000000
00001000
00000000
,  // measure 27
00010000
00000000
00000000
00000000
,  // measure 28
10000000
10000000
10000000
10000000
,  // measure 29
00010000
00010000
00000000
00000000
,  // measure 30
00100000
00100000
00100000
00000000
,  // measure 31
00002000
00000000
00003000
00000000
,  // measure 32
00010000
00010000
00010000
00010000
,  // measure 33
00001000
00001000
00000000
00000000
,  // measure 34
00000010
00000010
00000010
00000000
,  // measure 35
00000002
00000000
00000003
00000000
,  // measure 36
00002000
00000000
00000000
00000000
,  // measure 37
00000000
00000000
00000000
00003000
,  // measure 38
00000001
00000010
00000000
00000010
,  // measure 39
00000000
00000100
00000000
00000100
,  // measure 40
00000000
00001000
00000000
00001000
,  // measure 41
00010000
00000000
10010000
00000000
,  // measure 42
10000000
00100000
00000000
00100000
,  // measure 43
00000000
01000000
00000000
01000000
,  // measure 44
00000000
00010000
00000000
00010000
,  // measure 45
00001000
00000000
00001001
00000000
,  // measure 46
00000100
00000001
00000100
00000000
,  // measure 47
00000001
00000010
00000001
00000000
,  // measure 48
00000010
00001000
00000010
00000000
,  // measure 49
00001000
00010000
00001000
00000000
,  // measure 50
00010000
00000000
01000000
00000000
,  // measure 51
10000000
00000000
00100000
00000000
,  // measure 52
02000000
00000000
00000000
00000000
,  // measure 53
03010000
00000000
00000000
00000000
,  // measure 54
10000000
10000000
10000000
10000000
,  // measure 55
00010000
00010000
00000000
00000000
,  // measure 56
01000000
01000000
01000000
00000000
,  // measure 57
00002000
00000000
00003000
00000000
,  // measure 58
00010000
00010000
00010000
00010000
,  // measure 59
00001000
00001000
00000000
00000000
,  // measure 60
00000100
00000100
00000100
00000000
,  // measure 61
00000002
00000000
00000003
00000000
,  // measure 62
00000001
00000001
00000001
00000001
,  // measure 63
00001000
00001000
00000000
00000000
,  // measure 64
00000100
00000100
00000100
00000000
,  // measure 65
00020000
00000000
00030000
00000000
,  // measure 66
00001000
00001000
00001000
00001000
,  // measure 67
00010000
00010000
00000000
00000000
,  // measure 68
01000000
01000000
01000000
00000000
,  // measure 69
20000000
00000000
30000000
00000000
;
