#TITLE:ORION.78 (B4 ZA BEAT MIX);
#SUBTITLE:;
#ARTIST:Dynamite Grizzly;
#TITLETRANSLIT:;
#SUBTITLETRANSLIT:;
#ARTISTTRANSLIT:;
#GENRE:;
#CREDIT:;
#BANNER:ORION.78 (B4 ZA BEAT MIX).png;
#BACKGROUND:ORION.78 (B4 ZA BEAT MIX)-bg.png;
#LYRICSPATH:;
#CDTITLE:;
#MUSIC:ORION.78 (B4 ZA BEAT MIX).ogg;
#OFFSET:-5.819210;
#SAMPLESTART:69.169998;
#SAMPLELENGTH:15.000000;
#SELECTABLE:YES;
#BPMS:0.000000=170.479996
;
#STOPS:
;
#BGCHANGES:;
#KEYSOUNDS:;
#ATTACKS:;

//---------------dance-single - ----------------
#NOTES:
     dance-single:
     :
     Beginner:
     2:
     0.113768,0.155701,0.040840,0.000000,0.000000,78.000000,74.000000,4.000000,0.000000,0.000000,0.000000,0.113768,0.155701,0.040840,0.000000,0.000000,78.000000,74.000000,4.000000,0.000000,0.000000,0.000000:
0000
0000
0000
0000
,
1000
0000
0000
0000
,
0001
0000
0000
0000
,
1000
0000
0000
0000
,
1001
0000
0000
0000
,
0100
0000
0000
0000
,
0010
0000
0000
0000
,
0100
0000
0100
0000
,
0100
0000
0000
0000
,
0001
0000
0000
0000
,
1000
0000
0000
0000
,
0001
0000
0001
0000
,
0001
0000
0000
0000
,
1000
0000
0000
0000
,
0100
0000
0000
0000
,
1000
0000
1000
0000
,
1000
0000
0000
0000
,
0001
0000
0000
0000
,
0010
0000
0000
0000
,
0001
0000
0001
0000
,
0001
0000
0000
0000
,
0100
0000
0000
0000
,
0010
0000
0000
0000
,
0100
0000
0010
0000
,
0100
0000
0000
0000
,
0001
0000
0000
0000
,
1000
0000
0000
0000
,
0001
0000
1000
0000
,
0001
0000
0000
0000
,
1001
0000
0000
0000
,
0100
0000
0000
0000
,
0010
0000
0000
0000
,
0001
0000
0000
0000
,
0100
0000
0000
0000
,
0010
0000
0000
0000
,
1000
0000
0000
0000
,
0001
0000
0000
0000
,
0010
0000
0000
0000
,
0100
0000
0000
0000
,
1000
0000
0000
0000
,
0001
0000
0000
0000
,
0100
0000
0000
0000
,
0010
0000
0000
0000
,
1000
0000
0000
0000
,
0001
0000
1000
0000
,
1001
0000
0000
0000
,
0001
0000
1000
0000
,
0001
0000
0000
0000
,
0010
0000
0100
0000
,
0010
0000
0000
0000
,
0100
0000
1000
0000
,
0100
0000
0000
0000
,
1000
0000
1000
0000
,
1000
0000
0000
0000
,
0001
0000
0000
0000
,
0100
0000
0010
0000
,
0100
0000
0000
0000
,
0001
0000
0000
0000
,
0010
0000
0000
0100
,
0000
0000
0010
0000
,
0100
0000
0000
0000
,
1001
0000
0000
0000
;

//---------------dance-single - ----------------
#NOTES:
     dance-single:
     :
     Easy:
     5:
     0.425899,0.498244,0.694274,0.000000,0.000000,292.000000,224.000000,68.000000,0.000000,0.000000,0.000000,0.425899,0.498244,0.694274,0.000000,0.000000,292.000000,224.000000,68.000000,0.000000,0.000000,0.000000:
0000
0000
0000
0000
,
1000
0000
1000
0000
,
0001
0000
0001
0000
,
0100
0000
0010
0000
,
1001
0001
0001
0001
,
0001
0100
0010
1000
,
1010
0110
0101
0000
,
0001
0010
0100
1000
,
1100
0110
0011
0000
,
0001
1000
0010
0100
,
0101
0110
1010
0000
,
0010
1000
0001
0010
,
0110
1100
1001
0000
,
0001
0100
1000
0100
,
0001
0010
1000
0010
,
0001
0100
1000
0100
,
0001
0010
0100
1000
,
0001
0100
1000
0100
,
0001
0010
1000
0010
,
0001
0100
0010
1000
,
0001
0010
0100
1000
,
0010
0100
0001
1000
,
0100
0000
0010
0000
0100
1000
0100
0000
,
1000
0010
0100
0001
,
0010
0000
0001
0000
1000
0001
1000
0000
,
0010
0100
0010
1000
,
0001
0000
0010
0000
0001
0010
0001
0000
,
0100
0010
1000
0001
,
1001
0000
0000
1001
0000
0000
1001
0000
,
0001
0101
0010
1010
,
0100
0101
0010
1010
,
0100
0101
0010
1010
,
1000
1000
1000
1000
,
0001
0101
1000
1010
,
0001
0101
1000
1010
,
0001
0101
1000
1010
,
0100
0100
0100
0100
,
0001
0011
1000
1100
,
0001
0011
1000
1100
,
0001
0011
1000
1100
,
0001
0001
0001
0001
,
0010
1100
0010
0101
,
0010
1100
0010
0101
,
0010
1100
0010
0101
,
1001
1001
1001
1001
,
0001
0100
0010
1000
,
1010
0110
0101
0000
,
0001
0010
0100
1000
,
1100
0110
1001
0000
,
0001
0100
0010
1000
,
1010
1100
0110
0000
,
0010
0001
1000
0010
,
0110
0101
1001
0000
,
0001
0010
0100
1000
,
1100
0110
0011
0000
,
0001
0010
0001
1000
,
1010
0110
0101
0000
,
0001
0010
0100
1000
,
1100
0110
1001
0000
,
0001
0100
0010
1000
,
0000
1010
0000
0000
0101
0000
0000
0000
,
1001
0000
0000
0000
;

//---------------dance-single - ----------------
#NOTES:
     dance-single:
     :
     Medium:
     7:
     0.507579,0.498244,0.704484,0.000000,0.040840,348.000000,279.000000,69.000000,0.000000,0.000000,0.000000,0.507579,0.498244,0.704484,0.000000,0.040840,348.000000,279.000000,69.000000,0.000000,0.000000,0.000000:
0000
0000
0000
0000
,
1000
1000
0010
0010
,
0100
0100
0001
0001
,
0010
0100
1000
0001
,
1001
1001
1001
1001
,
0001
0000
0100
0010
1000
0000
0010
0000
,
0110
0101
1001
1000
,
0100
0011
1100
1001
,
0001
0100
0010
0000
1010
0000
0100
0000
,
0001
0000
0010
0100
1000
0000
0001
0000
,
0101
0110
1010
0010
,
0100
0101
1001
1100
,
0100
0010
0001
0000
0011
0000
0100
0000
,
1000
0000
0001
0000
0100
0010
0100
0000
,
0001
0000
1000
0000
0100
0010
0100
0000
,
1000
0000
0010
0000
0100
0001
1000
0000
,
0100
0000
0010
0000
0100
1000
0010
0000
,
0100
0000
0001
0000
0010
0100
1000
0000
,
0001
0000
0100
0000
0010
1000
0001
0000
,
0010
0000
0001
0000
0100
0010
1000
0000
,
0100
0000
0010
0000
0100
1000
0001
0000
,
0100
0010
0000
0010
0000
0100
0000
0001
,
0000
1000
0000
0100
0000
0010
0000
0001
,
1000
0010
0000
0100
0000
0001
0000
0010
,
0000
0001
0000
1000
0000
0100
0000
0010
,
0001
1000
0000
0010
0000
0100
0000
0001
,
0000
0100
0000
0010
0000
1000
0000
0001
,
0010
0100
0000
1000
0000
0010
0000
0100
,
0001
1000
0000
1000
0001
0000
0100
0010
,
0100
0101
0010
1100
,
0010
0101
0010
1100
,
0010
0000
0000
0101
0000
0000
0010
0000
0010
0001
0000
0001
,
1000
0010
0100
0001
,
0010
1100
0010
0101
,
0010
1100
0010
0101
,
0010
0000
0000
1100
0000
0000
0010
0000
0010
0100
0000
0100
,
0001
0010
0100
1000
,
0001
0011
1000
1100
,
0001
0011
1000
1100
,
0001
0000
0000
0011
0000
0000
1000
0000
1000
0001
0000
0001
,
0100
0001
0100
0110
,
0001
0101
1000
1010
,
0001
0101
1000
1010
,
0001
0000
0000
0100
0000
0000
0010
0000
0010
1000
0000
1000
,
0001
1001
1001
1001
,
0001
0000
0100
0010
1000
0000
0010
0000
,
0110
0101
1001
0100
,
0010
0011
1100
1001
,
0001
0100
0010
0000
1010
0000
0100
0000
,
0001
0000
0010
0100
1000
0000
0001
0000
,
0101
0110
1010
0100
,
0001
0101
0011
1100
,
0001
0100
0010
0000
1010
0000
0100
0000
,
0001
0100
0001
0000
1000
0100
1000
0000
,
1100
0110
0011
0001
,
1000
1010
0110
0101
,
0001
0010
0001
0000
1001
0000
1000
0000
,
0100
0010
0100
0000
1000
0001
1000
0000
,
1010
0110
0101
0001
,
1000
1100
0011
0110
,
0100
1000
0001
1000
0010
0100
0001
0000
,
1001
0000
0000
0000
;

//---------------dance-single - ----------------
#NOTES:
     dance-single:
     :
     Hard:
     9:
     0.656352,0.716226,0.653435,0.000000,0.250143,450.000000,386.000000,64.000000,0.000000,0.000000,0.000000,0.656352,0.716226,0.653435,0.000000,0.250143,450.000000,386.000000,64.000000,0.000000,0.000000,0.000000:
0000
0000
0000
0000
,
1000
0010
0100
0001
,
0010
0100
1000
0001
,
0100
0010
1000
0001
,
1001
1001
1001
1001
,
0001
0100
0010
0100
0001
1000
0100
0000
,
0011
0000
1100
0000
1001
0000
0001
0100
,
0010
1010
0101
1001
,
1000
0100
0010
0000
0011
0000
0100
0000
,
1000
0100
0010
0100
1000
0010
0100
0000
,
0101
0000
1010
0000
0110
0000
0100
0001
,
1000
1100
0011
0110
,
0100
1000
0010
0000
0110
0000
0101
0000
,
0001
0000
1000
0100
0010
0000
0001
0010
,
0100
1000
0010
0100
0001
0100
0010
1000
,
0001
0000
0010
0001
0100
0000
0010
1000
,
0100
1000
0001
0100
0010
1000
0001
0000
,
0010
0000
0001
0100
0010
0000
1000
0100
,
1000
0010
0100
0001
0010
0100
1000
0000
,
0001
0000
1000
0100
0010
0000
0100
1000
,
0010
0100
0001
0100
0010
1000
0100
0000
,
0010
0001
0010
0001
1000
0010
1000
0010
,
0100
0001
0100
0001
1000
0100
1000
0100
,
0001
0100
0001
0100
0010
0001
0010
0001
,
1000
0010
1000
0010
0001
0010
0001
0010
,
0100
0001
1000
0100
0001
0100
0010
0001
,
1000
0010
0100
1000
0100
0001
0010
0100
,
1000
0001
1000
0100
0010
1000
0010
0001
,
1000
0000
0001
0000
0100
0010
0100
0000
0001
0000
1000
0100
1000
0000
0001
0000
,
0100
0000
0100
0010
0000
0010
1000
0000
1000
0001
0000
0001
,
0010
0000
0010
0100
0000
0100
1000
0000
1000
0010
0000
0010
,
0100
0000
0100
0001
0000
0001
0010
0000
0010
0100
0000
0000
,
0110
0110
1001
1001
,
0001
0000
0001
0100
0000
0100
0010
0000
0010
1000
0000
1000
,
0001
0000
0001
0010
0000
0010
1000
0000
1000
0010
0000
0010
,
0100
0000
0100
1000
0000
1000
0001
0000
0001
0100
0000
0000
,
0101
0110
1010
1001
,
0001
0000
0001
1000
0000
1000
0100
0000
0100
0010
0000
0010
,
0001
0000
0001
0100
0000
0100
0010
0000
0010
1000
0000
1000
,
0001
0000
0001
0010
0000
0010
0100
0000
0100
1000
0000
0000
,
1100
0110
0011
1001
,
1000
0000
1000
0010
0000
0010
0001
0000
0001
1000
0000
1000
,
0100
0000
0100
0010
0000
0010
1000
0000
1000
0001
0000
0001
,
0010
0000
0010
0100
0000
0100
1000
0000
1000
0001
0000
0001
,
0100
0010
0100
0001
0011
0000
1100
0000
,
1000
0100
1000
0010
0100
0001
0010
0000
,
0011
0000
1100
0000
1001
0000
0001
0100
,
0010
1010
0101
1001
,
0001
0010
0100
1000
0001
0000
1001
0000
,
0001
0100
0010
0100
0001
0000
1001
0000
,
0011
0000
1100
0000
1001
0000
0001
0100
,
0010
1010
0101
1001
,
1000
0100
0010
0100
1000
0000
1001
0000
,
0001
0100
0010
0100
0001
1000
0100
0010
,
0011
1100
1001
0101
,
0100
0010
1000
0010
0100
0001
1000
0100
,
0110
1001
1100
0011
,
0100
1000
0010
1000
0001
0100
0010
1000
,
1010
0110
0101
1001
,
0001
0010
0100
0010
0001
1000
0100
0010
,
0001
0000
0101
0000
0010
1000
0010
0000
0110
0000
0001
0100
0001
0000
1001
0000
,
0110
0000
0000
0000
;

//---------------dance-double - ----------------
#NOTES:
     dance-double:
     :
     Hard:
     9:
     0.628639,0.560524,0.275668,0.000000,0.352242,431.000000,404.000000,27.000000,0.000000,0.000000,0.000000,0.628639,0.560524,0.275668,0.000000,0.352242,431.000000,404.000000,27.000000,0.000000,0.000000,0.000000:
// measure 0
00000000
00000000
00000000
00000000
,  // measure 1
10000000
00010000
00100000
00001000
,  // measure 2
00010000
00000100
00001000
00000001
,  // measure 3
00001000
00000100
00010000
00010000
,  // measure 4
00001000
00000000
00100000
00000000
00000000
00100000
00001000
00000000
00010000
00000000
00000000
00010000
00000100
00000000
00010000
00000000
,  // measure 5
00011000
00000000
00001000
00100000
00010000
10000000
00100000
00000000
,  // measure 6
01100000
00000000
00100000
10000000
00100000
01000000
00010000
00000000
,  // measure 7
00100000
00001000
00010000
00000000
00001000
00100000
00010000
00000000
,  // measure 8
00100000
00001000
00010000
00000000
00001000
00010000
00000100
00000000
,  // measure 9
00000110
00000001
00001100
00000010
,  // measure 10
00000101
00001000
00000011
00000100
,  // measure 11
00001010
00001100
00011000
00110000
,  // measure 12
01100000
10100000
01100000
10010000
,  // measure 13
00010000
00000000
00000000
10000000
00100000
00000000
00000000
00000000
01000000
00000000
00010000
00000000
01000000
00000000
00000000
00000000
,  // measure 14
00010000
00000000
00000000
10000000
00100000
00000000
10000000
00000000
00010000
00000000
10000000
00000000
01000000
00000000
00000000
00000000
,  // measure 15
00100000
00000000
00000000
00001000
00010000
00000000
00000000
00000000
00001000
00000000
00010000
00000000
00000100
00000000
00000000
00000000
,  // measure 16
00000010
00000000
00000000
00000001
00001000
00000000
00000001
00000000
00001000
00000000
00000001
00000000
00000100
00000000
00000000
00000000
,  // measure 17
00001000
00000000
00000000
00010000
00100000
00000000
00000000
00000000
10000000
00000000
00000000
01000000
00100000
00000000
00000000
00000000
,  // measure 18
01000000
00000000
00000000
10000000
00010000
00000000
01000000
00000000
00100000
00000000
00000000
10000000
01000000
00000000
00000000
00000000
,  // measure 19
00100000
00000000
00000000
00010000
00100000
00000000
00000000
00000000
00010000
00000000
00000000
01000000
00010000
00000000
00000000
00000000
,  // measure 20
10000000
00000000
00000000
01000000
00100000
00000000
00010000
00000000
10000000
00000000
10000000
00000000
01000000
00000000
00000000
00000000
,  // measure 21
00100000
00010000
00100000
00010000
00001000
00010000
00001000
00010000
,  // measure 22
00001000
00000100
00001000
00000100
00000001
00000100
00000001
00000100
,  // measure 23
00000001
00000010
00000001
00000010
00000100
00000010
00000100
00000010
,  // measure 24
00001000
00000010
00001000
00000010
00010000
00001000
00010000
00001000
,  // measure 25
01000000
00010000
00100000
01000000
00010000
01000000
00100000
00010000
,  // measure 26
00001000
00010000
00100000
00001000
00100000
01000000
00010000
01000000
,  // measure 27
00100000
00001000
00000100
00000001
00001000
00000100
00010000
00001000
,  // measure 28
00100000
00000000
00001000
00000000
00000000
00001000
00010000
00000000
00000100
00000000
00000000
00000100
00010000
00000000
00001000
00000000
,  // measure 29
00100000
00000000
00100000
01000000
00000000
01000000
10000000
00000000
10000000
00100000
00000000
00100000
,  // measure 30
01000000
00000000
01000000
00010000
00000000
00010000
00100000
00000000
00100000
00001000
00000000
00001000
,  // measure 31
00010000
00000000
00010000
00000100
00000000
00000100
00000010
00000000
00000010
00000001
00000000
00000001
,  // measure 32
00000100
00000000
00000000
00000110
00000000
00000000
00001001
00000000
00000000
00001010
00000000
00000010
,  // measure 33
00001000
00000000
00001000
00000010
00000000
00000010
00000100
00000000
00000100
00001000
00000000
00001000
,  // measure 34
00010000
00000000
00010000
01000000
00000000
01000000
10000000
00000000
10000000
00100000
00000000
00100000
,  // measure 35
01000000
00000000
01000000
00010000
00000000
00010000
00100000
00000000
00100000
00001000
00000000
00001000
,  // measure 36
00010000
00011000
00101000
10010000
,  // measure 37
00110000
00000000
00010000
01000000
00000000
00010000
10000000
00000000
00010000
00100000
00000000
01000000
,  // measure 38
10000000
00000000
00100000
01000000
00000000
00100000
10000000
00000000
01000000
00100000
00000000
00010000
,  // measure 39
00100000
00000000
00001000
00010000
00000000
00000100
00010000
00000000
00000010
00001000
00000000
00000001
,  // measure 40
00001000
00000000
00000000
00001001
00000000
00000000
00001100
00000000
00000000
00000011
00000000
00000001
,  // measure 41
00000100
00000000
00000001
00001000
00000000
00000001
00000010
00000000
00000001
00000100
00000000
00000010
,  // measure 42
00000100
00000000
00000010
00001000
00000000
00000100
00001000
00000000
00000100
00010000
00000000
00001000
,  // measure 43
00100000
00000000
00010000
01000000
00000000
00010000
10000000
00000000
00100000
01000000
00000000
00010000
,  // measure 44
00100000
00000000
00001000
00000000
00000000
00001000
00010000
00000000
00000100
00000000
00000000
00000100
00010000
00000000
00001000
00000000
,  // measure 45
00100000
01000000
10000000
00100000
01000000
00010000
00100000
00000000
,  // measure 46
00100000
00010000
10000000
00100000
00010000
00100000
01000000
00000000
,  // measure 47
01000000
00010000
00100000
00000000
00100000
00001000
00010000
00000000
,  // measure 48
00010000
00000100
00001000
00000000
00001000
00000001
00000010
00000000
,  // measure 49
00000010
00000100
00001000
00000000
00000001
00000100
00001000
00000000
,  // measure 50
00000100
00000010
00001000
00000000
00000100
00010000
00100000
00000000
,  // measure 51
10000000
01000000
00100000
00000000
00010000
10000000
00100000
00000000
,  // measure 52
01000000
00010000
00100000
00000000
01000000
10000000
00010000
00000000
,  // measure 53
10010000
00010000
00100000
00001000
00010000
00000100
00000010
00000000
,  // measure 54
00000001
00001000
00000100
00010000
00001000
00100000
01000000
00000000
,  // measure 55
10000000
01000000
10000000
00010000
00100000
01000000
00100000
00001000
,  // measure 56
00100000
00010000
00100000
00001000
00010000
00000100
00000010
00000000
,  // measure 57
00001001
00001000
00000100
00010000
00001000
00100000
01000000
00000000
,  // measure 58
10000000
00010000
00100000
00001000
00010000
00000100
00000010
00000000
,  // measure 59
00000001
00000010
00000001
00001000
00000100
00000010
00000100
00010000
,  // measure 60
00000100
00000000
00010000
00000000
00000000
00010000
00001000
00000000
00100000
00000000
00000000
00100000
00010000
00000000
10000000
00000000
,  // measure 61
10010000
00000000
00000000
00000000
;

//---------------dance-double - ----------------
#NOTES:
     dance-double:
     :
     Medium:
     7:
     0.509037,0.498244,0.571755,0.000000,0.066364,349.000000,293.000000,56.000000,0.000000,0.000000,0.000000,0.509037,0.498244,0.571755,0.000000,0.066364,349.000000,293.000000,56.000000,0.000000,0.000000,0.000000:
// measure 0
00000000
00000000
00000000
00000000
,  // measure 1
10000000
10000000
00100000
00100000
,  // measure 2
01000000
01000000
00010000
00010000
,  // measure 3
00100000
00001000
00010000
00001000
,  // measure 4
00011000
00011000
00011000
00011000
,  // measure 5
00001100
00000000
00001000
00000010
00001000
00000000
00000100
00000000
,  // measure 6
00001100
00010100
00011000
00001000
,  // measure 7
00100000
00010000
00100000
00000000
01000000
10000000
01000000
00000000
,  // measure 8
10000000
00010000
10000000
00000000
10010000
00000000
00010000
00000000
,  // measure 9
00100000
00000000
00010000
01000000
00100000
00000000
01000000
00000000
,  // measure 10
01010000
00110000
00011000
00001000
,  // measure 11
00010000
00000100
00010000
00000000
00000010
00001000
00000010
00000000
,  // measure 12
00001000
00000001
00001000
00000000
00001001
00000000
00000110
00000000
,  // measure 13
00000101
00000000
00000100
00000000
00000001
00000010
00000100
00000000
,  // measure 14
00001000
00000000
00000010
00000000
00000001
00000010
00000100
00000000
,  // measure 15
00000001
00001000
00000100
00010000
,  // measure 16
00001000
00100000
00010000
00000000
10000000
00010000
00100000
00000000
,  // measure 17
00010000
00000000
00100000
00000000
10000000
00100000
01000000
00000000
,  // measure 18
10000000
00000000
00100000
00000000
00010000
00100000
01000000
00000000
,  // measure 19
00010000
01000000
00001000
00010000
,  // measure 20
00000100
00001000
00000001
00000000
00000010
00000001
00000100
00000000
,  // measure 21
00000100
00000010
00000000
00001000
00000000
00000001
00000000
00001000
,  // measure 22
00000000
00000010
00000000
00000100
00000000
00000010
00000000
00001000
,  // measure 23
00000100
00010000
00000000
00001000
00000000
00100000
00000000
00001000
,  // measure 24
00000000
00010000
00000000
00000100
00000000
00010000
00000000
00001000
,  // measure 25
00100000
00010000
00000000
00100000
00000000
01000000
00000000
10000000
,  // measure 26
00000000
00100000
00000000
01000000
00000000
00010000
00000000
10000000
,  // measure 27
01000000
00010000
00000000
00001000
00000000
00000010
00000000
00000001
,  // measure 28
00001000
00000001
00000000
00001000
00000001
00000000
00000100
00000010
,  // measure 29
00000100
00000101
00000010
00001100
,  // measure 30
00000010
00000101
00000010
00001100
,  // measure 31
00000010
00000000
00000000
00000101
00000000
00000000
00000010
00000000
00000010
00000001
00000000
00000001
,  // measure 32
00001000
00000000
00000000
00000100
00000000
00000000
00010000
00000000
00000000
00001000
00000000
00001000
,  // measure 33
00100000
11000000
00100000
01010000
,  // measure 34
00100000
11000000
00100000
01010000
,  // measure 35
00100000
00000000
00000000
11000000
00000000
00000000
00100000
00000000
00100000
01000000
00000000
01000000
,  // measure 36
00010000
00000000
00000000
00100000
00000000
00000000
00001000
00000000
00000000
00010000
00000000
00010000
,  // measure 37
00000100
00001100
00000001
00000011
,  // measure 38
00001000
00001010
00000001
00000101
,  // measure 39
00001000
00000000
00001000
00000100
00000000
00000000
00001000
00000000
00001000
00000001
00000000
00000001
,  // measure 40
00000100
00000000
00000000
00000010
00000000
00000000
00001000
00000000
00000000
00000100
00000000
00000100
,  // measure 41
00010000
00011000
00000100
00001100
,  // measure 42
00100000
00110000
00001000
00011000
,  // measure 43
00010000
00000000
00010000
00001000
00000000
00000000
00100000
00000000
00100000
00010000
00000000
00010000
,  // measure 44
10000000
10010000
01100000
10010000
,  // measure 45
10000000
00000000
00100000
01000000
00010000
00000000
00100000
00000000
,  // measure 46
00110000
00101000
00011000
00010000
,  // measure 47
00000100
00001000
00000100
00000000
00000010
00000001
00000010
00000000
,  // measure 48
00000001
00001000
00000001
00000000
00001001
00000000
00001000
00000000
,  // measure 49
00000100
00000000
00001000
00000010
00000100
00000000
00000010
00000000
,  // measure 50
00001010
00001100
00011000
00010000
,  // measure 51
00001000
00100000
00001000
00000000
01000000
00010000
01000000
00000000
,  // measure 52
00010000
10000000
00010000
00000000
10010000
00000000
00110000
00000000
,  // measure 53
00011000
00000000
00001000
00000100
00000001
00000000
00000010
00000000
,  // measure 54
00000110
00001100
00011000
00001000
,  // measure 55
00100000
00010000
10000000
00000000
01000000
10000000
00010000
00000000
,  // measure 56
10000000
00010000
10000000
00000000
10010000
00000000
10100000
00000000
,  // measure 57
01100000
00000000
00100000
01000000
00010000
00000000
00100000
00000000
,  // measure 58
00110000
00011000
00001100
00001000
,  // measure 59
00000100
00001000
00000010
00000000
00000100
00000001
00000010
00000000
,  // measure 60
00000100
00000010
00000000
00000100
00001000
00000000
00000100
00010000
,  // measure 61
00011000
00000000
00000000
00000000
;

//---------------dance-double - ----------------
#NOTES:
     dance-double:
     :
     Easy:
     5:
     0.374850,0.498244,0.336927,0.000000,0.000000,257.000000,224.000000,33.000000,0.000000,0.000000,0.000000,0.374850,0.498244,0.336927,0.000000,0.000000,257.000000,224.000000,33.000000,0.000000,0.000000,0.000000:
// measure 0
00000000
00000000
00000000
00000000
,  // measure 1
10000000
00000000
10000000
00000000
,  // measure 2
00010000
00000000
00010000
00000000
,  // measure 3
00100000
00000000
00001000
00000000
,  // measure 4
00010000
00010000
00010000
00010000
,  // measure 5
00011000
00001000
00010000
00000100
,  // measure 6
00001000
00000010
00001000
00000000
,  // measure 7
00000001
00000010
00000100
00001000
,  // measure 8
00000100
00010000
00001000
00000000
,  // measure 9
00011000
00010000
00001000
00100000
,  // measure 10
00010000
01000000
00100000
00000000
,  // measure 11
10000000
00010000
00100000
00010000
,  // measure 12
10000000
10000000
00010000
00010000
,  // measure 13
10000000
00100000
00010000
00100000
,  // measure 14
10000000
01000000
00010000
01000000
,  // measure 15
10000000
00010000
10000000
00010000
,  // measure 16
00100000
00001000
00010000
00000100
,  // measure 17
00001000
00000010
00000001
00000010
,  // measure 18
00001000
00000100
00000001
00000100
,  // measure 19
00001000
00000001
00001000
00000001
,  // measure 20
00010000
00000100
00010000
00000100
,  // measure 21
00010000
01000000
00010000
01000000
,  // measure 22
10000000
01000000
10000000
01000000
,  // measure 23
10000000
00100000
10000000
00100000
,  // measure 24
00010000
00000000
00001000
00000000
00010000
00001000
00010000
00000000
,  // measure 25
00001000
00000100
00001000
00000100
,  // measure 26
00000001
00000100
00000001
00000100
,  // measure 27
00000001
00001000
00000001
00001000
,  // measure 28
00001001
00000000
00000000
00000110
00000000
00000000
00001001
00000000
,  // measure 29
00000001
00000010
00000100
00001000
,  // measure 30
00000001
00000010
00000100
00001000
,  // measure 31
00000001
00000010
00000100
00001000
,  // measure 32
00010000
00100000
01000000
10000000
,  // measure 33
00010000
01000000
00100000
10000000
,  // measure 34
00010000
01000000
00100000
10000000
,  // measure 35
00010000
01000000
00100000
10000000
,  // measure 36
00010000
00100000
00001000
00010000
,  // measure 37
00001000
00000100
00000001
00001001
,  // measure 38
00000001
00001000
00000100
00000110
,  // measure 39
00000010
00000011
00000010
00000011
,  // measure 40
00000001
00000100
00000010
00001000
,  // measure 41
00010000
00100000
01000000
01100000
,  // measure 42
00100000
00010000
10000000
10010000
,  // measure 43
01000000
11000000
01000000
11000000
,  // measure 44
10010000
10010000
10010000
10010000
,  // measure 45
10010000
10000000
00010000
00100000
,  // measure 46
00001000
00100000
00010000
00000000
,  // measure 47
10000000
01000000
00100000
00010000
,  // measure 48
00100000
00001000
00010000
00000000
,  // measure 49
00011000
00001000
00010000
00000100
,  // measure 50
00001000
00000010
00000100
00000000
,  // measure 51
00000001
00001000
00000100
00001000
,  // measure 52
00000001
00000001
00001000
00001000
,  // measure 53
00001001
00000001
00000010
00000100
,  // measure 54
00001100
00001100
00011000
00000000
,  // measure 55
00100000
01000000
10000000
01000000
,  // measure 56
11000000
11000000
01100000
00000000
,  // measure 57
10010000
10000000
00100000
01000000
,  // measure 58
01010000
01010000
00011000
00000000
,  // measure 59
00000100
00000010
00000001
00001000
,  // measure 60
00000000
00001001
00000000
00000000
00000110
00000000
00000000
00000000
,  // measure 61
00001001
00000000
00000000
00000000
;
