#TITLE:New Day;
#SUBTITLE:;
#ARTIST:TANUKI vs. JAKAZiD;
#TITLETRANSLIT:;
#SUBTITLETRANSLIT:;
#ARTISTTRANSLIT:;
#GENRE:;
#CREDIT:;
#BANNER:New Day.png;
#BACKGROUND:New Day-bg.png;
#LYRICSPATH:;
#CDTITLE:;
#MUSIC:New Day.ogg;
#OFFSET:0.000000;
#SAMPLESTART:11.332221;
#SAMPLELENGTH:15.000;
#SELECTABLE:YES;
#BPMS:0.000000=85.000000
,14.000000=170.000000
,112.000000=85.000000
,113.000000=170.000000
,238.000000=85.000000
,239.000000=170.000000
,255.000000=85.000000
,256.000000=170.000000
,286.000000=85.000000
,287.000000=170.000000
;
#DISPLAYBPM:*;
#STOPS:128.000000=0.353000
;
#BGCHANGES:;
#KEYSOUNDS:;
#ATTACKS:;

//---------------dance-single - ----------------
#NOTES:
     dance-single:
     :
     Hard:
     10:
     0.753711,0.854410,0.527598,0.238503,0.531211,730.000000,657.000000,73.000000,33.000000,0.000000,0.000000,0.753711,0.854410,0.527598,0.238503,0.531211,730.000000,657.000000,73.000000,33.000000,0.000000,0.000000:
0000
0000
0000
0000
,
0000
0000
0000
0000
,
1000
0000
0000
0000
0100
0000
0000
1000
0100
0000
0000
0000
0010
0000
0000
0000
0001
0000
0000
0000
0010
0000
0000
0100
1000
0000
0001
0000
0100
0001
0100
0000
,
0020
0000
0000
2000
0000
0000
0000
0000
0030
0000
0000
0000
0000
0000
0000
0000
,
3000
0000
0010
0000
0100
0000
0010
0000
2010
0000
0000
3010
0000
0000
0101
0000
,
0000
0001
0000
0000
1000
0010
1000
0100
0000
0000
0011
0000
0011
0000
0000
0100
,
0000
1000
0000
0000
0010
0100
0001
0100
0010
0000
0000
1000
0000
0000
0101
0000
,
0000
0001
0000
0000
0100
0010
0100
0001
0000
0000
1100
0000
1000
0000
0001
0010
,
0000
0000
0010
0000
0100
0000
0100
0000
1200
0000
0000
1300
0000
0000
1010
0000
,
0000
0100
0000
0000
0001
0010
0001
0100
0000
0000
1010
0000
1010
0000
0000
0100
,
0000
0001
0000
0000
0010
0100
1000
0100
0020
0000
0000
0031
0000
0000
1100
0000
,
0000
1000
0000
0000
0010
0100
0001
0100
0020
0000
1000
0030
1000
0000
0001
0010
,
0000
0000
0010
0000
0100
0000
0100
0000
1000
0000
0010
0000
0100
0000
0001
1000
,
0001
0000
0010
0000
0100
1000
0100
1000
0001
0000
0100
0000
1000
0000
0100
0010
,
0100
0000
0001
0000
0010
0100
0010
0001
1000
0000
0010
0000
0001
0000
0010
0100
,
0010
0000
1000
0000
0100
0010
0100
0010
0001
0000
0010
0000
1000
0000
0010
0001
,
0010
0000
0100
0000
1000
0001
1000
0010
0100
0000
0001
0000
0010
0000
0100
1000
,
0100
0000
1000
0000
0001
0100
0001
0100
0020
0000
0032
0000
2003
0000
3200
0000
,
0301
0000
0020
0000
0130
1000
0100
1000
0001
0000
0100
0000
0010
0000
1000
0010
,
1000
0000
0001
0000
0010
0100
0010
0100
1000
0000
0001
1000
0000
0001
1000
0001
,
1000
0010
0100
0000
0110
0000
0000
0000
1000
0000
0000
0000
0000
0000
0000
0000
,
1000
0020
0000
0030
1000
0000
0000
0000
,
1000
0002
0000
0003
0100
0000
0000
0000
,
0100
2000
0000
3000
0100
0000
0000
0000
,
0100
0020
0000
0030
1000
0000
1000
0000
,
0001
0020
0001
0000
0130
0000
0100
0000
,
1000
0200
1000
0000
0310
0001
0010
0001
,
1000
0000
0010
0000
1000
0000
0010
0000
0100
0001
0100
0001
1000
0100
1000
0100
,
0010
0000
0001
0100
0201
0010
0010
0010
,
0310
1010
1000
0001
0021
0100
0130
0110
,
0010
0001
1000
0010
1020
0100
0100
0100
,
0130
0101
0001
1000
1200
0010
0310
0110
,
0000
0000
1002
0100
0100
0100
0103
0110
,
1000
0100
1200
0010
0310
0110
1000
0001
,
0100
0001
2001
0100
0100
0100
3100
0110
,
0001
0000
1000
0001
0000
1000
0001
1000
0001
0000
0100
0000
0100
0000
0100
0000
,
1010
0000
0000
0000
1000
0000
0101
0000
0000
0000
0001
0010
0001
0000
1000
0010
,
1000
0000
0000
0000
0001
0000
1000
0100
0010
0100
0010
0100
1000
0000
0001
0000
,
1001
0000
0000
0000
0010
0000
0101
0000
0000
0000
1000
0100
1000
0000
0010
1000
,
0010
0000
0000
0000
0100
0000
0011
0000
0010
0100
1000
0000
1010
0000
0100
0000
,
0101
0000
0000
0000
0010
0000
1100
0000
0000
0000
0001
0010
0001
0000
1000
0100
,
1000
0000
0000
0000
0010
0000
0101
0000
0001
0100
0010
0100
0001
0000
0100
0000
,
0100
0000
1010
0000
0000
0001
0000
0011
,
1000
0000
0000
0000
1100
0000
0000
0000
0100
0010
0001
1000
0010
0000
0010
0000
,
0100
0000
0001
0000
1000
0000
0100
0010
0000
0100
1000
0000
0010
0000
0001
0000
,
0010
0000
1000
0000
0001
0000
0100
0010
0000
0100
0010
0000
1000
0000
0100
0000
,
0010
0000
1000
0000
0010
0000
0001
0010
0000
0001
1000
0000
0010
0000
0001
0000
,
0010
0000
0100
0000
0001
0000
1000
0010
0000
0100
0010
0000
1000
0000
1000
0000
,
0001
0000
0010
0000
0100
0000
1000
0001
0000
1000
0001
0000
0010
0000
0100
0000
,
2000
3020
0032
2003
3100
0020
1030
0100
,
0010
0000
0001
0000
0100
0000
1000
0100
0000
0100
0001
0000
1000
0000
0010
0000
,
0100
0000
0001
0000
0010
0000
1000
0010
0000
0010
0001
0000
0001
0000
0001
0000
,
0100
0000
0100
0000
0010
1000
0010
0000
,
0100
0100
0001
0001
,
0010
0000
0010
0000
0100
1000
0100
0000
,
0010
0010
0001
0001
,
1000
0000
0010
0000
1000
0000
0010
0000
0100
0000
0010
0000
0100
0000
0010
1000
,
0001
0000
0010
0000
0001
0000
0010
0000
0100
0000
0010
0000
0100
0000
0010
0001
,
1000
0010
0001
1000
0100
0001
0010
0100
,
1000
0010
1000
0010
0100
0001
0100
0001
0020
0000
0000
0030
0100
0000
0000
0000
,
0100
0000
0000
0000
1100
0000
0000
0010
0000
0000
0101
0000
0000
0000
1000
0000
,
1001
0000
0110
1000
0000
1000
0101
0000
,
0001
0000
0000
0000
0011
0000
0000
0100
0000
0000
1010
0000
0000
0000
0100
0000
,
1001
0000
0000
0000
0010
0000
1001
0000
0000
0000
0000
0100
0010
0000
0000
0000
,
1010
0000
0000
0100
0000
0000
0011
0000
0000
0000
1000
0000
0101
0000
0000
0000
,
1010
0000
0100
0000
0000
0000
0100
0000
0001
0000
0000
0000
1000
0010
0100
0000
,
0000
0000
0100
0001
1000
0000
0000
0000
1000
0100
0010
0000
0000
0000
0010
0001
,
0100
0000
0100
0000
0010
1000
0010
1000
0001
0000
0000
0000
0001
0000
0001
0000
,
0110
0000
0000
1000
0000
0000
0110
0000
0000
0000
0001
0000
1010
0000
0000
0000
,
0101
0010
0000
0010
1100
0000
1000
1000
,
0110
0000
0000
0011
0000
0000
1100
0000
0000
0000
0010
0000
0110
0000
0000
0000
,
1000
0000
0101
0000
0000
0000
0000
0000
0020
0030
0000
0000
1100
0000
0000
0001
,
0000
1010
0000
0100
1001
0000
0011
0100
,
0000
0000
0000
0000
1000
0000
0000
0000
0001
0100
0010
0000
0000
0000
1000
0010
,
0100
0000
0000
0000
0001
0010
0100
0000
0000
0000
1000
0000
0000
0000
0000
0000
,
0200
0000
0300
0000
0010
0000
0000
0000
0011
0000
0000
1000
0000
0000
1000
0000
,
0010
0100
0010
0000
1000
0000
0000
1000
0000
0000
0100
0000
0000
0000
0010
0001
,
1000
0000
0000
0000
0010
0000
0000
1000
0010
0000
1000
0001
0000
0001
1000
0000
,
0010
0000
0100
0000
0001
0000
0000
0010
0001
0000
1000
0001
0000
0001
0100
0000
,
0010
0000
1000
0000
0001
0000
0000
0000
1100
0000
0000
0001
0000
0000
0001
0000
,
0100
0010
0100
0000
0001
0000
0000
0001
0000
0000
0010
0000
0000
0000
0100
1000
,
0001
0000
0000
0000
0100
0000
0000
0001
0100
0000
0001
1000
0000
1000
0001
0000
,
0100
0000
0010
0000
1000
0000
0000
0100
1000
0000
0001
1000
0000
1000
0010
0100
,
0001
1000
0100
0000
0110
0000
0000
0000
0001
0000
0000
0100
0000
0000
0100
0000
,
0010
1000
0010
0000
0100
0000
0000
0100
0010
0000
1000
0000
0000
0000
0001
0010
,
0100
0000
0000
0000
0010
0000
0000
0001
1000
0000
0010
0001
0000
0001
0010
0000
,
1000
0000
0000
0000
0100
0000
0000
1000
0001
0000
0010
1000
0000
1000
0010
0000
,
0100
0000
0000
0000
1000
0000
0000
0000
1010
0000
0000
0000
0000
0000
0100
0010
,
0100
0101
0001
0000
0011
1000
0000
1100
,
0100
0000
1000
0000
0101
0000
0000
1000
,
0100
0000
0020
0000
0000
0000
0000
0000
0000
0000
0130
0000
1000
0000
0001
0100
;

//---------------dance-single - ----------------
#NOTES:
     dance-single:
     :
     Medium:
     9:
     0.608131,0.722962,0.498688,0.238503,0.162616,589.000000,520.000000,69.000000,33.000000,0.000000,0.000000,0.608131,0.722962,0.498688,0.238503,0.162616,589.000000,520.000000,69.000000,33.000000,0.000000,0.000000:
0000
0000
0000
0000
,
0000
0000
0000
0000
,
1000
0000
0010
0000
0100
0000
0010
0000
1000
0000
0001
0000
0010
0100
1000
0100
,
0020
0000
0000
0002
0000
0000
0000
0000
0030
0000
0000
0000
0000
0000
0003
0000
,
0000
0000
1000
0000
0010
0000
1000
0000
0001
0000
0000
0001
0000
0000
0010
0000
,
0000
0010
0000
0000
0100
0000
0010
0000
0000
0000
0001
0000
1000
0000
0000
0100
,
0000
0100
0000
0000
1000
0000
0010
0000
0100
0000
0000
0100
0000
0000
0001
0000
,
0000
0001
0000
0000
1000
0000
0100
0000
0000
0000
0010
0000
0010
0000
0001
1000
,
0000
0000
0010
0000
0100
0000
0001
0000
1000
0000
0000
1000
0000
0000
0010
0000
,
0000
0010
0000
0000
0100
0000
0010
0000
0000
0000
1000
0000
0001
0000
0000
0100
,
0000
0100
0000
0000
0001
0000
0010
0000
0100
0000
0000
0100
0000
0000
1000
0000
,
0000
1000
0000
0000
0001
0000
0100
0000
0000
0000
0010
0000
0010
0000
1000
0001
,
0000
0010
0100
1000
0001
0100
0010
1000
,
0001
0100
0010
0001
0010
1000
0001
0100
,
1000
0100
0001
0010
1000
0010
0100
1000
,
0001
0010
0100
0001
0100
1000
0010
0100
,
0001
1000
0100
0010
0100
1000
0010
0100
,
0001
1000
0010
0100
2000
3200
0302
0023
,
0130
2000
3001
0100
0010
1000
0200
0010
,
0310
0000
0100
0000
1000
0000
0010
0000
0100
0000
0000
0100
0000
0000
0100
0000
,
0100
0001
1000
0000
0010
0000
0000
0000
,
0010
2000
0000
3000
0010
0000
0000
0000
,
0010
0200
0000
0300
0010
0000
0000
0000
,
0010
0002
0000
0003
0010
0000
0000
0000
,
0010
0200
0000
0300
0001
0000
0001
0000
,
0001
0100
0001
0000
1000
0000
1000
0000
,
0100
0010
0100
0000
1000
0001
1000
0001
,
0100
0010
0100
0010
1000
1000
0001
0001
,
1001
0000
1000
0100
1100
1000
0010
0100
,
0001
0101
0100
0010
1010
1000
0001
0011
,
0000
0010
0001
0100
0101
0001
0010
0100
,
1000
1100
0100
0010
0011
0001
1000
0010
,
0000
0000
1001
1000
0100
0010
0100
0110
,
0010
0100
1100
1000
0001
0101
0100
0010
,
1000
0010
0110
0100
0010
0100
0001
1001
,
1000
0000
0000
1000
0000
0000
1000
0000
1000
0000
0100
0000
0100
0000
0100
0000
,
0010
0000
0001
1000
0000
0010
0001
0010
,
1000
0000
0100
0001
0100
1000
0010
0100
,
0001
0000
1000
0100
0000
0010
1000
0010
,
0001
0000
0100
1000
0100
0001
0010
0100
,
0100
0000
1000
0001
0000
0010
1000
0010
,
0001
0000
0100
1000
0100
0001
0010
0100
,
2000
0000
3010
0000
0000
0200
0000
0301
,
2000
0000
3001
0000
0010
0010
0100
0100
,
1000
0010
0100
0010
1000
0001
0000
0010
,
0001
0100
0010
1000
0100
0010
0000
0100
,
1000
0001
0100
0010
0000
0001
0000
0010
,
1000
0100
0001
0100
1000
0001
0000
0100
,
0001
0010
0100
0010
0001
1000
0000
0010
,
0002
0023
2030
3200
0300
0020
0030
0100
,
1000
0010
0002
0013
1000
0001
0000
0100
,
0001
0010
2000
3010
0001
1000
1000
1000
,
0010
0010
0100
0100
,
0001
0001
1000
1000
,
0100
0100
0010
0010
,
0001
0001
1000
1000
,
0010
0100
0010
0100
0010
1000
0010
1000
,
1000
0001
0100
0001
1000
0100
0010
0100
,
0100
1000
0001
0100
0010
1000
0001
0010
,
0100
0000
0100
0000
0100
0000
0100
0000
2002
0000
0000
3003
0010
0000
0000
0000
,
0010
0000
0000
0000
0101
0000
0000
0010
0000
0000
1100
0000
0000
0000
0001
0000
,
0011
0000
1001
1000
0000
0010
0100
0000
,
0100
0000
0000
0000
0101
0000
0000
0010
0000
0000
1100
0000
0000
0000
0001
0000
,
0101
0000
0000
0000
1000
0000
1010
0000
0000
0000
0000
1000
0001
0000
0000
0000
,
0110
0000
0000
1000
0000
0000
0110
0000
0000
0000
0001
0000
0101
0000
0000
0000
,
1100
0100
0000
0100
0010
0000
0011
0001
,
0000
0101
0100
0000
0110
0010
0000
1010
,
1000
0000
0100
0100
2000
0000
3000
0000
,
1001
0000
0000
0010
0000
0000
0101
0000
0000
0000
1000
0000
1100
0000
0000
0000
,
0110
0100
0000
0100
2000
3000
1000
1000
,
1001
0000
0000
0110
0000
0000
1001
0000
0000
0000
0100
0000
0110
0000
0000
0000
,
1000
0000
1002
0000
0000
0000
0000
0000
0103
0000
0000
0000
1010
0000
0000
0001
,
0000
1100
0000
0001
0101
0000
1010
2000
,
0000
0000
3001
0000
0011
0010
0000
0110
,
0100
0000
1100
1000
0000
1001
0000
0000
,
0000
0000
0000
0000
1000
0000
0000
0000
1010
0000
0000
0100
0000
0000
0100
0000
,
0110
0000
0000
0000
0001
0000
0000
0000
0101
0000
0000
0001
0000
0000
0000
0001
,
1000
0000
0000
0000
0010
0000
0000
0000
1010
0000
0000
0001
0000
0001
0000
0000
,
0101
0000
0000
0000
1000
0000
0000
0000
1100
0000
0000
0010
0000
0000
0010
0000
,
0110
0000
0000
0000
0001
0000
0000
0000
0011
0000
0000
0100
0000
0000
0100
0000
,
0110
0000
0000
0000
1000
0000
0000
0000
1100
0000
0000
1000
0000
0000
0000
1000
,
0001
0000
0000
0000
0010
0000
0000
0000
0011
0000
0000
1000
0000
1000
0000
0000
,
1100
0000
0000
0000
0001
0000
0000
0000
0101
0000
0000
0010
0000
0000
0010
0000
,
0100
0000
0101
0000
0001
0000
0000
0000
1100
0000
0000
0010
0000
0000
0010
0000
,
0101
0000
0000
0000
1000
0000
0000
0000
0011
0000
0000
0100
0000
0000
0000
0100
,
0010
0000
0000
0000
0001
0000
0000
0000
1010
0000
0000
0100
0000
0100
0000
0000
,
0011
0000
0000
0000
0100
0000
0000
0000
1001
0000
0000
0010
0000
0000
0010
0000
,
0110
0000
2000
0000
3010
0000
0000
0200
,
0000
0301
2000
0000
0100
0000
0000
3001
,
0000
0000
0200
0000
0310
0000
0000
1000
,
0100
0000
0020
0000
0000
0000
0000
0000
0000
0000
0000
0000
0130
0000
1000
0001
;

//---------------dance-single - ----------------
#NOTES:
     dance-single:
     :
     Beginner:
     3:
     0.187911,0.230192,0.000000,0.028909,0.000000,182.000000,182.000000,0.000000,4.000000,0.000000,0.000000,0.187911,0.230192,0.000000,0.028909,0.000000,182.000000,182.000000,0.000000,4.000000,0.000000,0.000000:
0000
0000
0000
0000
,
0000
0000
0000
0000
,
1000
0000
0000
0000
,
0001
0000
0000
0000
,
0000
0000
1000
0000
,
1000
0000
0001
0000
,
0001
0000
0010
0000
,
0010
0000
0100
0000
,
0100
0000
1000
0000
,
1000
0000
0001
0000
,
0001
0000
0010
0000
,
1000
0000
0010
0000
,
0001
0000
1000
0000
,
1000
0000
0010
0000
,
0010
0000
0100
0000
,
0100
0000
0001
0000
,
0001
0000
1000
0000
,
1000
0000
0100
0000
,
0001
0000
0100
0000
,
0100
0000
0010
0000
,
0010
0000
0001
0000
,
0001
0000
0001
0000
,
0001
0000
1000
0000
,
1000
0000
1000
0000
,
1000
0000
0010
0000
,
0010
0000
0100
0000
,
0100
0000
0001
0000
,
1000
0000
0200
0000
,
0310
0000
1000
0000
,
0000
1000
0000
0000
0001
0000
0000
0001
,
0000
0000
0100
0000
,
0000
0100
0000
0000
0010
0000
0000
0000
,
0000
0000
1000
0000
0000
0000
0000
1000
,
0000
0000
0100
0000
0000
0100
0000
0000
,
0000
0000
0001
0000
0000
0000
0000
0001
,
0000
0000
0000
0000
,
1000
0000
1000
0000
,
0010
0000
0010
0000
,
0100
0000
0100
0000
,
0001
0000
1000
0000
,
0001
0000
0001
0000
,
0010
0000
0010
0000
,
0200
0000
0010
0000
,
0010
0000
0310
0000
,
1000
0000
1000
0000
,
0001
0000
0001
0000
,
0100
0000
0100
0000
,
0010
0000
0010
0000
,
1000
0000
1000
0000
,
0001
0000
0100
0000
,
1000
0000
0010
0000
,
0001
0000
0010
0000
,
1000
0000
1000
0000
,
1000
0000
1000
0000
,
0001
0000
0001
0000
,
0001
0000
0001
0000
,
0100
0000
0100
0000
,
0010
0000
0010
0000
,
1000
0000
0001
0000
,
0100
0100
0100
1000
,
0000
0000
0010
0000
0000
1000
0000
0000
,
0010
1000
0000
0001
,
0000
0000
0010
0000
0000
0001
0000
0000
,
0010
0000
0000
0001
0000
0000
1000
0000
,
0100
0000
0000
1000
0000
0000
0100
0000
,
1000
0000
0000
0000
0001
0000
0000
1000
,
0000
0000
0001
0000
0000
1000
0000
0000
,
0100
0000
0010
0000
,
0001
0000
0000
0010
0000
0000
0001
0000
,
0010
0000
0100
0000
,
1000
0000
0000
0100
0000
0000
1000
0000
,
0000
0100
0000
0000
0001
0000
0100
0000
,
0000
0001
0000
0000
0100
0000
0001
0000
,
0000
0000
0100
0000
0000
0010
0000
0000
,
0100
0000
0000
0010
0000
0000
0100
0000
,
0000
0000
1000
0000
,
1000
0000
0001
0000
,
0001
0000
0100
0000
,
0100
0000
0010
0000
,
0010
0000
1000
0000
,
1000
0000
0100
0000
,
0100
0000
0010
0000
,
0010
0000
0001
0000
,
0000
0001
0000
0000
1000
0000
0000
0000
,
1000
0000
0010
0000
,
0010
0000
0100
0000
,
0100
0000
0001
0000
,
0001
0000
0100
0000
,
0000
0100
0000
0000
0100
0000
0000
0100
,
0000
2000
0000
0000
,
0000
3020
0000
0000
0000
0000
0000
0000
,
0030
0000
0000
0000
;

//---------------dance-single - ----------------
#NOTES:
     dance-single:
     :
     Easy:
     6:
     0.354141,0.427205,0.303549,0.130093,0.007227,343.000000,301.000000,42.000000,18.000000,0.000000,0.000000,0.354141,0.427205,0.303549,0.130093,0.007227,343.000000,301.000000,42.000000,18.000000,0.000000,0.000000:
0000
0000
0000
0000
,
0000
0000
0000
0000
,
1000
0000
1000
0000
0010
1000
0100
1000
,
0001
0000
0000
0001
0000
0000
0000
0000
0000
0000
0000
0000
0000
0000
0000
0000
,
0000
0000
1000
0010
,
1000
0100
1000
0001
,
0010
0010
0001
0100
,
1000
0100
0001
1000
,
0010
0010
1000
0001
,
0010
0001
1000
0100
,
0001
0100
1000
0010
,
0001
0100
1000
0010
,
0001
0100
1000
0100
,
0010
0001
1000
0010
,
0100
0100
0001
0100
,
1000
0100
0001
0010
,
1000
0010
0001
0010
,
0100
0000
2000
0000
3000
0000
0002
0203
,
0300
0020
0030
0000
1000
0000
0010
0000
,
0001
0010
1000
1000
,
0100
1001
0100
0000
,
0100
0000
0100
0000
,
0100
0000
0100
0000
,
0100
0000
0100
0000
,
0100
0000
0001
0001
,
1000
1000
0100
0100
,
0010
0010
0100
1000
,
0001
0100
0010
0010
,
0010
0000
1000
0000
0010
0000
0000
1000
,
0000
0010
0100
0000
0001
0000
0000
0001
,
0000
0000
1000
0000
0100
0000
0000
1000
,
0000
0100
0010
0000
0001
0010
0000
0000
,
0000
0000
0100
0000
0000
0001
0000
0100
,
0010
0000
1000
0000
0000
1000
0000
0000
,
0001
0000
0010
0000
0000
0001
0000
0010
,
0200
0000
0010
0000
0310
0100
0000
0000
,
1000
0000
0001
0100
0000
0000
0001
0000
,
1000
0000
0100
0010
0000
0000
0100
0000
,
1000
0000
0010
0100
0000
0000
0010
0000
,
1000
0000
0001
0010
0000
0100
0010
0001
,
0001
0000
1000
0100
0000
0000
1000
0000
,
0001
0000
0100
0010
0000
0000
0100
0000
,
0002
0000
0100
0000
0000
0000
0000
1000
,
0000
0013
0000
0000
,
1000
0100
1000
0010
,
0100
0001
1000
0100
,
0010
0001
1000
0001
,
0010
0100
1000
1000
,
0001
0100
0001
0010
,
1000
0010
0001
0100
,
0010
1000
0001
0100
,
0010
1000
0100
0100
,
1000
1000
1000
1000
,
0001
0001
0001
0001
,
0100
0100
0100
0100
,
0010
0010
0010
0010
,
1000
1000
0001
0001
,
0010
0010
0100
0100
,
1000
0001
1000
0001
,
0100
0100
0110
1000
,
0000
0000
1010
0000
0000
0101
0000
0000
,
0110
0110
0000
0001
,
0000
0000
0011
0000
0000
1100
0000
0000
,
1001
0000
0000
0110
0000
0000
1000
0000
,
0101
0000
0000
1010
0000
0000
1100
0000
,
1001
0000
0000
0000
0002
0000
0000
0023
,
0000
0000
0230
0000
0000
2300
0000
0000
,
3002
0003
1000
0000
,
1010
0000
0000
0101
0000
0000
0011
0000
,
1100
0000
0100
0000
,
0110
0000
0000
1001
0000
0000
0110
0000
,
0000
1001
0000
0000
0010
0000
0011
0000
,
0000
1100
0000
0000
1010
0000
0101
0000
,
0000
0000
2000
0000
0000
3020
0000
0000
,
0230
0000
0000
0302
0000
0000
0003
0000
,
0000
0000
1000
0000
0000
0100
0000
0000
,
1100
0001
0100
0000
,
0101
1000
0010
0000
,
1010
0000
0001
0000
0010
0000
0000
0010
,
0011
0000
1000
0000
0000
0100
0000
0000
,
1100
0001
0100
0000
,
0101
1000
0010
0000
,
1010
0001
0010
0000
,
0100
0110
0000
0000
1001
0000
0000
0000
,
0101
1000
1010
0000
,
1100
0001
0011
0000
,
0101
0010
1001
0000
,
0110
2000
0001
0000
,
0000
0010
0000
0000
0100
0000
0000
3001
,
0000
0200
0000
0300
,
0001
0000
0020
0000
0000
0000
0000
0000
0000
0000
0000
0000
0100
0000
0000
0130
;

//---------------dance-single - ----------------
#NOTES:
     dance-single:
     :
     Challenge:
     11:
     0.862121,0.920134,0.773328,0.513143,0.784169,835.000000,728.000000,107.000000,71.000000,0.000000,0.000000,0.862121,0.920134,0.773328,0.513143,0.784169,835.000000,728.000000,107.000000,71.000000,0.000000,0.000000:
0000
0000
0000
0000
,
0000
0000
0000
0000
,
0001
0000
0000
0000
1000
0000
0100
0010
0001
0000
0000
0000
0100
0000
0000
0000
0010
0000
0000
0000
1000
0000
0010
0100
0001
0000
1000
0100
0010
0100
1000
0000
,
0001
0000
0000
0000
0100
0000
0010
1000
0001
0000
0000
0000
0010
0000
0000
0000
0110
0000
0000
0000
0000
0000
0000
0000
0000
0000
0000
0000
0000
0000
0000
0000
,
0000
0100
1000
0000
0010
0000
0001
0000
0010
0000
0000
1100
0000
0000
0010
0000
,
0000
0101
0000
0000
0010
0100
0010
0100
0000
0000
1100
0000
0011
0000
0000
1010
,
0000
0101
0000
0000
0110
0000
1001
0000
1000
0000
0000
0110
0000
0000
0001
0000
,
0000
0110
0000
0000
1000
0010
0100
0001
0000
0000
1100
0000
1001
0000
0001
0010
,
0000
0000
0110
0000
1000
0000
0110
0000
0001
0000
0000
1100
0000
0000
1010
0000
,
0000
0011
0000
0000
0001
0010
1000
0010
0000
0000
1100
0000
1001
0000
0000
0110
,
0000
0101
0000
0000
1000
0010
0100
0001
0010
0000
0000
1100
0000
0000
0001
0000
,
0000
1010
0000
0000
0100
0001
1000
0100
0000
0000
0110
0000
0011
0000
0001
1000
,
0000
0000
1100
0000
0010
0000
0101
0000
0010
0000
0100
0010
1000
0000
0001
0100
,
0001
0100
0010
0000
1000
0100
0010
0100
0000
0000
1000
0001
0100
0000
0010
0100
,
0001
0100
0010
0000
1000
0001
0010
0100
1000
0000
0010
0100
0001
0000
0010
0001
,
0000
0001
1000
0010
0100
0001
0100
0010
0000
0000
1000
0001
0010
0000
0100
1000
,
0001
0100
0010
0000
1010
0000
0101
0000
1000
0000
0100
0010
0001
0000
1000
0100
,
1000
0100
0010
0000
0001
0100
0010
0100
2000
0000
3200
0000
0302
0000
0023
0100
,
0030
0100
0010
0000
0011
0000
1100
0000
0001
0000
0010
0100
1000
0000
0010
1000
,
0000
1000
0001
0000
0010
0001
0010
0100
1000
0000
0001
1000
0000
0001
1000
0001
,
0100
0010
0100
0000
2000
0000
3000
0000
0100
0000
0000
0000
0000
0000
0000
0000
,
0100
2000
0000
0000
3100
0000
0000
0000
,
0100
0002
0000
0000
0103
0000
0000
0000
,
0100
0020
0000
0000
0130
0000
0000
0000
,
0100
0002
0000
0000
0013
0000
0010
0000
,
0010
0200
0010
0000
0310
0000
0010
0000
,
0010
2000
0010
0000
3001
1000
0010
0100
,
1000
0000
0100
0000
0001
0000
1000
0000
0100
0010
0100
0001
0100
0010
0001
1000
,
0020
0000
0000
0030
0000
0000
0000
0000
1002
0000
0000
0000
0000
0000
0000
0000
0100
0000
0000
0000
0000
0000
0000
0000
1003
0000
0010
0000
1000
0000
0010
0000
,
1000
0001
1000
0001
0100
0001
0100
0001
0100
0010
0100
0010
1000
0001
1000
0001
,
0010
0100
0010
0100
0020
0000
0000
0000
0100
0000
0000
0000
0031
0010
0001
0010
,
0001
1000
0001
1000
0100
1000
0100
1000
0100
0010
0100
0010
0001
1000
0001
0000
,
0000
0000
0000
0000
0110
0000
0000
0000
1000
0001
1000
0001
1000
0100
1000
0100
,
0010
0001
0010
0001
0100
0001
0100
0001
1000
0010
1000
0010
0100
0001
0100
0001
,
2000
0000
0000
0000
0001
0000
0000
0000
3010
1000
0001
1000
0010
0100
0001
0100
,
0010
0000
1000
0010
0000
0001
0010
1000
0010
0000
0100
0000
0100
0000
0100
0000
,
0001
0000
0000
0000
1010
0000
0010
0100
0001
0000
1000
0100
0010
0000
0001
0010
,
0100
0000
0000
0000
1100
0000
1000
0001
0010
0001
0010
0100
1000
0100
1000
0001
,
0100
0000
0000
0000
1010
0000
1000
0001
0010
0000
0100
1000
0001
0000
0100
0010
,
1000
0000
0000
0000
0101
0000
0100
0001
1000
0100
0010
0000
0011
0000
1000
0000
,
1000
0000
0000
0000
0101
0000
0100
0010
1000
0000
0001
0010
0100
0000
1000
0100
,
0010
0000
0000
0000
0011
0000
0001
1000
0100
1000
0100
0010
0001
0010
0001
1000
,
0010
0000
0000
0000
0100
0000
0001
1000
0100
0000
0010
0001
1000
0000
0010
0100
,
0001
0000
0000
0000
0010
0000
0100
0000
1000
0100
0010
0100
0002
0000
2003
0000
,
3010
0000
0100
0000
1100
0000
0001
0100
0001
0100
0010
0100
0001
0000
1010
0000
,
0100
0000
0001
0000
0011
0000
0100
1000
0001
1000
0100
0000
0010
0001
1000
0000
,
0100
0000
0010
0000
0011
0000
1000
0010
0100
0010
1000
0000
0100
0000
1001
0000
,
0010
0000
0100
0000
0011
0000
0100
0000
0001
0000
1010
0000
0100
0010
0100
0000
,
0101
0000
1000
0100
1000
0100
0010
0100
1000
0000
0011
0000
0100
0000
1000
0000
,
1010
0000
0100
1000
0002
0000
0023
0000
2030
0000
3001
0000
0100
0000
0010
0000
,
0110
0000
0100
0000
1001
0000
0100
1000
0001
1000
0010
0000
0100
0000
1010
0000
,
1000
0100
0011
0100
0110
0010
0010
0010
,
0100
1000
0001
0100
,
0010
0001
1000
0010
,
0100
0001
1000
0100
,
0010
1000
0001
0010
,
0001
0000
0100
0000
0001
0000
0100
0000
0010
0000
1000
0000
0010
0000
1000
0001
,
0010
0000
0001
0000
0010
0000
0001
0000
1000
0000
0100
0000
1000
0000
0100
0010
,
0001
0100
0010
1000
0100
0010
0001
0100
,
0010
1000
0010
0100
0001
0100
0010
0100
2000
0000
3000
0000
0201
0000
0000
0000
,
0001
0000
0000
0300
1020
0000
0000
0100
0000
0030
2001
0000
0000
0000
0100
3000
,
0012
0000
0003
0000
2010
0000
0100
0000
0000
0000
0001
3000
0120
0000
0000
0000
,
0100
0000
0000
0030
1002
0000
0000
0010
0000
0003
2100
0000
0000
0000
0010
3000
,
0201
0000
0000
0000
1000
0300
0120
0000
0000
0000
0100
0031
1000
0000
0000
0000
,
0210
0000
0000
0001
0000
0300
2100
0000
0000
0000
0010
3000
0102
0000
0000
0003
,
1020
0000
0001
0000
0000
0000
0100
0030
1002
0000
0000
0003
0001
0100
0020
0000
,
0000
0030
0010
1000
0200
0000
0000
0300
0100
0010
0002
0000
0000
0003
0001
0100
,
1000
0000
1000
0000
0100
0001
1000
0100
0010
0000
0000
0000
0010
0000
0010
0000
,
0012
0000
0000
1000
0000
0003
0210
0000
0000
0000
0001
0300
2100
0000
0000
3000
,
0102
0000
0010
0000
0000
0000
1000
0003
0210
0000
0000
0000
0010
0000
0010
0300
,
1001
0000
0000
0110
0000
0000
1001
0000
0000
0000
1010
0000
0101
0000
0000
0000
,
0011
0000
1100
0000
0000
0000
0000
0000
0220
0000
0000
0330
1002
0000
0000
0010
,
0000
0003
2100
0000
0000
0001
0000
3000
0210
0000
0000
0300
1002
0000
0010
0000
,
0023
0000
0000
0030
1100
0000
0000
0000
1000
0010
0100
0000
0000
0000
0100
0001
,
0010
0000
0000
0000
0010
0100
1000
0000
0000
0000
1000
0010
0001
0000
0000
0000
,
0020
0000
0000
0030
1002
0000
0000
0023
0000
0000
2030
0000
0000
3200
0000
0000
,
0301
1000
0010
0000
0200
0000
0000
0302
0000
0000
0023
0000
0000
2030
0000
3000
,
0110
0000
0000
0000
0001
0000
0001
0010
0000
0010
1000
0000
1000
0100
0000
0000
,
0110
0000
0000
0000
1000
0000
1000
0010
0000
0010
0001
0000
0001
0100
0000
0000
,
0110
0000
0000
0000
1002
0000
0000
0023
0000
0000
2030
0000
0000
3200
0000
0000
,
0301
1000
0010
0000
0200
0000
0000
0302
0000
0000
0023
0000
0000
2030
0000
3000
,
0110
0000
0000
0000
0001
0000
0001
0010
0000
0010
1000
0000
1000
0100
0000
0000
,
0110
0000
0000
0000
1000
0000
1000
0010
0000
0010
0001
0000
0001
0100
0010
0100
,
0001
1000
0100
0000
0110
0000
0000
0000
1001
0000
0000
0010
0000
0000
1000
0000
,
0101
0000
0000
0000
0010
0000
0000
0000
1100
0000
0000
0001
0000
0000
0000
0100
,
0011
0000
0000
0000
1000
0000
0000
0000
0110
0000
0000
0001
0000
0001
0000
0000
,
1100
0000
0000
0000
0010
0000
0000
0000
0101
0000
0000
0010
0000
0000
0010
0000
,
1001
0000
0000
0000
0010
0000
0100
0000
0001
0000
1000
0100
0010
0100
1000
0000
,
0001
0000
0110
0000
1000
0000
0010
0100
0001
0000
1000
0000
0100
0010
0001
0000
,
1000
0000
0010
0000
0001
0000
0000
0000
0110
0000
1000
0100
0010
0100
1000
0001
,
0100
0000
0020
0000
0000
0000
0000
0000
0000
0000
2030
0000
3002
0000
0013
0100
;

//---------------dance-double - ----------------
#NOTES:
     dance-double:
     :
     Hard:
     10:
     0.753711,0.755305,0.534825,0.173457,0.545666,730.000000,656.000000,74.000000,24.000000,0.000000,0.000000,0.753711,0.755305,0.534825,0.173457,0.545666,730.000000,656.000000,74.000000,24.000000,0.000000,0.000000:
00000000
00000000
00000000
00000000
,
00000000
00000000
00000000
00000000
,
10000000
00000000
01000000
10000000
00010000
00000000
00100000
00000000
00001000
00010000
00000000
00000100
00000010
00000001
00000000
00001000
,
00000200
00000000
00000000
00020000
00000000
00000000
00000000
00000000
00000300
00000000
00000000
00000000
00000000
00000000
00000000
00000000
,
00030000
00000000
00001000
00000000
00100000
00000000
00010000
00000000
10010000
00000000
10000000
01000000
00000000
00000000
00010000
00000000
,
00001000
00100000
00000000
00000000
00010000
10000000
00000000
10000000
01000000
00000000
00010000
00000000
00001000
00000000
00000000
00000100
,
00000000
00000001
00000000
00000010
00000100
00000000
00001000
00000010
00001000
00000000
00000001
00000100
00000000
00000010
00010000
00000000
,
00000000
00001000
00100000
00000000
00010000
00000000
10000000
00100000
10000000
00000000
00010000
00000000
00010000
00000000
01000000
00001000
,
00000000
00001000
00010000
00000000
00000010
00000000
00001000
00000000
00001001
00000000
00000001
00000100
00000000
00000000
00001000
00000000
,
00010000
00000010
00000000
00000000
00001000
00000001
00000000
00000001
00000100
00000000
00001000
00000000
00010000
00000000
00000000
01000000
,
00000000
10000000
00000000
00100000
01000000
00000000
00010000
00100000
00010000
00000000
10000000
01000000
00000000
00100000
00001000
00000000
,
00000000
00010000
00000010
00000000
00001000
00000000
00000001
00000010
00000001
00000000
00001000
00000000
00001000
00000000
00000100
00010000
,
00000000
00010000
00001000
00000000
00100000
00000000
00100000
00000000
00010000
00000000
01000000
00001000
00000000
00100000
00001000
00000000
,
00010000
00000000
00000010
00000000
00001000
00000000
00000001
00000100
00000001
00000000
00000010
00000000
00001000
00000000
00010000
00000100
,
00000000
00010000
00001000
00000000
00100000
00000000
00100000
00010000
10000000
00000000
01000000
00100000
00000000
01000000
00010000
00000000
,
00001000
00000000
00010000
00000000
00100000
00000000
00010000
00001000
00010000
00000000
00000100
00000000
00000010
00000000
00000001
00000100
,
00000001
00000000
00001000
00000000
00000010
00000000
00000010
00000000
00001000
00000000
00000100
00010000
00000000
00000010
00010000
00000000
,
00001000
00000000
00100000
00000000
00010000
00000000
10000000
01000000
10000000
00000000
00200000
00000000
00320000
00000000
00032000
00000000
,
00003020
00000000
00000032
00000000
00001003
00000000
00000010
00000000
00001000
00000000
00000100
00000010
00000000
00000010
00001000
00000000
,
00010000
00000000
00001000
00000000
00000010
00000000
00001000
00010000
00001000
00000000
01000000
00010000
00000000
10000000
00010000
10000000
,
00100000
01000000
00010000
00000000
10010000
00000000
00000000
00000000
10000000
00000000
00000000
00000000
01000000
00000000
10000000
00000000
,
00000000
00010000
00100000
00000000
00001000
00010000
00000000
00000100
,
00000010
00000000
00000110
00000000
00000001
00000000
00000100
00000001
,
00000000
00001000
00000010
00000000
00010000
00001000
00000000
01000000
,
00010000
10010000
10000000
20000000
,
30010000
00020000
00031000
00002000
,
00003001
00000000
00000002
00000000
00001003
00000010
00001000
00000010
,
00010000
00000000
00001000
00000000
00010000
00000000
00001000
00000000
01000000
00010000
01000000
00010000
10000000
01000000
10000000
01000000
,
00100000
00000000
00000000
00000000
00010000
00000000
10000000
00100000
00000000
01000000
00010000
00000000
00100000
00001000
00100000
00000000
,
00001000
00000000
00010000
00000000
00010100
00000000
00000100
00000000
00000010
00000000
00000001
00001000
00000001
00001000
00000100
00000000
,
00001000
00000000
00000001
00000000
00000100
00000000
00000001
00000010
00000000
00000100
00001000
00000000
00000010
00010000
00000010
00000000
,
00010000
00001000
01010000
00000000
00100000
10000000
01100000
00000000
,
00020000
00000000
00030000
00000000
10000000
01000000
00000000
00100000
00010000
00000000
01000000
00001000
01000000
00000000
00001000
00000000
,
00010000
00000000
00010010
00000000
00000010
00000000
00000100
00000000
00000001
00001000
00000001
00001000
00000010
00000000
00001000
00000000
,
00000001
00000000
00000010
00000000
00000001
00000100
00000000
00000010
00001000
00000000
00000100
00010000
00000100
00000000
00010000
00000000
,
00001000
00000000
01000000
00000000
00100000
10000000
00000000
00100000
01000000
00100000
01000000
00000000
02200000
00000000
03300000
00000000
,
10010000
00000000
10000000
01010000
00000000
00110000
00100000
00001000
,
00011000
00000000
00000000
00000000
00000100
00000000
00000001
00001000
00000001
00001000
00000001
00000000
00000010
00000000
00000000
00000100
,
00001000
00000000
00000001
00001100
00000000
00001010
00000010
00010000
,
00011000
00000000
00000000
00000000
01001000
00000000
00010000
00000000
00000000
00100000
10000000
00000000
10100000
00000000
00100000
00000000
,
10010000
00000000
10000000
00000000
11000000
00000000
00100000
00010000
00000000
00010000
01000000
00000000
00001000
00000000
00010000
00000100
,
00010000
00000000
00000010
00001100
00001000
00000001
00000101
00000100
,
00001001
00000000
00000000
00000000
00000010
00000000
00010000
00001000
00010000
00000000
00000010
00000000
00000000
00000000
00010000
00000000
,
00011000
00000000
00000000
00000000
00100000
00000000
00010000
00000000
01000000
00100000
01000000
00100000
10000000
00000000
00100000
01000000
,
00010000
00000000
10000000
00100000
00000000
00000000
00010000
00000000
00001000
01000000
00000000
00000000
00010000
10000000
00000000
10000000
,
00100000
00000000
00010000
00000000
00001000
00000000
00000000
00000010
00000000
00000001
00000000
00000100
00000010
00000000
00001000
00000100
,
00001000
00000000
00000001
00000010
00000000
00000100
00010000
00000000
00000000
00001000
01000000
00000000
00010000
00000000
10000000
01000000
,
10000000
00000000
00010000
00000000
00010000
00000000
00100000
00001000
00000000
00001000
00010000
00000000
00000100
00000000
00001000
00000000
,
00001001
00000000
00000001
00000010
00000000
00000000
00001000
00000000
00010000
00000100
00000000
00000000
00001000
00000001
00000000
00000001
,
00000020
00002030
00023000
00230000
20300000
30010000
00100000
01000000
,
10000000
00100000
00010000
00001000
01000000
00010000
00100000
00001000
,
00010000
00000100
00000010
00001000
00010000
00000010
00000100
00000001
,
00001000
00001000
00000001
00000001
,
00000100
00000100
00001000
00001000
,
00100000
00100000
00010000
00010000
,
10000000
10000000
00100000
00100000
,
10000000
00000000
00010000
00000000
00100000
00000000
00010000
00000000
10000000
00000000
00010000
00000000
01000000
00000000
00001000
00010000
,
00000100
00000000
00001000
00000000
00000001
00000000
00001000
00000000
00000010
00000000
00001000
00000000
00000001
00000000
00000100
00000010
,
00010000
00001000
00100000
00010000
01000000
00100000
10000000
00010000
,
01000000
00010000
01000000
00010000
00100000
00001000
00100000
00001000
00020000
00000000
00000000
00000000
00030100
00000000
00000000
00000000
,
00000110
00000000
00000000
00000000
00001001
00000000
00000000
00000010
00000000
00000000
00010010
00000000
00000000
00000000
00010000
00000000
,
00011000
00000000
01001000
00100000
00000000
00100000
10000000
00000000
,
00010000
00000000
00000000
00000000
10010000
00000000
00000000
00100000
00000000
00000000
00101000
00000000
00000000
00000000
00001000
00000000
,
00011000
00000000
00010100
00000020
00000000
00000030
00000001
00000000
,
00001001
00000000
00000000
00000100
00000000
00000000
00010100
00000000
00000000
00000000
00010000
00000000
00011000
00000000
00000000
00000000
,
00101000
01000000
00000000
01000000
10000000
00000000
00110000
01000000
,
00000000
01001000
00010000
00000000
00010100
00000010
00000000
00000010
,
00000001
00000100
00000001
00000100
00000010
00001000
00000010
00001000
00000100
00000000
00000000
00010000
00001000
00000000
00001000
00000000
,
00101000
00000000
00000000
00110000
00000000
00000000
10010000
00000000
00000000
00000000
10000000
00000000
01010000
00000000
00000000
00000000
,
00101000
00010000
00000000
00001000
00000200
00000000
00000301
00000010
,
00000011
00000000
00000000
00000110
00000000
00000000
00001100
00000000
00000000
00000000
00001000
00000000
00010010
00000000
00000000
00000000
,
00001000
00000000
00201000
00000000
00000000
00000000
00000000
00000000
00310000
00000000
00000000
00000000
10010000
00000000
00000000
01000000
,
00000000
00000000
01001000
00000000
00000000
00000000
00001000
00000000
00011000
00000000
00000000
00000000
00010000
00000000
00000010
00001000
,
00000010
00001000
00000010
00001000
00000001
00000000
00000000
00000000
00001010
00000000
00000100
00000000
00000000
00000000
00010100
00000000
,
00001000
00000000
01001000
00100000
00000000
10100000
00000000
00000000
,
10010000
00000000
00000000
00000000
00100000
00000000
00000000
00000000
10100000
00000000
00000000
10000000
00000000
00000000
00010000
00000000
,
01000000
00000000
00001000
00010000
00001000
00000000
00000000
00000000
00010100
00000000
00000000
00000010
00000000
00000000
00000001
00001000
,
00000100
00000000
00000000
00000000
00000010
00000000
00000000
00000000
00000011
00000000
00000000
00000001
00000000
00000100
00000000
00000000
,
00001000
00000000
00010000
00000100
00010000
00000000
00001000
00000000
00100000
00000000
00010000
01000000
00000000
01000000
00100000
00000000
,
10010000
00000000
00000000
00000000
01000000
00000000
00000000
00000000
11000000
00000000
00000000
10000000
00000000
00000000
00010000
00000000
,
00100000
00000000
00001000
00010000
00001000
00000000
00000000
00000000
00010010
00000000
00000000
00000100
00000000
00000000
00000001
00001000
,
00000010
00000000
00000000
00000000
00000100
00000000
00000000
00000000
00000101
00000000
00000000
00000001
00000000
00000010
00000000
00000000
,
00001000
00000000
00010000
00000010
00010000
00000000
00001000
00000000
01000000
00000000
00000000
00010000
00000000
00000000
10000000
00100000
,
10000000
00000000
01000000
00000000
10010000
00000000
00000000
00000000
01010000
00000000
00000000
00100000
00000000
00000000
00001000
00010000
,
00001000
00000000
00000010
00000000
00000100
00000000
00000000
00000000
00001001
00000000
00000000
00000000
00000001
00000000
00001000
00000100
,
00000010
00000000
00000000
00000000
00000001
00000000
00000100
00000000
00001000
00000000
00000000
00010000
00000000
00000100
00000000
00000000
,
00011000
00000000
00100000
00010000
00100000
00000000
01000000
00000000
10000000
00000000
00100000
01000000
00000000
00000000
00100000
00000000
,
10010000
00000000
10000000
00000000
00010000
00000000
00000000
00100000
,
00001000
00010000
00000100
00000000
00000110
00000000
00000000
00001001
,
00000100
00000000
00000001
00000000
00001000
00000000
00000000
00000100
,
00010000
00002000
00000000
00000000
00000000
00103000
01000000
00100000
;

//---------------dance-double - ----------------
#NOTES:
     dance-double:
     :
     Medium:
     8:
     0.547215,0.591108,0.231276,0.093956,0.144547,530.000000,498.000000,32.000000,13.000000,0.000000,0.000000,0.547215,0.591108,0.231276,0.093956,0.144547,530.000000,498.000000,32.000000,13.000000,0.000000,0.000000:
00000000
00000000
00000000
00000000
,
00000000
00000000
00000000
00000000
,
00000001
00000000
00000010
00000000
00000100
00000000
00001000
00000000
00010000
00000000
00100000
00000000
01000000
10000000
01000000
00100000
,
00002000
00000000
00000000
00020000
00000000
00000000
00000000
00000000
00003000
00000000
00000000
00000000
00000000
00000000
00000000
00030000
,
00000000
00000000
00000100
00000000
00000010
00000000
00000001
00000000
00001000
00000000
00000000
00000100
00000000
00000000
00000010
00000000
,
00000000
00001000
00000000
00000000
00010000
00000000
01000000
00000000
00000000
00000000
10000000
00000000
00010000
00000000
00000000
00100000
,
00000000
00001000
00000000
00000000
00010000
00000000
00000100
00000000
00001000
00000000
00000000
00000001
00000000
00000000
00001000
00000000
,
00000000
00000100
00000000
00000000
00000010
00000000
00000001
00000000
00000000
00000000
00000100
00000000
00001000
00000000
00010000
00000000
,
00100000
00000000
10000000
00000000
00010000
00000000
00100000
00000000
00010000
00000000
00000000
01000000
00000000
00000000
00100000
00000000
,
00000000
00010000
00000000
00000000
00001000
00000000
00000100
00000000
00000000
00000000
00000001
00000000
00001000
00000000
00000000
00000010
,
00000000
00010000
00000000
00000000
00001000
00000000
01000000
00000000
00010000
00000000
00000000
10000000
00000000
00000000
00010000
00000000
,
00000000
01000000
00000000
00000000
00100000
00000000
10000000
00000000
00000000
00000000
01000000
00000000
00010000
00000000
00001000
00000000
,
00000010
00000001
00001000
00000010
00001000
00000001
00000000
00000100
,
00001000
00010000
00000000
00000100
00000010
00000100
00000000
00000010
,
00001000
00010000
00100000
00000000
10000000
00010000
01000000
00100000
,
10000000
00000000
01000000
00100000
00010000
00000000
10000000
00100000
,
00010000
00100000
10000000
00000000
00010000
10000000
00000000
01000000
,
00010000
00001000
00000000
01000000
00100000
01000000
00001000
00020000
,
00000000
00031000
00000010
00000000
00000001
00001000
00000100
00000010
,
00000001
00000000
00000000
00000000
00000100
00000000
00000010
00000000
00001000
00000000
00000000
00001000
00000000
00000000
00010000
00000000
,
01000000
00100000
10000000
00000000
00010000
00000000
00000000
00000000
,
00010000
00000000
00010000
00000000
,
00010000
00000000
00001000
00000000
,
00001000
00000000
00001000
00000000
,
00001000
00000000
00000001
00000001
,
00001000
00000010
00001000
00000000
00010000
00000000
00010000
00000000
,
10000000
00100000
10000000
00000000
00100000
01000000
00100000
01000000
,
00001000
00010000
00001000
00010000
00000100
00000010
00000100
00000010
,
00000001
00000000
00001001
00000000
00000001
00000100
00000000
00000010
,
00001000
00000100
00010000
00000000
00001000
00000000
00000000
00100000
,
00010000
00000000
10010000
00000000
10000000
01000000
00000000
00100000
,
00001000
00010000
00000100
00000000
00000010
00001000
00010000
00000000
,
00011000
00000000
00000100
00000001
00000010
00000000
00000100
00010000
,
00001000
00000100
00000000
00000010
00000000
00010000
00001000
00000000
,
00100000
01000000
00000000
10000000
00100000
00000000
01000000
00001000
,
00010000
00000000
01000000
00000000
00000000
10000000
00000000
00000000
00010000
00000000
00100000
00000000
00002000
00000000
00000000
00000000
,
00013000
00000000
00000100
00000010
00000000
00000001
00000100
00000010
,
00010000
00000000
00001000
00000100
00001000
00010000
01000000
00000000
,
10000000
00000000
00100000
00010000
00000000
00001000
01000000
00100000
,
10000000
00000000
01000000
00010000
00001000
00000100
00000001
00000000
,
00001000
00000000
00000010
00000100
00000000
00000001
00000010
00000100
,
00010000
00000000
00001000
00000010
00001000
00010000
00100000
00000000
,
10000000
00000000
01000000
00010000
00000000
00001000
00100000
01000000
,
10000000
00000000
00100000
00010000
00001000
00000010
00000001
00000000
,
00001001
00000000
00000001
00000100
00000000
00000100
00001000
00010000
,
00000010
00001000
00000100
00000000
00010000
00001000
01000000
00000000
,
00010000
10000000
01000000
00010000
00001000
00000000
00100000
00010000
,
10000000
00100000
10000000
01000000
00010000
00001000
00000100
00000000
,
00001001
00000000
00000001
00000010
00000000
00000010
00001000
00010000
,
00000100
00001000
00000010
00010000
00000000
00001000
00100000
00000000
,
00010000
10000000
00100000
00010000
00001000
00000000
01000000
00010000
,
10000000
01000000
10000000
00100000
00010000
00001000
00000010
00000000
,
00001001
00000001
00000010
00000010
,
00000100
00000100
00001000
00001000
,
00010000
00010000
00100000
00100000
,
01000000
01000000
10000000
10000000
,
00010000
01000000
00010000
01000000
00100000
10000000
00100000
10000000
,
00010000
00100000
00010000
00100000
00001000
00010000
00001000
00010000
,
00000100
00001000
00000100
00001000
00000001
00000100
00000001
00000100
,
00000010
00001000
00000100
00000010
00002002
00003003
00000010
00000000
,
00000010
00000000
00000000
00000000
00001000
00000000
00000000
00000001
00000000
00000000
00001000
00000000
00000000
00000000
00000100
00000000
,
00010000
00000000
00011000
00001000
01000000
00010000
00100000
00000000
,
00100000
00000000
00000000
00000000
00010000
00000000
00000000
10000000
00000000
00000000
00010000
00000000
00000000
00000000
01000000
00000000
,
00001000
00000000
00000000
00000000
00011000
00000000
00010000
00000000
00000100
00000000
00000000
00000010
00000001
00000000
00000000
00000000
,
00001001
00000000
00000000
00000010
00000000
00000000
00001001
00000000
00000000
00000000
00000100
00000000
00010000
00000000
00000000
00000000
,
00011000
00001000
00000000
00100000
01000000
00000000
10010000
10000000
,
00000000
01010000
00010000
00000000
00101000
00001000
00000000
00010010
,
00000010
00000000
00001000
00000000
00000100
00000000
00000000
00000000
00011000
00000000
00000000
00100000
00010000
00000000
10000000
00000000
,
10010000
00000000
00000000
01000000
00000000
00000000
10010000
00000000
00000000
00000000
01000000
00000000
00001000
00000000
00000000
00000000
,
00011000
00010000
00000000
00000010
00000100
00000000
00001001
00000001
,
00000010
00000000
00000000
00001000
00000000
00000000
00010000
00000000
00000000
00000000
00100000
00000000
10000000
00000000
00000000
00000000
,
00010000
00000000
02200000
00000000
00000000
00000000
03300000
00000000
10010000
00000000
00000000
00000000
10100000
00000000
00000000
01000000
,
00000000
10010000
00000000
01000000
01001000
00000000
00010010
00000020
,
00000000
00000000
00001030
00000000
00000001
00000100
00000000
00000010
,
00001000
00000000
00010000
01000000
00000000
00100000
00000000
00000000
,
00000000
00000000
00000000
00000000
10000000
00000000
00000000
00000000
00010000
00000000
00000000
00100000
00000000
00000000
00001000
00000000
,
00010000
00000000
00000000
00000000
00000100
00000000
00000010
00000000
00000001
00000000
00000000
00001000
00000000
00000000
00000001
00000000
,
00000010
00000000
00000000
00000000
00000100
00000000
00010000
00000000
00001000
00000000
00000000
00000010
00000000
00000010
00000000
00000000
,
00001000
00000000
00010000
00000000
01000000
00000000
00000000
00000000
10000000
00000000
00000000
00010000
00000000
00000000
01000000
00000000
,
10010000
00000000
00000000
00000000
10000000
00000000
00000000
00000000
00010000
00000000
00000000
01000000
00000000
00000000
00001000
00000000
,
00010000
00000000
00000000
00000000
00000010
00000000
00000100
00000000
00000001
00000000
00000000
00001000
00000000
00000000
00000001
00000000
,
00000100
00000000
00000000
00000000
00000010
00000000
00010000
00000000
00001000
00000000
00000000
00000100
00000000
00000100
00000000
00000000
,
00001000
00000000
00010000
00000000
00100000
00000000
00000000
00000000
10000000
00000000
00000000
00010000
00000000
00000000
00100000
00000000
,
10010000
10000000
00010000
00000000
00100000
00000000
00001000
00010000
,
00000100
00000000
00000010
00000000
00000001
00000000
00000000
00000000
00001001
00000000
00000000
00001000
00000000
00000000
00000000
00000100
,
00010000
00000000
00000000
00000000
00001000
00000000
00000000
00000000
00100000
00000000
00000000
01000000
00000000
01000000
00000000
00000000
,
10000000
00000000
00010000
00000000
01000000
00000000
00000000
00000000
01001000
00000000
00000000
00010000
00000000
00000000
00000100
00000000
,
00000110
00000000
00000002
00000000
00001003
00000000
00000000
00000100
,
00000000
00010000
00002000
00000000
01000000
00000000
01003000
00100000
,
00000000
00000000
20000000
00000000
30010000
00000000
00000000
01000000
,
00001000
00020000
00000000
00000000
00000000
00030000
00000100
00000010
;

//---------------dance-double - ----------------
#NOTES:
     dance-double:
     :
     Easy:
     5:
     0.330394,0.361233,0.108410,0.115638,0.003614,320.000000,305.000000,15.000000,16.000000,0.000000,0.000000,0.330394,0.361233,0.108410,0.115638,0.003614,320.000000,305.000000,15.000000,16.000000,0.000000,0.000000:
// measure 0
00000000
00000000
00000000
00000000
,  // measure 1
00000000
00000000
00000000
00000000
,  // measure 2
10000000
00000000
10000000
00000000
00010000
00100000
00001000
00010000
,  // measure 3
00000100
00000000
00000000
00000100
00000000
00000000
00000000
00000000
00000000
00000000
00000000
00000000
00000000
00000000
00000000
00000000
,  // measure 4
00000000
00000000
00000010
00000001
,  // measure 5
00001000
00000001
00000010
00001000
,  // measure 6
00010000
00001000
00100000
00010000
,  // measure 7
10000000
01000000
00010000
00001000
,  // measure 8
00100000
00010000
10000000
01000000
,  // measure 9
10000000
00100000
00010000
00001000
,  // measure 10
01000000
00010000
10000000
01000000
,  // measure 11
00010000
00001000
00000100
00000001
,  // measure 12
00000010
00001000
00010000
00000100
,  // measure 13
00000010
00000001
00001000
00000100
,  // measure 14
00010000
00001000
00100000
00010000
,  // measure 15
01000000
10000000
01000000
00100000
,  // measure 16
10000000
01000000
00010000
00001000
,  // measure 17
00000100
00000010
00001000
00000001
,  // measure 18
00000100
00000010
00010000
00001000
,  // measure 19
00100000
00010000
10000000
00010000
,  // measure 20
00100000
10010000
10000000
00000000
,  // measure 21
10000000
00000000
01000000
00000000
,  // measure 22
01000000
00000000
00010000
00000000
,  // measure 23
00010000
00000000
00001000
00000000
,  // measure 24
00001000
00000000
00000100
00000100
,  // measure 25
00000100
00000100
00000001
00000001
,  // measure 26
00000001
00000001
00001000
00001000
,  // measure 27
00001000
00001000
00000010
00000010
,  // measure 28
00000010
00000000
00010000
00000000
00001000
00000000
00000000
00100000
,  // measure 29
00000000
00010000
10000000
00000000
01000000
00000000
00000000
00010000
,  // measure 30
00000000
00000000
00001000
00000000
00000100
00000000
00000000
00000001
,  // measure 31
00000000
00000010
00000001
00000000
00001000
00000100
00000000
00000000
,  // measure 32
00000000
00000000
00000000
00010000
00000000
00000000
00001000
00000000
,  // measure 33
00100000
01000000
00000000
10000000
00000000
00000000
00010000
00000000
,  // measure 34
00000000
01000000
00000000
00100000
00000000
00000000
10000000
00000000
,  // measure 35
01000000
00100000
00000000
00001000
00000000
00020000
00000000
00030000
,  // measure 36
00001000
00000100
00000001
00001000
,  // measure 37
00000100
00000000
00010000
00001000
00000000
00000000
00011000
00000000
,  // measure 38
00010000
01000000
10000000
00010000
,  // measure 39
01000000
00000000
00001000
00010000
00000000
00010000
00000100
00000000
,  // measure 40
00000010
00000000
00000001
00001000
00000000
00000000
00001001
00000000
,  // measure 41
00000001
00000000
00001000
00000100
00000000
00010000
00001000
00000000
,  // measure 42
00100000
02000000
00000000
03000000
,  // measure 43
10010000
00000000
00000000
00000000
,  // measure 44
00100000
10000000
00010000
10000000
,  // measure 45
00100000
00010000
00001000
00010000
,  // measure 46
00000010
00001000
00000001
00000100
,  // measure 47
00001000
00010000
00000010
00001000
,  // measure 48
00000001
00000100
00000001
00000010
,  // measure 49
00001000
00010000
00000100
00001000
,  // measure 50
00000001
00000100
00001000
00010000
,  // measure 51
01000000
10000000
00100000
01000000
,  // measure 52
00010000
00010000
00010000
00010000
,  // measure 53
10000000
10000000
10000000
10000000
,  // measure 54
01000000
01000000
01000000
01000000
,  // measure 55
00010000
00010000
00010000
00010000
,  // measure 56
00001000
00001000
00001000
00001000
,  // measure 57
00000100
00000100
00000100
00000100
,  // measure 58
00000001
00000001
00000001
00000001
,  // measure 59
00001000
00001000
00001001
00000001
,  // measure 60
00000000
00000000
00000010
00000000
00000000
00000100
00000000
00000000
,  // measure 61
00010000
00001000
00000000
00100000
,  // measure 62
00000000
00000000
00010000
00000000
00000000
10000000
00000000
00000000
,  // measure 63
10010000
00000000
00000000
00100000
00000000
00000000
10000000
00000000
,  // measure 64
00100000
00000000
00000000
01000000
00000000
00000000
00001000
00000000
,  // measure 65
00010000
00000000
00000010
00001000
,  // measure 66
00000000
00000002
00000000
00000000
00000203
00000000
00000000
00002300
,  // measure 67
00000000
00013000
00001000
01000000
,  // measure 68
10010000
00000000
00000000
00100000
00000000
00000000
00001000
00000000
,  // measure 69
00010000
00000000
00000100
00000000
,  // measure 70
00001000
00000000
00000000
00000001
00000000
00000000
00001001
00000000
,  // measure 71
00000000
00000100
00000000
00000000
00000001
00000000
00000100
00000000
,  // measure 72
00000000
00000010
00000000
00000000
00010000
00000000
00001000
00000000
,  // measure 73
00000000
00000000
00100000
00000000
00010000
00000000
00000000
20000000
,  // measure 74
00000000
00000000
32000000
00000000
00000000
03020000
00000000
00000000
,  // measure 75
00031000
00011000
00000100
00000001
,  // measure 76
00000000
00000001
00000010
00001000
,  // measure 77
00000000
00010000
00100000
10000000
,  // measure 78
00000000
10000000
01000000
00010000
,  // measure 79
00000000
00011000
00001000
00000100
,  // measure 80
00000000
00011000
00010000
01000000
,  // measure 81
00000000
00011000
00001000
00000010
,  // measure 82
00000000
00011000
00010000
00100000
,  // measure 83
00000000
01100000
10010000
00000000
,  // measure 84
10000000
01000000
00010000
00000000
,  // measure 85
00001000
00000010
00000001
00000000
,  // measure 86
00000001
00000100
00001000
00000000
,  // measure 87
00010000
00000000
00100000
00000000
20000000
00000000
00000000
30020000
,  // measure 88
00000000
00000000
00230000
00000000
00302000
00000000
00000000
00023000
,  // measure 89
00000000
00000000
00030200
00000000
00000320
00000000
00000000
00000031
,  // measure 90
00000000
00002000
00000000
00000000
00000000
00000000
00000100
00003100
;

//---------------dance-double - ----------------
#NOTES:
     dance-double:
     :
     Challenge:
     11:
     0.845602,0.952341,0.686600,0.260185,0.780555,819.000000,724.000000,95.000000,36.000000,0.000000,0.000000,0.845602,0.952341,0.686600,0.260185,0.780555,819.000000,724.000000,95.000000,36.000000,0.000000,0.000000:
00000000
00000000
00000000
00000000
,
00000000
00000000
00000000
00000000
,
00000001
00000000
00000000
00000000
00001000
00000000
00000100
00000000
00000001
00000000
00000000
00000000
00000100
00000000
00000000
00000000
00001000
00000000
00000000
00000000
00010000
00000000
00100000
01000000
10000000
00000000
00010000
00100000
01000000
00100000
00010000
00000000
,
10000000
00000000
01000000
00100000
00001000
00000000
00010000
00000000
00011000
00000000
00000000
00000000
00000000
00000000
00000000
00000000
,
00000000
00000100
00001000
00000000
00000010
00000000
00000010
00000000
00000100
00000000
00000000
00000101
00000000
00000000
00000010
00000000
,
00000000
00001001
00000000
00000000
00000010
00010000
00001000
00100000
00000000
00000000
00010000
00000000
10000000
00000000
00000000
10100000
,
00000000
10000000
00010000
00000000
00110000
00000000
00101000
00000000
00001000
00000000
00000000
00010100
00000000
00000000
00000010
00000000
,
00000000
00001001
00000000
00000000
00000001
00000000
00001000
00000000
00000000
00000000
00000110
00000000
00001001
00000000
00000001
00000010
,
00000000
00000000
00001010
00000000
00001000
00000000
00010000
00000000
01000000
00000000
00000000
11000000
00000000
00000000
00100000
00000000
,
00000000
10010000
00000000
00000000
00100000
00001000
00010000
00000010
00000000
00000000
00001000
00000000
00000001
00000000
00000000
00000011
,
00000000
00000001
00001000
00000000
00001010
00000000
00010010
00000000
00010000
00000000
00000000
01001000
00000000
00000000
00100000
00000000
,
00000000
10010000
00000000
00000000
10000000
00000000
00010000
00000000
00000000
00000000
01100000
00000000
10010000
00000000
10000000
00100000
,
00000000
00000000
00110000
00000000
00010000
00000000
00001000
00000000
00000100
00000000
00000001
00000010
00000000
00000100
00010000
00000000
,
00000010
00001000
00000100
00000000
00010000
00001000
00100000
00010000
00000000
00000000
10000000
00010000
01000000
00000000
00100000
10000000
,
00000000
00010000
01000000
00000000
00001000
00010000
00000100
00010000
00001000
00000000
00000100
00000001
00001000
00000000
00000010
00010000
,
00000000
00010000
00001000
01000000
00001000
01000000
00010000
10000000
00100000
00000000
10000000
00010000
00100000
00000000
01000000
10000000
,
00010000
00000000
00100000
00000000
00001000
00000000
00010000
00000000
01000000
00000000
10000000
00100000
00000000
01000000
00001000
00000000
,
00100000
00010000
01000000
00000000
00001000
00010000
00000010
00001000
00000000
00000000
00000001
00001000
00000100
00000000
00000010
00000001
,
00000000
00001000
00000100
00000000
00010000
00001000
01000000
00001000
00010000
00000000
01000000
10000000
00010000
00000000
00100000
00001000
,
00000000
00001000
00010000
00000100
00010000
00000100
00001000
00000001
00000010
00000000
00000001
00001000
00000000
00000100
00010000
00000100
,
00010000
00001000
00100000
00000000
00020000
00000000
00000000
00000000
10030000
00000000
00000000
00000000
00000000
00000000
00000000
00000000
,
10000000
02000000
00000000
00000000
03010000
00000000
00000000
00000000
,
00010000
00002000
00000000
00003000
00000100
00000000
00000000
00000000
,
00000100
00000002
00000000
00000000
00000013
00000000
00000000
00000000
,
00000010
00002000
00000000
00000000
00013000
00000000
00010000
00000000
,
01000000
01000000
10000000
10000000
,
00100000
00000000
00100000
00000000
00010000
00001000
00010000
00001000
,
00000100
00000000
00000001
00000000
00000100
00000000
00000001
00000000
00001000
00000010
00001000
00000010
00010000
00001000
00010000
00001000
,
02000000
03000000
20010000
00000000
01000000
00000000
30010000
00100000
,
00001000
00000000
00010000
00000000
00000010
00001000
00000010
00001000
00000001
00000010
00000001
00000010
00000100
00010000
00000100
00010000
,
00001000
00010000
00001000
00100000
00020000
00000000
00000000
00000000
01000000
00000000
00000000
00000000
10030000
00100000
10000000
00100000
,
01000000
00010000
01000000
00010000
10000000
01000000
10000000
01000000
00100000
00001000
00100000
00001000
00010000
00001000
00010000
00000000
,
00000000
00000000
00000000
00000000
00011000
00000000
00000000
00000000
00000100
00000001
00000100
00000001
00001000
00000100
00001000
00000100
,
00000010
00000001
00000010
00000001
00001000
00000010
00001000
00000010
00010000
00000010
00010000
00000010
00010000
00001000
00010000
00001000
,
00010000
00000000
00000000
00000000
00011000
00000000
00000000
00000000
01000000
10000000
01000000
10000000
00010000
01000000
00010000
01000000
,
00100000
00000000
10000000
01000000
00000000
00010000
00001000
00100000
00010000
00000000
00001000
00000000
00001000
00000000
00001000
00000000
,
00000001
00000000
00000000
00000000
00000011
00000000
00001001
00000000
00000000
00000000
00001010
00000000
00010010
00000000
00010000
00001000
,
01000000
00000000
00000000
00000000
01010000
00000000
00010000
10000000
00100000
10000000
00100000
01000000
00010000
01000000
00010000
10000000
,
01000000
00000000
00000000
00000000
10100000
00000000
10010000
00000000
00000000
00000000
00110000
00000000
00101000
00000000
00001000
00010000
,
00000100
00000000
00000000
00000000
00001100
00000000
00001000
00000001
00000010
00000000
00000100
00001000
00000001
00000000
00001000
00000001
,
00000100
00000000
00000000
00000000
00000101
00000000
00001001
00000000
00000000
00000000
00001100
00000000
00010100
00000000
00010000
00001000
,
00100000
00000000
00000000
00000000
00110000
00000000
00010000
10000000
01000000
10000000
01000000
00100000
00010000
00100000
00010000
10000000
,
00100000
00000000
00000000
00000000
11000000
00000000
10000000
00010000
00100000
00000000
00001000
00000000
00000010
00000000
00000001
00000000
,
00001001
00000000
00000000
00000000
00000100
00000000
00000010
00000000
00000001
00000100
00000010
00000100
00002000
00000000
00023000
00000000
,
00130000
00000000
10000000
00000000
10010000
00000000
00010000
00100000
00000000
00010000
01000000
00001000
00010000
00000000
00000100
00001000
,
00000010
00000000
00000100
00000000
00000101
00000000
00000001
00000010
00000000
00001000
00010000
00000000
00000100
00000010
00000100
00010000
,
00001000
00000000
00100000
00010000
00000000
00010000
10000000
01000000
00010000
00000000
00001000
00000000
00100000
00000000
00010000
00000000
,
10010000
00000000
10000000
00000000
01000000
00000000
00010000
00001000
00010000
00000100
00000010
00000000
00000001
00000100
00000010
00001000
,
00000001
00000000
00000100
00000000
00001001
00000000
00001000
00000010
00000000
00001000
00000100
00010000
00001000
00000000
01000000
00010000
,
00100000
00000000
01000000
00000000
11000000
00000000
10000000
00100000
00000000
00010000
00001000
00000000
01000000
00100000
01000000
00001000
,
00010000
00000000
00000010
00001000
00000000
00001000
00000001
00000100
00001000
00000000
00010000
00000000
00000010
00000000
00001000
00000000
,
00001001
00000000
00000001
00000000
00000100
00000000
00001000
00010000
00001000
01000000
00100000
00000000
10000000
01000000
00100000
00010000
,
10000000
01000000
00001000
01000000
,
00100000
00001000
00000100
00000001
,
00001000
00000001
00000010
00010000
,
00000010
00000100
00010000
00100000
,
10000000
00000000
01000000
00000000
00100000
00000000
00010000
00000000
00001000
00000000
00000100
00000000
00000010
00000000
00000001
00001000
,
00000001
00000000
00000010
00000000
00000100
00000000
00001000
00000000
00010000
00000000
00100000
00000000
01000000
00000000
10000000
00010000
,
10000000
00100000
00010000
00001000
00000010
00000001
00000100
00000010
,
00001000
00000010
00001000
00000010
00010000
00001000
00010000
00001000
00200000
00000000
00300000
00000000
10020000
00000000
00000000
00000000
,
01000000
00000000
00000000
00000000
00031000
00000000
00000000
00000010
00000000
00000000
00001002
00000000
00000000
00000000
00000103
00000000
,
00002010
00000000
00003100
00010000
00101000
00000000
10020000
00000000
,
00100000
00000000
00000000
00000000
00031000
00000000
00000000
00000100
00000000
00000000
00001002
00000000
00000000
00000000
00000013
00000000
,
00002100
00000000
00003010
00010000
01001000
00000000
10010000
00000000
,
21000000
00000000
00000000
00010000
30000000
00000000
10200000
00000000
00000000
00000000
00310000
00000000
00010010
00000000
00000000
00000000
,
00001001
00000000
00000100
00000000
00000010
00000000
00000001
00000000
00002001
00000000
00000000
00000000
00003100
00010000
00002000
00000000
,
00000000
00000000
00013000
01000000
00200000
00000000
00000000
00000000
00310000
01000000
20000000
00000000
00000000
00000000
31000000
00010000
,
00100000
00001000
00100000
00001000
00010000
00000100
00010000
00000100
00000010
00000000
00000000
00000010
00000001
00000000
00001001
00000000
,
00000102
00000000
00000000
00001000
00000003
00000000
00000021
00000000
00000000
00000000
00001030
00000000
00101000
00000000
00000000
00000000
,
10010000
01000000
00100000
10000000
10020000
00000000
00100000
00130000
,
00101000
00000000
00000000
00011000
00000000
00000000
00010010
00000000
00000000
00000000
00000110
00000000
00001001
00000000
00000000
00000000
,
00000001
00000000
00002200
00000000
00000000
00000000
00003300
00000000
00011000
00000000
00000000
00000000
00210000
00000000
00000000
01000000
,
00300000
10010000
00000000
01001000
00011000
00000000
00001010
00000010
,
00000001
00001000
00000001
00001000
00000200
00000000
00000000
00000000
00000310
00010000
00002000
00000000
00000000
00000000
00013000
00100000
,
02000000
00000000
00000000
00000000
03010000
00100000
20000000
00000000
00000000
00000000
30100000
00000000
00000000
00000000
00000000
00000000
,
10010000
00000000
00000000
00000000
20000000
00000000
00000000
30100000
00010000
00000000
00000000
00001000
00000000
00000000
00000100
00000000
,
00000001
00000000
00001000
00000000
00000001
00000000
00000000
00000000
00000010
00000000
00000000
00001000
00000000
00000000
00010000
00000000
,
01000000
00000000
10000000
00000000
10010000
00000000
10000000
01000000
00000000
01000000
00010000
00000000
00010000
00001000
00000000
00001000
,
00000100
00000000
00000000
00000000
00001001
00000000
00000001
00000010
00000000
00000010
00001000
00000000
00001000
00010000
00000000
00010000
,
00100000
00000000
00000000
00000000
20000000
00000000
00000000
31000000
00010000
00000000
00000000
00001000
00000000
00000000
00000010
00000000
,
00000001
00000000
00001000
00000000
00000001
00000000
00000000
00000000
00000100
00000000
00000000
00001000
00000000
00000000
00010000
00000000
,
00100000
00000000
10000000
00000000
10010000
00000000
10000000
00100000
00000000
00100000
00010000
00000000
00010000
00001000
00000000
00001000
,
00000010
00000000
00000000
00000000
00001001
00000000
00000001
00000100
00000000
00000100
00001000
00000000
00001000
00010000
00000000
00010000
,
00100000
00000000
01000000
00000000
01100000
00000000
00000000
00000000
10010000
00000000
00000000
01000000
00000000
00000000
00010000
00000000
,
00101000
00000000
00000000
00000000
00010000
00000000
00000000
00000000
00001010
00000000
00000000
00000100
00000000
00000000
00000001
00001000
,
00000010
00000000
00000000
00000000
00000110
00000000
00000000
00000000
00001001
00000000
00000000
00000100
00000000
00001000
00000000
00000000
,
00010010
00000000
00000000
00000000
00001000
00000000
00000000
00000000
00110000
00000000
00000000
01000000
00000000
00000000
01000000
00000000
,
10010000
00000000
00000000
00000000
00100000
00000000
10000000
00000000
01000000
00000000
00010000
00001000
00000100
00001000
00010000
00000000
,
00000010
00001000
00000001
00001000
00000010
00000000
00000100
00001000
00010000
00000000
01000000
00000000
10000000
00100000
00010000
00000000
,
00001000
00000000
01000000
00000000
00001000
00000000
00000000
00000000
00011000
00000000
00001000
00010000
01000000
00010000
00001000
00000000
,
00100000
00020000
00000000
00000000
00000000
00031000
00000100
00001001
;
