#TITLE:NOVAmix5 (Terminal);
#SUBTITLE:;
#ARTIST:dj-kanine;
#TITLETRANSLIT:;
#SUBTITLETRANSLIT:;
#ARTISTTRANSLIT:;
#GENRE:;
#CREDIT:;
#BANNER:NOVAmix5 (Terminal).png;
#BACKGROUND:NOVAmix5 (Terminal)-bg.png;
#LYRICSPATH:;
#CDTITLE:;
#MUSIC:NOVAmix5 (Terminal).ogg;
#OFFSET:0.353000;
#SAMPLESTART:78.059998;
#SAMPLELENGTH:15.000000;
#SELECTABLE:YES;
#BPMS:0.000000=85.000000
,6.500000=106.250000
,6.833333=128.500000
,7.333333=148.750000
,8.500000=170.000000
,42.000000=127.500000
,54.000000=170.000000
,68.000000=85.000000
,69.000000=180.000000
,165.250000=260.000000
,274.000000=450.000000
,330.000000=225.000000
,333.000000=450.000000
,398.000000=100.000000
,414.000000=200.000000
,510.000000=100.000000
,524.000000=37.000000
,525.000000=300.000000
,717.000000=170.000000
,786.000000=340.000000
;
#STOPS:333.000000=0.130000,
722.500000=0.618000,
726.750000=0.265000,
727.000000=0.265000,
727.250000=0.088000,
735.000000=0.265000,
735.250000=0.265000,
735.500000=0.088000,
741.250000=0.309000,
741.375000=0.309000,
741.500000=0.132000,
745.125000=0.309000,
745.250000=0.309000,
745.375000=0.309000,
750.500000=0.353000,
751.000000=0.044000,
751.125000=0.044000,
751.250000=0.044000,
751.375000=0.044000,
751.500000=0.044000,
751.625000=0.044000,
751.750000=0.044000,
751.875000=0.044000,
752.000000=0.044000,
752.125000=0.044000,
752.250000=0.044000,
752.375000=0.044000,
756.000000=0.265000,
756.250000=0.265000,
756.500000=0.265000,
756.750000=0.265000,
761.000000=0.265000,
761.250000=0.265000,
761.500000=0.265000,
761.750000=0.265000,
762.500000=1.235000,
764.500000=0.353000,
813.000000=0.309000,
816.250000=0.309000,
819.500000=0.309000
;
#BGCHANGES:;
#KEYSOUNDS:;
#ATTACKS:;

//---------------dance-single - ----------------
#NOTES:
     dance-single:
     :
     Easy:
     7:
     0.432733,0.783506,0.091666,0.124998,0.089582,727.000000,705.000000,22.000000,30.000000,0.000000,0.000000,0.432733,0.783506,0.091666,0.124998,0.089582,727.000000,705.000000,22.000000,30.000000,0.000000,0.000000:
0000
1000
0000
1000
0000
0010
1000
0100
,
1000
0000
0001
0000
0000
0001
0000
0000
0000
0000
0000
0000
0000
0000
0000
0000
,
0000
0000
1000
0100
,
0010
0001
1000
0010
,
0100
0100
0001
0100
,
1000
0100
0001
0010
,
1000
0010
0001
0010
,
0100
0000
2000
0000
3000
0000
0002
0203
,
0300
0020
0030
0000
1000
0000
0010
0000
,
0001
0010
1000
1000
,
0100
0000
1001
0000
0100
0000
0000
0100
,
0000
0000
0100
0000
0000
0100
0000
0000
,
0100
0000
0000
0100
0000
0000
0100
0000
,
0000
0100
0000
0000
0001
0000
0001
0000
,
1000
1000
0100
0100
,
0010
0010
0100
1000
,
0001
0100
0010
0010
,
0010
0010
0001
0100
,
0010
0000
2000
0000
0100
0000
3001
0100
,
0001
1000
0100
0010
,
0010
0000
0002
0000
0100
0000
1003
0100
,
1000
0010
1000
0100
,
0010
0000
0002
0000
0100
0000
1003
0100
,
1000
0000
0001
0000
0100
0000
0010
1000
,
0010
0000
1000
0100
2000
0000
0010
0000
,
3001
1001
0001
0100
,
0010
1000
0000
1000
0001
0000
0010
0000
,
0100
2000
0010
0001
,
0100
3010
0000
0110
,
1001
0000
1000
0000
0100
0010
0000
0010
,
0001
0000
1000
0000
0001
0100
0000
0100
,
0010
1000
0100
0001
,
0010
2000
0100
3001
,
0000
1001
1000
0100
,
0010
0001
0000
0001
1000
0000
0010
0000
,
0100
0002
0010
1000
,
0100
0013
0000
0110
,
1001
0000
0001
0000
0100
0010
0000
0010
,
1000
0000
0001
0000
1000
0100
0000
0100
,
0010
0001
0100
1000
,
0010
0000
0001
0010
0001
0010
0100
1000
,
0100
2002
0000
0000
,
0000
0000
0000
3003
0000
0000
0000
0000
,
0000
0000
0000
0000
,
0000
0000
1000
0000
,
0001
0000
1000
0100
,
1000
0000
0001
0000
,
1000
0000
0001
0100
,
0001
0000
1000
0000
,
0001
0000
1000
0010
,
1000
0000
0001
0000
,
1000
0000
0001
0010
,
0001
0000
1000
0000
,
0001
0000
0100
0010
,
0100
0000
0001
0000
,
1000
0000
0100
0010
,
0100
0000
1000
0000
,
0010
0000
0100
0001
,
0100
0000
0001
0000
,
0010
0000
0100
1000
,
0100
0000
0010
0000
,
0001
0000
0100
0000
,
0010
0000
1000
0000
,
0100
0000
0001
0000
,
0010
0000
1000
0000
,
0100
0000
0010
0000
,
0001
0000
0100
0000
,
1000
0000
0010
0000
,
0001
0000
1000
0000
,
0001
0000
0010
0000
,
0100
0000
1000
0000
,
0001
0000
0100
0000
,
0001
0000
1000
0000
,
0100
0000
0010
0000
,
0100
0000
0010
0001
,
0010
0000
0100
1000
,
0100
0000
1000
0000
,
0010
0000
0100
0000
,
0001
0000
0010
0000
,
1000
0000
0100
0000
,
0001
0000
1000
0010
,
1000
0001
0010
0001
,
1000
0000
0000
0000
1000
0001
1000
0002
,
0000
0003
0000
0000
0001
0000
1000
0000
,
0100
0000
1000
0001
,
0100
0000
0001
1000
,
0010
0000
1000
0001
,
0010
0000
0100
1000
,
0001
0000
1000
0010
,
0100
0000
0001
0010
,
0100
0000
1000
0001
,
1000
0000
0010
0100
,
0001
0000
1000
0010
,
1000
0000
0100
0010
,
0001
0000
0001
0010
,
0001
0000
0100
0010
,
1000
0000
0010
1000
,
0001
0000
0100
0001
,
1000
0001
0010
0100
,
1000
0000
0000
0000
1001
0001
1000
0000
,
0010
0100
0001
0000
1000
0100
1000
0000
,
0020
2030
3002
0023
0130
0001
1000
0000
,
0100
1000
0001
0000
0001
0010
0100
1000
,
0002
0000
0003
0000
0000
0100
0100
0000
0010
0000
0000
0000
1000
0000
0000
0000
,
0010
1000
0100
0000
0010
0000
0100
0000
,
1000
0001
0100
0000
0010
0000
1000
0000
,
0001
0010
0100
0000
1000
0000
0100
0000
,
0110
0000
0010
0001
,
1000
0010
0100
0000
0001
0000
0100
0000
,
0010
1000
0001
0000
0010
0000
0001
0000
,
1000
0100
0010
0000
0100
0000
1100
0000
,
0000
0001
0001
0000
0100
0000
0010
0000
,
0100
0001
0010
0000
0100
0000
0010
0000
,
0001
0100
0010
0000
0100
0000
0001
0000
,
0010
0100
0010
0000
0001
0000
0100
0000
,
0110
0000
0010
1000
,
0100
0010
0100
0000
1000
0000
0010
0000
,
0100
0010
1000
0000
0100
0000
0010
0000
,
0100
1000
0010
0000
0100
0000
0010
0000
,
0110
0000
0010
1000
,
0001
0010
0100
0000
1000
0000
0010
0000
,
0100
0001
0010
0000
0100
0000
1000
0000
,
0010
0100
0001
0000
0010
0000
0100
0000
,
1001
0000
0100
0010
,
0100
1000
0010
0000
0100
0000
0001
0000
,
0100
0010
1000
0000
0001
0000
0010
0000
,
0100
1000
0001
0000
0100
0000
0010
0000
,
0100
0000
0001
0000
1000
0000
0000
0000
0100
0000
0000
0100
0000
0000
0000
0000
,
0010
0000
0000
0010
0000
0000
0000
0000
0001
0000
0000
0001
0000
0000
0000
0000
,
1000
0000
0000
1000
0000
0000
0000
0000
0010
0000
0000
0010
0000
0000
0000
0000
,
0100
0000
0000
0100
0000
0000
0000
0000
0001
0000
0000
0001
0000
0000
0000
0000
,
0200
0300
0100
0000
0000
0000
0001
0000
,
0000
1000
0100
1000
,
0000
0001
0000
0100
,
0000
0010
0100
0010
,
0000
1000
0000
0001
,
0000
0010
0001
0010
,
0000
0100
0000
1000
,
0000
0001
1000
0001
,
0000
1000
0000
1000
,
0000
0001
0000
0001
,
0000
0100
0000
0100
,
0000
0010
0000
0010
,
0000
1000
0001
1000
,
0000
0001
1000
0001
,
0000
0100
0000
0100
,
0000
0100
0000
0100
,
0000
0001
0000
1000
,
0000
0100
0010
0100
,
0000
1000
0000
0001
,
0000
0100
0010
0100
,
0000
0001
0000
1000
,
0000
0010
1000
0010
,
0000
0100
0000
0001
,
0000
0010
0001
0010
,
0000
0100
0000
1000
,
0000
0001
1000
0001
,
0000
1000
0000
0010
,
0000
0100
0010
0100
,
0000
0001
0000
1000
,
0000
0100
1000
0100
,
0000
0010
0000
0001
,
0000
0100
0001
0100
,
0000
0010
0000
0010
,
0000
1000
0001
1000
,
0000
0100
0000
0100
,
0000
0010
0001
0010
,
0000
0001
0000
0001
,
0000
1000
0010
1000
,
0000
0100
0000
0100
,
0000
0010
0100
0010
,
0000
1000
0000
1000
,
0000
0001
0100
0001
,
0000
1000
0000
1000
,
0000
0010
0100
0010
,
0000
1000
0000
1000
,
0000
0001
0000
0001
,
0000
1000
0000
0001
,
0000
0100
0010
0100
,
0010
0000
1000
0001
1000
0000
0010
0000
,
0001
0000
0000
0000
1000
0000
0000
0000
0100
0000
0000
0000
0000
0010
0000
0100
,
0000
0010
0000
0000
0000
1000
0000
0000
0000
0001
0000
0010
0100
1000
0001
0000
,
0100
0010
0000
1000
0010
1000
0000
0100
,
0000
0000
0010
0000
0000
0000
0001
0000
0000
0000
0100
0000
0100
0001
1000
0100
,
0000
0001
0000
0100
0000
0000
0000
1000
0000
0010
0000
1000
0000
0000
0000
0001
,
0000
0000
0000
0000
0000
0000
0100
0000
0000
0000
0010
1000
0001
0100
0000
0000
0000
0010
0000
0000
0000
0100
0000
0000
0000
0000
0000
0000
0000
0001
0000
0000
,
0000
0000
0000
0000
0000
1000
0000
0000
0000
0100
1000
0001
0010
0000
0000
0000
0000
0000
0000
0000
0100
0000
0000
0000
0010
0000
0000
0000
0000
0000
0000
0000
,
0001
0000
1000
0000
0010
0100
2000
0000
,
0000
3001
0010
1000
0000
1000
0000
0010
,
0100
0001
1000
0010
0100
0000
0010
0000
0000
0000
1000
0000
0000
0000
0001
0000
,
0000
0000
0100
0000
0001
1000
0100
0010
0100
0000
0110
0000
1000
0000
0000
0000
,
0000
1001
0001
0000
0000
1001
0000
0010
,
0100
0001
2100
0100
,
0010
3001
0102
0100
,
0010
1003
2001
0001
,
0010
3100
0120
0100
,
1000
0031
1000
0000
,
0100
0000
0010
0000
,
0001
0000
1000
0000
,
0010
0000
0100
0000
,
0001
0000
1000
0001
,
1000
0001
0010
0100
,
0010
0000
0002
0000
,
1003
0000
0000
0000
0001
2000
0000
0000
0000
0000
0000
0000
0000
3001
0000
0000
,
0000
1000
0020
0000
0000
0000
0000
0000
0000
0000
0130
0000
0000
0000
0010
2002
,
0000
0000
0000
0000
,
0000
0000
0000
0000
,
0000
0000
0000
0000
,
0000
0000
0000
0000
0000
0000
0000
0000
0000
0000
0000
0000
0000
0000
0000
3003
;

//---------------dance-single - ----------------
#NOTES:
     dance-single:
     :
     Medium:
     9:
     0.616064,1.044674,0.191664,0.158331,0.141665,1035.000000,989.000000,46.000000,38.000000,0.000000,0.000000,0.616064,1.044674,0.191664,0.158331,0.141665,1035.000000,989.000000,46.000000,38.000000,0.000000,0.000000:
0000
0000
1000
0000
0010
0000
0100
0000
0010
0000
1000
0000
0001
0000
0010
0100
,
1000
0100
0020
0000
0000
0002
0000
0000
0000
0000
0030
0000
0000
0000
0000
0000
,
0003
0000
0000
0000
0001
0100
0010
1000
,
0001
0100
0010
0001
0010
1000
0001
0100
,
1000
0100
0001
0010
1000
0010
0100
1000
,
0001
0010
0100
0001
0100
1000
0010
0100
,
0001
1000
0100
0010
0100
1000
0010
0100
,
0001
1000
0010
0100
2000
3200
0302
0023
,
0130
2000
3001
0100
0010
1000
0200
0010
,
0310
0000
0100
0000
1000
0000
0010
0000
0100
0000
0000
0100
0000
0000
0100
0000
,
0100
0000
0000
0000
0001
0000
0000
0000
1000
0000
0000
0000
0000
0000
0000
0000
0010
0000
0000
0000
0000
0000
0000
0000
0000
0000
0000
0000
0010
0000
0000
2000
,
0000
0000
0000
0000
0000
3000
0000
0000
0010
0000
0000
0000
0000
0000
0000
0000
0000
0000
0000
0000
0010
0000
0000
0200
0000
0000
0000
0000
0000
0300
0000
0000
,
0010
0000
0000
0000
0000
0000
0000
0000
0000
0000
0000
0000
0010
0000
0000
0002
0000
0000
0000
0000
0000
0003
0000
0000
0010
0000
0000
0000
0000
0000
0000
0000
,
0000
0000
0000
0000
0010
0000
0000
0200
0000
0000
0000
0000
0000
0300
0000
0000
0001
0000
0000
0000
0000
0000
0000
0000
0001
0000
0000
0000
0000
0000
0000
0000
,
0001
0100
0001
0000
1000
0000
1000
0000
,
0100
0010
0100
0000
1000
0001
1000
0001
,
0100
0010
0100
0010
1000
1000
0001
0001
,
1001
0000
1000
0000
0100
0000
0010
0100
,
1000
0010
0000
0010
0100
0001
1000
0100
,
2000
0000
3001
0010
0100
1000
0001
0020
,
0000
0230
0000
1300
0001
0100
0010
0000
,
1001
0000
0001
1000
0001
1000
0100
2000
,
0000
3020
0000
0130
0010
1000
0002
0000
,
0010
0000
1003
0010
0100
0000
0010
0100
,
0001
0010
0000
0100
0010
0001
0200
0000
,
0310
0000
1001
0000
0001
0100
0010
0000
,
1000
0001
0000
0001
0010
0001
0100
0000
,
0010
0000
1000
0100
0001
0100
1000
0010
,
0001
0010
2000
0000
0100
0000
3010
0000
,
1001
0000
0001
0100
0010
0200
0000
0301
,
0100
0000
0001
0010
0100
0020
0000
0031
,
0010
0000
0001
0100
1000
0001
0010
1000
,
0001
0020
0100
1000
,
0031
0000
1001
0000
1000
0100
0010
0000
,
0001
1000
0000
1000
0010
1000
0100
0000
,
0010
0000
0001
0100
1000
0100
0001
0010
,
1000
0010
0002
0000
0100
0000
0013
0000
,
1001
0000
1000
0100
0010
0200
0000
1300
,
0100
0000
1000
0010
0100
0020
0000
1030
,
0010
0000
1000
0100
0001
1000
0010
0001
,
1000
0000
0010
0100
0010
1000
0100
0010
,
0100
2002
0000
0000
,
0000
0000
0000
3003
0000
0000
0000
0000
,
0000
0000
0000
0000
,
0000
0000
1000
0100
,
0010
0001
0010
0100
,
1000
0001
1000
0100
,
0010
0001
1000
0001
,
0010
0100
0010
0000
0001
0000
0100
0000
,
0010
1000
0001
1000
,
0010
0100
0001
0100
,
0010
1000
0001
1000
,
0010
0100
0010
0000
1000
0000
0010
0000
,
0100
0001
1000
0001
,
0100
0010
1000
0010
,
0100
0001
1000
0001
,
0100
0010
0100
0000
0001
0000
0010
0000
,
0100
1000
0001
1000
,
0100
0010
0001
0010
,
0100
1000
0001
1000
,
0100
0010
0001
0000
,
0101
0000
1000
0100
,
0010
0000
0001
0000
,
1001
0000
1000
0010
,
0100
0000
0010
0000
,
1010
0000
0100
0001
,
1000
0000
0100
0000
,
0011
0000
1010
0000
,
1001
0000
0001
1000
,
0010
1000
0100
0010
,
0001
0000
0100
0010
,
1000
0100
1000
0010
,
1000
0000
0010
0100
,
0001
0010
0100
0001
,
0100
0000
1000
0100
,
0001
0100
1000
0010
,
0001
0010
1000
0100
,
0010
0001
1000
0010
,
0100
0000
0001
0100
,
0010
1000
0100
1000
,
0001
0000
0100
0010
,
0100
0001
0010
0001
,
1000
0000
0000
0000
0001
1000
0001
2000
,
0000
0001
3000
0000
0001
0000
1000
0000
,
0010
1000
0100
0010
,
0001
0100
0010
1000
,
0100
1000
0010
0100
,
0001
0010
0100
1000
,
0001
0100
0010
0100
,
0001
1000
1100
0000
,
0101
0000
1010
0000
,
0011
0000
0010
0001
,
0100
0010
1000
0001
,
0010
0001
0100
0010
,
1000
0100
0010
0100
,
0001
0100
1000
1000
,
0001
0001
0100
0100
,
0010
0010
0100
0001
,
0010
0100
1000
0010
,
0100
0000
0000
0000
0001
0000
0000
0000
1000
0000
1000
0000
0010
0000
0100
0001
,
0100
0000
0010
0000
0010
0000
1000
0100
1000
0000
0010
0000
0100
0000
0001
0010
,
0001
0000
1000
0010
1000
0000
1001
0000
0010
0000
0100
0000
0001
0000
1000
0100
,
0010
0000
0001
0000
1000
0000
0001
0100
0010
0000
1000
0010
0100
0001
0010
0000
,
0200
0000
0300
0000
0000
0001
0100
0001
1000
0000
0000
0000
0100
0000
1000
0000
,
0000
1000
0001
0000
0100
0000
0010
0100
,
0000
0100
0001
1000
0100
0000
0010
0100
,
0000
1000
0001
0000
0100
0000
0010
0100
,
0000
0001
1000
0100
0010
0000
0001
1000
,
0000
0010
1000
0000
0100
0000
0010
0100
,
0000
1000
0100
0010
0001
0000
1000
0010
,
0000
0100
0001
0000
1000
0001
1000
0000
,
0000
0001
1000
0000
0010
0100
0000
1001
,
0000
0100
0010
0000
0011
0000
0100
1000
,
0000
1000
0001
0000
0100
0010
0000
1010
,
0000
0100
0001
0000
1000
0100
0000
0011
,
0000
0100
1000
0000
0010
0100
0000
1001
,
0000
0100
0010
0000
0011
0000
0100
1000
,
0000
1000
0001
0000
0100
0001
0000
1001
,
0000
1000
0010
0000
0100
0010
0000
1001
,
0000
0100
0010
0000
0001
0010
0000
1100
,
0000
1000
0001
0000
0101
0000
0001
1000
,
0000
1000
0010
0000
0100
0001
0000
0101
,
0000
0001
1000
0000
0100
1000
0000
1010
,
0000
0010
0100
0000
0001
1000
0000
1001
,
0000
0100
0010
0000
0011
0000
0100
1000
,
0000
0001
0100
0000
0010
1000
0000
0110
,
0000
0100
0001
0000
1000
0100
0000
0110
,
0000
0000
0100
0000
1000
0000
0001
0000
0101
0000
0000
1000
0000
0000
0000
0000
,
1100
0000
0000
0001
0000
0000
0000
0000
0011
0000
0000
1000
0000
0000
0000
0000
,
1010
0000
0000
0001
0000
0000
0000
0000
0010
0000
0000
0110
0000
0000
0000
0000
,
0001
0000
0000
1001
0000
0000
0000
0000
0010
0000
0000
0110
0000
0000
0000
0000
,
0200
0300
1000
0000
0100
0000
0010
0000
,
0100
1000
0001
0100
,
0010
1000
0010
0100
,
0001
1000
0100
0010
,
0001
1000
0010
0100
,
0010
1000
0100
0001
,
0100
1000
0010
0100
,
0001
1000
0010
0001
,
0010
1000
0001
0010
,
0100
1000
0001
0100
,
0100
0010
1000
0100
,
1000
0010
0100
0001
,
0001
1000
0100
0010
,
0001
1000
0010
0100
,
0001
0000
1000
0000
0001
0010
0001
0000
,
1000
0100
1000
0000
0001
0100
0001
0000
,
1000
0010
1000
0000
0000
1000
0000
0000
,
0001
0100
0000
0001
0100
0000
0010
0000
,
1000
0000
0100
0000
0000
0100
0000
0000
,
0010
0001
0000
0010
0001
0000
0100
0000
,
0010
0000
0100
0000
0000
0100
0000
0000
,
0001
0010
0000
0001
0010
0000
0100
0000
,
1000
0000
0001
0000
0000
0001
0000
0000
,
1000
0010
0000
1000
0010
0000
0100
0000
,
0001
0000
1000
0000
0000
1000
0000
0000
,
0001
0010
0000
0001
0010
0000
0100
0000
,
1000
0000
0001
0000
0000
0001
0000
0000
,
1000
0010
0000
1000
0010
0000
0100
0000
,
0001
0000
0010
0000
0000
0010
0000
0000
,
0100
1000
0000
0100
1000
0000
0010
0000
,
1000
0000
0001
0000
0000
0001
0000
0000
,
0100
0001
0000
0100
0001
0000
1000
0000
,
0100
0010
0001
0100
,
0001
0010
0001
1000
,
1000
0010
1000
0100
,
1000
0010
0100
0001
,
0001
1000
0100
1000
,
0001
0100
0001
0010
,
0010
0100
1000
0100
,
0010
0001
0100
0010
,
0010
0000
1000
0000
0000
1000
0000
0000
,
0001
0100
0000
0001
0010
0000
0100
0000
,
1000
0000
0001
0000
0000
0001
0000
0000
,
1000
0100
0000
1000
0010
0000
0100
0000
,
0001
1000
1000
0001
,
0001
0100
0010
1000
,
0001
0010
0010
0100
,
1000
0100
0000
0010
0001
0000
0100
0000
,
0010
0000
0100
0010
0100
0000
0001
0100
,
0001
0000
0000
0000
1000
0000
0001
0000
0010
0000
0100
0000
0000
1000
0000
0001
,
0000
1000
0000
0001
0000
1000
0000
0010
0000
0100
0000
0001
0001
0001
1000
0000
,
0100
1000
0000
0001
0100
0001
0000
1000
,
0010
0000
1000
0000
0000
0000
0001
0000
0010
0000
0001
0000
0100
0100
0100
0010
,
0000
0100
0000
0001
0000
0000
0000
0010
0000
0100
0000
1000
0000
0000
0000
1000
,
0000
0000
0100
0000
0000
0000
0010
0000
0000
0000
0001
0001
0001
1000
0000
0000
0000
0100
0000
0000
0000
0001
0000
0000
0000
0100
0000
0000
0000
1000
0000
0000
,
0000
0100
0000
0000
0000
0001
0000
0000
0000
0100
1000
0001
1000
0000
0000
0000
0000
0000
0000
0000
0010
0000
0000
0000
0100
0000
0000
0000
0001
0000
0000
0000
,
0100
0000
0010
0000
1000
0000
0100
0000
1000
0000
0010
0000
1000
0100
0010
0001
,
0010
0100
1000
0000
0100
0000
0001
0000
0000
0000
0100
0000
1000
0000
0001
0000
,
1000
1000
1000
1000
0001
0000
1000
0000
0100
0000
1000
0000
0000
0000
0001
0000
,
0100
0000
0001
0000
0010
0100
1000
0001
0020
0000
0130
0000
1100
0000
0000
0000
,
0000
0101
0011
0000
0000
1010
0000
0001
,
0010
0100
1000
0001
2000
0000
0100
0100
,
0000
0010
0000
3010
0002
0000
0010
0000
,
0000
0010
0000
0013
0200
0000
0000
1000
,
0000
0301
0000
1000
0020
0100
0000
0001
,
0000
0130
0000
0000
1000
0000
0001
0000
,
0100
0010
1000
0001
,
1000
0100
1000
0001
,
0010
0100
0001
0100
,
1000
0010
0100
0001
,
0010
0001
1000
0100
,
0010
0001
0010
0100
,
0010
0000
0000
0000
0100
1000
0000
0000
0000
0001
0000
0000
0000
1000
0000
0000
,
0000
0001
0100
0000
0000
0000
0010
0000
0000
0000
0100
0000
0000
0000
0010
2002
,
0000
0000
0000
0000
,
0000
0000
0000
0000
,
0000
0000
0000
0000
,
0000
0000
0000
0000
0000
0000
0000
0000
0000
0000
0000
0000
0000
0000
0000
3003
;

//---------------dance-single - ----------------
#NOTES:
     dance-single:
     :
     Hard:
     11:
     0.833323,1.436427,0.258330,0.154165,0.422911,1400.000000,1338.000000,62.000000,37.000000,0.000000,0.000000,0.833323,1.436427,0.258330,0.154165,0.422911,1400.000000,1338.000000,62.000000,37.000000,0.000000,0.000000:
0000
0000
0000
0000
1000
0000
0000
0000
0100
0000
0000
1000
0100
0000
0000
0000
0010
0000
0000
0000
0001
0000
0000
0000
0010
0000
0000
0100
1000
0000
0001
0000
,
0100
0001
0100
0000
0020
0000
0000
0000
0000
0000
2000
0000
0000
0000
0000
0000
0000
0000
0000
0000
0030
0000
0000
0000
0000
0000
0000
0000
0000
0000
0000
0000
,
3000
0000
0010
0000
0100
0000
0010
0000
1000
0000
0010
0000
0100
0000
0001
1000
,
0001
0000
0010
0000
0100
1000
0100
1000
0001
0000
0100
0000
1000
0000
0100
0010
,
0100
0000
0001
0000
0010
0100
0010
0001
1000
0000
0010
0000
0001
0000
0010
0100
,
0010
0000
1000
0000
0100
0010
0100
0010
0001
0000
0010
0000
1000
0000
0010
0001
,
0010
0000
0100
0000
1000
0001
1000
0010
0100
0000
0001
0000
0010
0000
0100
1000
,
0100
0000
1000
0000
0001
0100
0001
0100
0020
0000
0032
0000
2003
0000
3200
0000
,
0301
0000
0020
0000
0130
1000
0100
1000
0001
0000
0100
0000
0010
0000
1000
0010
,
1000
0000
0001
0000
0010
0100
0010
0100
1000
0000
0001
1000
0000
0001
1000
0001
,
1000
0000
0010
0000
0100
0000
0000
0000
0110
0000
0000
0000
0000
0000
0000
0000
1000
0000
0000
0000
0000
0000
0000
0000
0000
0000
0000
0000
1000
0000
0000
0020
,
0000
0000
0000
0000
0000
0030
0000
0000
1000
0000
0000
0000
0000
0000
0000
0000
0000
0000
0000
0000
1000
0000
0000
0002
0000
0000
0000
0000
0000
0003
0000
0000
,
0100
0000
0000
0000
0000
0000
0000
0000
0000
0000
0000
0000
0100
0000
0000
2000
0000
0000
0000
0000
0000
3000
0000
0000
0100
0000
0000
0000
0000
0000
0000
0000
,
0000
0000
0000
0000
0100
0000
0000
0020
0000
0000
0000
0000
0000
0030
0000
0000
1000
0000
0000
0000
0000
0000
0000
0000
1000
0000
0000
0000
0000
0000
0000
0000
,
0001
0020
0001
0000
0130
0000
0100
0000
,
1000
0200
1000
0000
0310
0001
0010
0001
,
1000
0000
0010
0000
1000
0000
0010
0000
0100
0001
0100
0001
1000
0100
1000
0100
,
0010
0000
0000
0000
1000
0000
0010
0000
1000
0100
1000
0100
0010
0000
0001
0000
,
0010
0001
0200
0001
0001
0000
0310
0000
,
1001
0000
0000
0000
0001
0000
0010
0000
0001
0100
0001
0100
0010
0000
1000
0000
,
0010
1000
0200
1000
1000
0000
0310
0000
,
1001
0000
1000
0010
0010
0100
0010
1000
,
0001
1000
0100
1000
0001
0000
0010
0000
0001
0000
0000
0000
0101
0000
0000
0000
,
1100
0000
1000
0010
0001
0100
0001
0010
,
1000
0200
0000
0010
0310
0000
1100
0000
,
0101
0000
1001
1000
0100
0010
0001
0000
,
1000
0000
0010
1000
0100
0000
1000
0000
0010
0000
0100
0001
1000
0000
0001
0000
,
0010
0000
0100
0000
1000
0000
0001
0100
0001
0000
1000
0100
1000
0000
0010
0000
,
0100
0010
0100
0000
0001
0000
0010
0000
0100
0000
0010
0000
0002
0000
0000
0000
,
0203
0000
0000
0000
0310
0000
1000
0000
0100
0010
0100
0000
0000
0000
1000
0000
,
0001
0000
0100
0000
0001
0000
0010
0000
0100
0010
0100
0000
0000
0000
1000
0000
,
0001
0000
0100
0000
0001
0000
1000
0000
0010
1000
0001
1000
0010
0000
0100
0000
,
0001
0010
0001
1000
0020
0000
0000
0000
0130
0000
0000
0000
0101
0000
0000
0000
,
1100
0000
1001
0001
0010
0100
1000
0000
,
0001
0000
0100
0001
0010
0000
0001
0000
0100
0000
0010
1000
0001
0000
1000
0000
,
0100
0000
0010
0000
0001
0000
1000
0010
1000
0000
0001
0010
0001
0000
0100
0000
,
0010
0100
0010
0000
1000
0000
0100
0000
0010
0000
0100
0000
2000
0000
0000
0000
,
3020
0000
0000
0000
0130
0000
0001
0000
0010
0100
0010
0000
0000
0000
0001
0000
,
1000
0000
0010
0000
1000
0000
0100
0000
0010
0100
0010
0000
0000
0000
0001
0000
,
1000
0010
1000
0100
0010
0001
0010
0100
,
1000
0000
0010
0100
0010
0000
0100
0000
0001
0000
1000
0100
0010
0001
0010
0001
,
1000
0010
1000
0010
0200
0000
0000
0000
0000
0000
0000
0000
0000
0000
0000
0000
,
0000
0000
0000
0300
0000
0000
0000
0000
,
0000
0000
0000
0000
,
0000
0000
0010
1000
,
0100
0010
0100
0000
1000
0000
0010
0000
,
0100
0001
0100
0000
0001
0000
1000
0000
,
0100
0010
0100
0000
1000
0000
0010
0000
,
0001
0010
1000
0001
,
0010
0100
0010
0000
0001
0000
1000
0000
,
0010
0100
0010
0000
1000
0000
0100
0000
,
0010
0001
0010
0000
0100
0000
1000
0000
,
0010
0001
0010
1000
,
0001
0100
0001
0000
0010
0000
0100
0000
,
1000
0001
1000
0000
0100
0000
0010
0000
,
0001
0100
0001
0000
1000
0000
0010
0000
,
0001
0010
0100
0001
,
1000
0100
1000
0000
0010
0000
0100
0000
,
0001
1000
0001
0000
0010
0100
1000
0000
,
0010
0100
0001
0000
1000
0100
0010
0001
,
1000
0010
0100
0000
0001
0000
0001
0000
,
1000
0001
0000
0001
0000
0001
1000
0000
,
0010
0100
0001
0001
,
1000
0001
0000
0001
0000
0001
0100
0000
,
0010
0100
0001
0010
,
0100
1000
0001
0100
,
0010
0000
1000
0000
0001
0100
0001
0000
,
1000
0000
0000
0100
0000
0000
1000
0000
0000
0000
0000
0000
0001
0000
0000
0000
0001
0000
0010
0000
0000
0000
0000
0000
,
0100
1000
0100
1000
0000
0000
0010
0000
0000
1000
0000
0000
,
0100
0010
0001
0100
,
0010
0000
1000
0001
1000
0000
0001
0000
,
0010
0100
1000
0100
,
0010
0000
0100
0010
0100
0000
0010
0000
,
0001
1000
0010
0100
,
0001
0000
1000
0100
1000
0000
0100
0000
,
0010
0000
0001
0010
0001
0000
0010
0000
,
0100
1000
0010
1000
,
0001
0100
0010
0100
,
0001
0000
1000
0100
1000
0000
0001
0000
,
0010
0100
1000
0010
,
1000
0000
0001
0100
0001
0000
0100
0000
,
0010
1000
0001
0010
,
0100
0000
0000
0000
1000
0000
0000
0000
0001
0000
1000
0000
0001
1000
0002
0000
,
0000
1000
0003
0000
0010
0000
1000
0000
,
0100
0010
0001
1000
,
0010
0000
0100
0001
0100
0000
0010
0000
,
1000
0100
0010
0001
,
1000
0000
0100
1000
0100
0000
1000
0000
,
0010
0100
0001
1000
,
0100
0000
0010
0100
0010
0000
0001
0000
,
1000
0000
0010
1000
0010
0000
1000
0001
,
0010
0100
1000
0010
,
0100
0001
1000
0100
,
1000
0000
0001
0100
0001
0000
0100
0000
,
0010
1000
0100
0010
,
0001
0000
1000
0100
1000
0000
0010
0000
,
1000
0001
0010
0100
,
1000
0000
0001
0100
0001
0000
1000
0010
,
1000
0100
0010
0001
,
0100
0000
0010
0000
0100
0000
0010
0000
1000
0001
1000
0100
1000
0010
1000
0001
,
0010
1000
0010
0100
1000
0001
0100
1000
0001
0010
1000
0010
0100
0001
0010
0100
,
1100
0000
0101
0000
1010
0000
0011
0000
1000
0100
0010
0001
1000
0010
0100
0001
,
1000
0001
0100
0010
0001
1000
0100
0001
0010
0100
1000
0010
0100
0001
0010
1000
,
0020
0000
0000
0000
0030
0000
0000
0000
0000
0000
0010
0000
0100
0001
0100
0001
1000
0000
0000
0000
0100
0000
0000
0000
0010
0000
0000
0000
0100
0000
0000
0000
,
1000
0001
1000
0000
0010
0000
0000
0000
0100
0000
0010
0000
0100
0000
1000
0000
,
0100
0001
0100
0000
0010
0000
0000
0000
1000
0000
0001
0000
0010
0000
0100
0000
,
0010
0001
0010
0000
0100
0000
0000
0000
1000
0000
0100
0000
0010
0000
0001
0000
,
1000
0100
1000
0000
0001
0000
0000
0000
0100
0000
0010
0000
0100
0000
0001
0000
,
0010
0100
0010
0000
0001
0000
0000
0000
1000
0000
0100
0000
0010
0000
0100
0000
,
1000
0010
1000
0000
0001
0000
0000
0000
0100
0000
0010
0000
0100
0000
0001
0000
,
0010
0001
0010
0000
0100
0000
0000
0000
1000
0000
0001
0000
1001
0000
0000
0000
,
0000
0100
0110
0000
0100
0010
0100
0001
,
1000
0010
1000
0000
0100
0000
0000
0000
0010
0000
0001
0000
1000
0000
0100
0000
,
0010
0000
0001
0000
0100
0001
0100
0000
0001
0000
0010
0000
0100
0000
1000
0000
,
0010
0100
0010
0000
1000
0000
0000
0000
0001
0000
0100
0000
0010
0000
1000
0000
,
0001
0010
0001
0000
0011
0000
0000
0000
0010
0000
0001
0000
1000
0000
0100
0000
,
1000
0010
1000
0000
0001
0000
0100
0000
0010
0000
0100
0000
0001
0000
1000
0000
,
0100
0000
0010
0000
0001
0100
0001
0000
1000
0000
0010
0000
0100
0000
0001
0000
,
0100
0001
0100
0000
0010
0000
1000
0000
0010
0000
0100
0000
0001
0000
1000
0000
,
0100
0010
0001
0000
0001
0010
1000
0010
,
0100
1000
0100
0000
1000
0000
0000
0000
0001
0000
0100
0000
1000
0000
0100
0000
,
0010
1000
0010
0000
1000
0000
0000
0000
0001
0000
0010
0000
0100
0000
1000
0000
,
0010
0100
0010
0000
0100
0000
0000
0000
0010
0000
1000
0000
0100
0000
0010
0000
,
0001
1000
0001
0000
0100
0000
0000
0000
0001
0000
0100
0000
1000
0000
0100
0000
,
0010
1000
0010
0000
1000
0000
0000
0000
0001
0000
0010
0000
1000
0000
0010
0000
,
0100
1000
0100
0000
1000
0000
0000
0000
0001
0000
0100
0000
0010
0000
0100
0000
,
0001
1000
0001
0000
1000
0000
0000
0000
0100
0000
1000
0000
0010
0000
0100
0000
,
0001
0000
1000
0000
0001
0000
0000
0000
1001
0000
0000
0000
0000
0000
0000
0000
0001
0000
0000
0001
0000
0000
0101
0000
0000
0000
0000
0000
0000
0000
0000
0000
,
1000
0000
0000
1000
0000
0000
1010
0000
0000
0000
0000
0000
0000
0000
0000
0000
0001
0000
0000
0001
0000
0000
0011
0000
0000
0000
0000
0000
0000
0000
0000
0000
,
0100
0000
0000
0100
0000
0000
1100
0000
0000
0000
0000
0000
0000
0000
0000
0000
1000
0000
0000
0001
0000
0000
1001
0000
0000
0000
0000
0000
0000
0000
0000
0000
,
0010
0000
0000
0100
0000
0000
0110
0000
0000
0000
0000
0000
0000
0000
0000
0000
1000
0000
0000
0010
0000
0000
1010
0000
0000
0000
0000
0000
0000
0000
0000
0000
,
0200
0300
0001
0000
1000
0000
0100
0000
,
1000
0000
0001
0010
0001
0000
0100
0000
,
0010
1000
0100
1000
,
0001
0000
1000
0010
1000
0000
0001
0000
,
0100
0001
0010
0100
,
1000
0000
0010
1000
0010
0000
0100
0000
,
0001
1000
0100
0010
,
0010
0000
0001
0010
0001
0000
1000
0000
,
0100
1000
0001
0000
0100
0000
0001
0000
,
1000
0000
0001
0010
0001
0000
1000
0000
,
0010
1000
1000
0001
,
1000
0000
0010
1000
0010
0000
0100
0000
,
0001
0010
0100
0000
0100
0000
1000
0000
,
1000
0001
0001
0100
,
0100
0000
0010
0000
1000
0001
1000
0000
,
0010
0100
0010
0000
1000
0100
0010
0000
,
0001
0100
0010
1000
0000
0100
1000
0000
,
0001
0100
0000
0010
1000
0100
1000
0000
,
0001
0000
1000
0100
0000
0010
0001
0000
,
0100
0001
0000
1000
0010
0100
0001
0000
,
1000
0000
0001
0100
0000
0010
0100
0000
,
0001
0010
0000
0100
1000
0001
1000
0000
,
0010
0000
1000
0100
0000
1000
0010
0000
,
0100
0001
0000
0100
0010
1000
0001
0000
,
1000
0000
0001
0100
0000
0001
0010
0000
,
0100
1000
0000
0001
1000
0010
1000
0000
,
0001
0000
0100
0010
0000
0100
0001
0000
,
1000
0100
0000
0010
0001
1000
0001
0000
,
1000
0000
0010
0100
0000
0001
0100
0000
,
0010
1000
0000
0100
1000
0001
0010
0000
,
0100
0000
1000
0010
0000
0100
0001
0000
,
0100
0010
1000
0001
1000
0100
0010
0000
,
0001
0000
1000
0100
1000
0100
1000
0000
,
0001
0100
0001
0100
0001
0000
1000
0000
,
0010
0000
0100
0001
0100
0001
0100
0000
,
0010
1000
0010
1000
0010
0000
1000
0000
,
0100
0000
0010
0001
0010
0001
0010
0000
,
0100
1000
0100
1000
0100
0000
0010
0000
,
0001
0000
1000
0001
1000
0001
1000
0000
,
0010
0100
0010
0100
0010
0000
1000
0000
,
0001
0000
1000
0100
1000
0010
1000
0000
,
0001
0100
0001
1000
0001
0000
0010
0000
,
0100
0000
1000
0010
0100
0010
1000
0000
,
0001
0010
0100
0010
0001
0000
0100
0000
,
0001
1000
1000
0001
,
0001
1000
1000
0001
,
0001
1001
1001
0110
,
1000
0010
0000
0100
0001
0000
1000
0000
,
0001
0000
1000
0100
0010
0100
1000
0100
,
0010
0000
0100
0000
1000
0000
0100
0000
0010
0000
0001
0100
1000
0100
0000
0010
,
0000
0001
0000
0010
0000
0100
0000
1000
0000
0100
0000
0010
0001
0010
0100
0000
,
1000
0100
0010
0100
0001
0100
0010
0100
,
1000
0000
0100
0000
0010
0000
0100
0000
0001
0000
0100
0000
0010
0100
0110
1001
,
0000
0100
0000
1000
0000
0010
0000
0100
0000
1000
0000
0001
0000
0010
0000
0100
,
0000
0000
0001
0000
0000
0000
0010
0000
0000
0000
1100
0110
0101
0010
0000
0000
0000
0001
0000
0000
0000
0010
0000
0000
0000
0100
0000
0000
0000
1000
0000
0000
,
0000
0100
0000
0000
0000
0010
0000
0000
0000
0011
0110
1100
1001
0000
0000
0000
0100
0000
0000
0000
0001
0000
0000
0000
0100
0000
0000
0000
1000
0000
0000
0000
,
0100
0000
0000
0000
0001
0000
0000
0000
0100
0000
0000
0000
1000
0000
0000
0000
0001
0000
0000
0000
1000
0000
0000
0000
1000
0100
0010
0001
1000
0100
0010
0001
,
1000
0100
0010
0001
1000
0000
0000
0000
0100
0000
0000
0000
1000
0000
0000
0000
0010
0000
0000
0000
0100
0000
0000
0000
0001
0000
0000
0000
0010
0000
0000
0000
,
0100
1100
1010
1001
0100
0000
0001
0000
0010
0000
0001
0000
0100
0000
0010
0000
,
1000
0000
0100
0000
1100
1010
0101
0110
1001
0000
2002
3003
1000
0000
0010
0000
,
0100
0000
0101
0000
0001
0000
0100
0000
0010
1000
1010
0000
0000
0000
1000
0000
,
0100
0000
0001
0000
0100
1000
0100
0001
0100
0000
1000
0000
0010
0000
0100
0001
,
0000
0100
0001
0000
0010
0000
0100
0000
1010
0000
0010
0000
0100
0000
0001
0010
,
0000
0001
0010
0000
0100
0000
1000
0000
1100
0000
0010
0000
0100
0000
0001
0100
,
0000
0001
0100
0000
0010
1000
0010
1000
0100
0000
1000
0000
0010
0000
0100
0010
,
0000
0100
0010
0000
1000
0100
0001
0100
2200
0000
0000
0000
0000
0000
3300
0000
,
2200
0000
0000
3300
0202
0000
0000
0303
,
0202
0000
0000
0303
1000
0000
0010
0000
,
0001
0010
1000
0100
,
0001
0000
0100
0000
1000
0100
0010
0001
,
0100
0010
1000
0100
0010
0001
0010
0100
,
1000
0010
0100
0001
0010
0000
0100
0000
,
0110
0000
0000
0000
1010
0100
0000
0000
0000
0010
0000
0000
0000
0110
0000
0000
,
0000
0101
1000
0000
0000
0000
0001
0000
0000
0000
0011
0000
0000
0000
1010
2002
,
0000
0000
0000
0000
,
0000
0000
0000
0000
,
0000
0000
0000
0000
,
0000
0000
0000
0000
0000
0000
0000
0000
0000
0000
0000
0000
0000
0000
0000
3003
;

//---------------dance-double - ----------------
#NOTES:
     dance-double:
     :
     Hard:
     11:
     0.798204,1.479955,0.233330,0.154165,0.389578,1341.000000,1285.000000,56.000000,37.000000,0.000000,0.000000,0.798204,1.479955,0.233330,0.154165,0.389578,1341.000000,1285.000000,56.000000,37.000000,0.000000,0.000000:
// measure 0
00000000
00000000
10000000
00000000
01000000
10000000
00010000
00000000
00100000
00000000
00001000
00010000
00000000
00000100
00000010
00000001
,  // measure 1
00000000
00001000
00000200
00000000
00000000
00020000
00000000
00000000
00000000
00000000
00000300
00000000
00000000
00000000
00000000
00000000
,  // measure 2
00030000
00000000
00010000
00000000
00100000
00000000
10000000
00000000
00010000
00000000
01000000
00001000
00000000
00100000
00001000
00000000
,  // measure 3
00010000
00000000
00000010
00000000
00001000
00000000
00000001
00000100
00000001
00000000
00000010
00000000
00001000
00000000
00010000
00000100
,  // measure 4
00000000
00010000
00001000
00000000
00100000
00000000
00100000
00010000
10000000
00000000
01000000
00100000
00000000
01000000
00010000
00000000
,  // measure 5
00001000
00000000
00010000
00000000
00100000
00000000
00010000
00001000
00010000
00000000
00000100
00000000
00000010
00000000
00000001
00000100
,  // measure 6
00000001
00000000
00001000
00000000
00000010
00000000
00000010
00000000
00001000
00000000
00000100
00010000
00000000
00000010
00010000
00000000
,  // measure 7
00001000
00000000
00100000
00000000
00010000
00000000
10000000
01000000
10000000
00000000
00200000
00000000
00320000
00000000
00032000
00000000
,  // measure 8
00003020
00000000
00000032
00000000
00001003
00000000
00000010
00000000
00001000
00000000
00000100
00000010
00000000
00000010
00001000
00000000
,  // measure 9
00010000
00000000
00001000
00000000
00000010
00000000
00001000
00010000
00001000
00000000
01000000
00010000
00000000
10000000
00010000
10000000
,  // measure 10
00100000
00000000
01000000
00000000
00010000
00000000
00000000
00000000
10010000
00000000
00000000
00000000
00000000
00000000
00000000
00000000
10000000
00000000
00000000
00000000
00000000
00000000
00000000
00000000
00000000
00000000
00000000
00000000
10000000
00000000
00000000
01000000
,  // measure 11
00000000
00000000
00000000
00000000
00000000
00000000
00000000
00000000
00100000
00000000
00000000
00000000
00000000
00000000
00000000
00000000
00000000
00000000
00000000
00000000
00100000
00000000
00000000
00010000
00000000
00000000
00000000
00000000
00000000
00000000
00000000
00000000
,  // measure 12
00001000
00000000
00000000
00000000
00000000
00000000
00000000
00000000
00000000
00000000
00000000
00000000
00001000
00000000
00000000
00000100
00000000
00000000
00000000
00000000
00000000
00000000
00000000
00000000
00000010
00000000
00000000
00000000
00000000
00000000
00000000
00000000
,  // measure 13
00000000
00000000
00000000
00000000
00000010
00000000
00000000
00000001
00000000
00000000
00000000
00000000
00000000
00000000
00000000
00000000
00000001
00000000
00000000
00000000
00000000
00000000
00000000
00000000
00000002
00000000
00000000
00000000
00000000
00000000
00000000
00000000
,  // measure 14
00001003
00002000
00013000
00020000
,  // measure 15
10030000
00000000
20000000
00000000
30010000
00100000
00010000
00100000
,  // measure 16
00001000
00000000
00010000
00000000
00001000
00000000
00010000
00000000
00000100
00001000
00000100
00001000
00000001
00000100
00000001
00000100
,  // measure 17
00000010
00000000
00000000
00000000
00000100
00000000
00000001
00001000
00000100
00000000
00001000
00000001
00000100
00000000
00001000
00000000
,  // measure 18
00010000
00000000
00100000
10000000
01000000
00000000
01000000
00000000
11000000
00000000
00000000
00000000
10010000
00000000
00000000
00000000
,  // measure 19
00110000
00000000
00000000
00000000
01000000
00000000
10000000
00010000
01000000
00000000
10000000
00010000
01000000
00000000
00010000
00000000
,  // measure 20
00001000
00000000
00000010
00000001
00000100
00000000
00000100
00000000
00000110
00000000
00000000
00000000
00001001
00000000
00000000
00000000
,  // measure 21
00000110
00000000
00000001
00000010
00001000
00000000
00010000
00100000
,  // measure 22
10000000
00000000
01000000
00010000
00001000
00000000
00010000
00001000
,  // measure 23
00000100
00000000
00000001
00000010
00001000
00000001
00000100
00001000
,  // measure 24
00000010
00010000
00000000
00001000
01000000
00000000
02200000
00000000
,  // measure 25
03300000
00000000
00010000
10000000
01000000
00010000
00001000
00000100
,  // measure 26
00000001
00001000
00000020
00000000
00000001
00000000
00000100
00000000
,  // measure 27
00001030
00000000
00000001
00000100
00001000
00010000
01000000
10000000
,  // measure 28
00100000
00000000
00010000
00000000
00001000
00000000
01000000
00100000
01000000
00000000
00001000
00000000
00010000
00000100
00010000
00000000
,  // measure 29
00000010
00001000
00000010
00000000
00000100
00000000
00000001
00000000
00000010
00000000
00001000
00000000
00010000
00000000
00000100
00000000
,  // measure 30
00000010
00000100
00010000
01000000
10000000
00010000
00100000
00001000
,  // measure 31
00000010
00000000
00001000
00000000
00010000
00000000
00000100
00000000
00001000
00000010
00010000
00000010
00001000
00000000
00000100
00000000
,  // measure 32
00010000
00001000
01000000
00001000
00020000
00000000
00000000
00000000
00032000
00000000
00000000
00000000
00003100
00000010
00000100
00000010
,  // measure 33
00001000
00000001
00001000
00000001
00001000
00000000
00000001
00000000
00000100
00000000
00001000
00000000
00010000
00000000
01000000
00000000
,  // measure 34
10000000
00010000
00200000
00000000
10000000
00000000
01000000
00000000
,  // measure 35
00310000
00000000
10000000
01000000
00010000
00001000
00000100
00000001
,  // measure 36
00000010
00000000
00001000
00000000
00010000
00000000
00000100
00000010
00000100
00000000
00010000
00000000
00001000
01000000
00001000
01000000
,  // measure 37
00010000
10000000
00010000
10000000
00100000
00000000
10000000
00000000
01000000
00000000
00010000
00000000
00001000
00000000
00000010
00000000
,  // measure 38
00000001
00001000
00000100
00000010
00000100
00010000
00001000
01000000
,  // measure 39
10000000
01000000
00010000
00100000
00001000
00000010
00001000
00010000
,  // measure 40
00001000
00000000
00000100
00000000
00000001
00000000
00001000
00000000
00000010
00000000
00010000
00000000
00001000
01000000
00001000
01000000
,  // measure 41
00010000
10000000
00010000
10000000
00200000
00000000
00000000
00000000
00000000
00000000
00000000
00000000
00000000
00000000
00000000
00000000
,  // measure 42
00000000
00000000
00000000
00300000
00000000
00000000
00000000
00000000
,  // measure 43
00000000
00000000
00000000
00000000
,  // measure 44
00000000
00000000
10000000
00010000
,  // measure 45
01000000
00100000
01000000
00000000
00001000
00000000
00010000
00000000
,  // measure 46
00000100
00000010
00000100
00000000
00001000
00000000
00000001
00000000
,  // measure 47
00000100
00000010
00000100
00000000
00000001
00000000
00000100
00000000
,  // measure 48
00001000
00010000
00100000
10000000
,  // measure 49
00010000
01000000
00010000
00000000
00100000
00000000
00001000
00000000
,  // measure 50
00010000
00000010
00010000
00000000
00000100
00000000
00001000
00000000
,  // measure 51
00000010
00000100
00000010
00000000
00001000
00000000
00000100
00000000
,  // measure 52
00000001
00000100
00001000
00000010
,  // measure 53
00010000
00001000
00010000
00000000
00001000
00000000
01000000
00000000
,  // measure 54
00100000
10000000
00100000
00000000
01000000
00000000
00001000
00000000
,  // measure 55
00010000
00000100
00010000
00000000
00000010
00000000
00000100
00000000
,  // measure 56
00001000
00000100
00000001
00000010
,  // measure 57
00000100
00010000
00000100
00000000
00010000
00000000
00001000
00000000
,  // measure 58
01000000
00010000
01000000
00000000
00010000
00100000
00010000
00000000
,  // measure 59
00100000
01000000
00100000
00000000
01000000
10000000
00010000
00100000
,  // measure 60
01000000
10000000
01000000
00100000
00010000
00000000
00000000
00000000
,  // measure 61
01010000
00000000
10000000
01000000
,  // measure 62
00100000
00010000
00001000
00000000
,  // measure 63
00001100
00000000
00000010
00000001
,  // measure 64
00000100
00000010
00001000
00000000
,  // measure 65
00000101
00000000
00000010
00010000
,  // measure 66
00001000
01000000
00010000
00010000
,  // measure 67
10000000
00000000
00000000
10000000
00000000
00000000
01000000
00000000
01000000
00100000
00000000
00000000
,  // measure 68
00001000
00010000
00001000
00010000
00000000
00000000
00000010
00000000
00000000
00001000
00000000
00000000
,  // measure 69
00000001
00001000
00000100
00010000
,  // measure 70
00001000
00000000
00100000
01000000
00100000
00000000
00010000
00000000
,  // measure 71
10000000
00010000
01000000
00001000
,  // measure 72
00010000
00000000
00000100
00000010
00000100
00000000
00001000
00000000
,  // measure 73
00000001
00001000
00000010
00010000
,  // measure 74
00001000
00000000
01000000
00100000
01000000
00000000
00010000
00000000
,  // measure 75
10000000
00010000
00100000
00001000
,  // measure 76
00010000
00000100
00001000
00000001
,  // measure 77
00000100
00000010
00010000
00001000
,  // measure 78
01000000
00000000
00010000
00100000
00010000
00000000
10000000
00000000
,  // measure 79
01000000
00100000
00001000
00010000
,  // measure 80
00000100
00000000
00001000
00000010
00001000
00000000
00000001
00000000
,  // measure 81
00000100
00001000
00010000
01000000
,  // measure 82
10000000
00000000
00000000
00000000
00010000
00000000
00000000
00000000
01000000
00000000
00001000
00000000
00010000
00001000
00020000
00000000
,  // measure 83
00000000
00002000
00033000
00000000
00000010
00000000
00000001
00000000
,  // measure 84
00001000
00000001
00000100
00001000
,  // measure 85
00010000
00000000
00100000
01000000
00100000
00000000
10000000
00000000
,  // measure 86
00010000
10000000
01000000
00010000
,  // measure 87
00001000
00000000
00000100
00000010
00000100
00000000
00000001
00000000
,  // measure 88
00001000
00000001
00000010
00001000
,  // measure 89
00010000
00000000
01000000
00100000
01000000
00000000
10000000
00000000
,  // measure 90
00010000
10000000
00100000
00010000
,  // measure 91
00001000
00000010
00000001
00000001
,  // measure 92
00001000
00001000
00000100
00000100
,  // measure 93
00010000
00010000
00001000
00001000
,  // measure 94
01000000
01000000
00100000
00100000
,  // measure 95
10000000
10000000
01000000
01000000
,  // measure 96
00010000
00010000
00001000
00001000
,  // measure 97
00000100
00000000
00000100
00000000
00000001
00000000
00001000
00000010
,  // measure 98
00001000
00000001
00000100
00001000
,  // measure 99
00010000
00000000
00000000
00000000
01000000
00000000
00000000
00000000
10000000
00010000
10000000
01000000
10000000
00010000
00100000
00001000
,  // measure 100
00100000
00010000
00100000
00001000
00010000
00000100
00010000
00001000
00010000
00000100
00001000
00000001
00001000
00000010
00001000
00000001
,  // measure 101
00000101
00000000
00001010
00000000
00000110
00000000
00001001
00000000
00000001
00001000
00000001
00000100
00000001
00001000
00000010
00010000
,  // measure 102
00000010
00001000
00000010
00010000
00001000
01000000
00001000
00010000
00001000
01000000
00010000
10000000
00010000
00100000
00010000
10000000
,  // measure 103
10010000
00000000
00000000
00000000
10000000
01000000
00010000
00001000
,  // measure 104
00100000
00010000
01000000
00000000
00001000
00010000
01000000
00010000
,  // measure 105
00000100
00000010
00001000
00000000
00000001
00000100
00001000
00000010
,  // measure 106
00001000
00000000
00000100
00000000
00010000
00000000
00000000
00000000
00011000
00000000
00000000
00000000
00101000
00000000
00000000
00100000
,  // measure 107
00010000
10000000
10010000
00000000
01000000
10000000
01000000
00010000
,  // measure 108
00001000
00100000
00100000
00000000
00001000
00010000
00100000
01000000
,  // measure 109
00001000
00000100
00000001
00000000
00001000
00000100
00000010
00010000
,  // measure 110
00000010
00000100
00010000
00000000
00100000
01000000
00001000
00000000
,  // measure 111
00000000
00000000
00010000
00000000
00010100
00000000
00000000
00000000
00001000
00000000
00000010
00000000
00001000
00000000
00000001
00000100
,  // measure 112
00000001
00000000
00000100
00000000
00000010
00010000
00000010
00000000
00010000
00000000
00001000
00000000
01000000
00000000
00100000
10000000
,  // measure 113
00100000
00000000
01000000
00000000
00001000
00010000
00001000
00000000
00100000
00000000
00001000
00000000
00010000
00000000
00000010
00001000
,  // measure 114
00000010
00000000
00000100
00000000
00000001
00001000
00000001
00000000
00000100
00000000
00001000
00000000
00010000
00000000
01000000
00000000
,  // measure 115
10000000
00000000
00100000
00000000
10000000
00000000
00000000
00000000
00010000
00000000
00100000
00000000
00010000
00000000
10000000
01000000
,  // measure 116
10000000
00000000
01000000
00000000
00100000
00001000
00100000
00000000
00001000
00000000
00010000
00000000
00000100
00000000
00000010
00000001
,  // measure 117
00000010
00000000
00000100
00000000
00010000
00001000
00010000
00000000
00000010
00000000
00010000
00000000
00001000
00000000
00100000
00010000
,  // measure 118
00100000
00000000
01000000
00000000
10000000
00010000
10000000
00000000
01000000
00000000
00010000
00000000
00001000
00000000
00000100
00000000
,  // measure 119
00000001
00000010
00000001
00000000
00000001
00000010
00001000
00000010
,  // measure 120
00000100
00010000
00000100
00000000
00010000
00000000
00000000
00000000
00001000
00000000
00010000
00000000
01000000
00000000
10000000
00000000
,  // measure 121
00010000
00100000
00010000
00000000
10000000
00000000
00000000
00000000
00010000
00000000
01000000
00000000
10000000
00000000
00010000
00000000
,  // measure 122
00001000
00010000
01000000
00100000
00001000
00000010
00000100
00010000
,  // measure 123
00001000
00000010
00000001
00000000
00000001
00000100
00001000
00000100
,  // measure 124
00000010
00010000
00000010
00000000
00010000
00000000
00000000
00000000
00001000
00000000
00010000
00000000
00100000
00000000
10000000
00000000
,  // measure 125
00010000
01000000
00010000
00000000
10000000
00000000
00000000
00000000
00010000
00000000
00100000
00000000
01000000
00000000
10000000
00000000
,  // measure 126
00100000
01000000
00100000
00000000
00010000
00001000
00010000
00001000
00010000
00000000
00001000
00000000
00000100
00000000
00000000
00000000
,  // measure 127
00000001
00000000
00000000
00000000
00000010
00000000
00000000
00000000
00000100
00000000
00000000
00000000
00001000
00000000
00000000
00000000
00001001
00000000
00000000
00000001
00000000
00000000
00000002
00000000
00000000
00000000
00000000
00000000
00000000
00000000
00000000
00000000
,  // measure 128
00001003
00000000
00000000
00001000
00000000
00000000
00002000
00000000
00000000
00000000
00000000
00000000
00000000
00000000
00000000
00000000
00013000
00000000
00000000
00010000
00000000
00000000
00020000
00000000
00000000
00000000
00000000
00000000
00000000
00000000
00000000
00000000
,  // measure 129
10030000
00000000
00000000
10000000
00000000
00000000
20000000
00000000
00000000
00000000
00000000
00000000
00000000
00000000
00000000
00000000
31000000
00000000
00000000
00010000
00000000
00000000
00001000
00000000
00000000
00000000
00000000
00000000
00000000
00000000
00000000
00000000
,  // measure 130
00000100
00000000
00000000
00001000
00000000
00000000
00010000
00000000
00000000
00000000
00000000
00000000
00000000
00000000
00000000
00000000
00100000
00000000
00000000
00010000
00000000
00000000
00001000
00000000
00000000
00000000
00000000
00000000
00000000
00000000
00000000
00000000
,  // measure 131
00000020
00000031
00000010
00000001
,  // measure 132
00001000
00000100
00000000
00001000
00000010
00000000
00010000
00000000
,  // measure 133
00001000
01000000
00100000
10000000
,  // measure 134
01000000
00100000
00000000
00010000
00100000
00000000
00001000
00000000
,  // measure 135
00010000
00000000
00000010
00000000
00001000
00000100
00000000
00000000
,  // measure 136
00000010
00000000
00000001
00000100
00000000
00000000
00001000
00000000
,  // measure 137
00010000
00000000
01000000
00000000
10000000
00010000
00000000
00000000
,  // measure 138
01000000
00000000
00100000
00010000
00000000
00000000
00001000
00000000
,  // measure 139
00000010
00000001
00000100
00000001
,  // measure 140
00001000
00000010
00000000
00001000
00000100
00000000
00010000
00000000
,  // measure 141
00001000
00100000
01000000
10000000
,  // measure 142
00100000
01000000
00000000
00010000
01000000
00000000
00010000
00000000
,  // measure 143
10000000
01000000
01000000
00010000
,  // measure 144
00010000
00001000
00001000
00000010
,  // measure 145
00000010
00000001
00001000
00000000
00000001
00000100
00000010
00000000
,  // measure 146
00001000
00000100
00010000
00000000
00001000
00100000
00010000
00000000
,  // measure 147
10000000
00100000
01000000
00010000
00000000
00010000
01000000
00000000
,  // measure 148
01000000
00100000
00000000
00100000
00010000
00000000
00001000
00000000
,  // measure 149
00000100
00000000
00000001
00001000
00000000
00001000
00000100
00000000
,  // measure 150
00000100
00000010
00000000
00000010
00001000
00000000
00010000
00000000
,  // measure 151
00100000
00000000
10000000
00010000
00000000
00010000
00100000
00000000
,  // measure 152
00100000
01000000
00000000
01000000
00010000
00000000
00001000
00000000
,  // measure 153
00000010
00000000
00000001
00001000
00000000
00001000
00000010
00000000
,  // measure 154
00000010
00000100
00000000
00000100
00001000
00000000
00010000
00000000
,  // measure 155
00010000
00000000
01000000
10000000
00010000
00000000
00100000
00000000
,  // measure 156
00001000
00010000
00000000
00010000
00000010
00001000
00000100
00000000
,  // measure 157
00000001
00000000
00000100
00001000
00000010
00000000
00010000
00000000
,  // measure 158
00001000
00010000
00000000
00010000
01000000
00000000
10000000
00000000
,  // measure 159
00100000
00000000
10000000
00010000
00100000
00000000
00010000
00000000
,  // measure 160
01000000
00001000
00010000
00000000
00000010
00000000
00001000
00000000
,  // measure 161
00000001
00000000
00000100
00000001
00000000
00000001
00001000
00000000
,  // measure 162
00001000
00000010
00000000
00000010
00010000
00000000
00001000
00000000
,  // measure 163
00000100
00000001
00001000
00000001
00000000
00001000
00000100
00000000
,  // measure 164
00010000
00001000
00000000
01000000
00010000
01000000
00100000
00000000
,  // measure 165
10000000
00000000
00010000
10000000
00000000
00010000
01000000
00000000
,  // measure 166
00001000
00010000
00000000
00000100
00001000
00000100
00000010
00000000
,  // measure 167
00000001
00000000
00000100
00001000
00000000
00010000
01000000
00000000
,  // measure 168
10000000
00100000
00000000
01000000
00010000
00000000
10000000
00000000
,  // measure 169
01000000
00000000
00010000
00001000
00010000
00000100
00001000
00000000
,  // measure 170
00000001
00000010
00000001
00001000
00000100
00010000
00001000
01000000
,  // measure 171
00010000
00000000
10000000
01000000
10000000
01000000
00100000
00000000
,  // measure 172
00010000
01000000
00001000
01000000
00001000
00010000
00000010
00000000
,  // measure 173
00001000
00000000
00000001
00000100
00000001
00000100
00000010
00000000
,  // measure 174
00001000
00000100
00010000
00000100
00010000
00001000
00100000
00000000
,  // measure 175
00010000
10000000
01000000
00010000
,  // measure 176
00001000
00000100
00000001
00001000
,  // measure 177
00000100
00010100
00011000
01001000
,  // measure 178
01000000
00100000
00000000
00100000
10000000
00000000
01000000
00000000
,  // measure 179
01100000
00000000
10000000
01000000
00100000
01000000
10000000
01000000
,  // measure 180
00010000
00000000
00001000
00000000
00010000
00000000
01000000
00000000
00010000
00000000
00001000
00000100
00000000
00000010
00000000
00000100
,  // measure 181
00000000
00001000
00000000
00000100
00000000
00000001
00000000
00000010
00000000
00000100
00000000
00010000
00001000
00010000
00100000
00000000
,  // measure 182
10000000
00100000
01000000
00100000
00010000
00001000
00010000
01000000
,  // measure 183
00010000
00000000
00001000
00000000
00000010
00000000
00001000
00000000
00010000
00000000
00001000
00000000
00000100
00000010
00000110
00000001
,  // measure 184
00000000
00000100
00000000
00000010
00000000
00000100
00000000
00000001
00000000
00000100
00000000
00001000
00000000
00010000
00000000
00001000
,  // measure 185
00000000
00000000
00000010
00000000
00000000
00000000
00001000
00000000
00000000
00000000
00010000
00110000
10100000
01000000
00000000
00000000
00000000
10000000
00000000
00000000
00000000
01000000
00000000
00000000
00000000
00100000
00000000
00000000
00000000
01000000
00000000
00000000
,  // measure 186
00000000
00010000
00000000
00000000
00000000
00001000
00000000
00000000
00000000
00011000
00010100
00000110
00001001
00000000
00000000
00000000
00000100
00000000
00000000
00000000
00000001
00000000
00000000
00000000
00000100
00000000
00000000
00000000
00001000
00000000
00000000
00000000
,  // measure 187
00000100
00000000
00000000
00000000
00000001
00000000
00000000
00000000
00000100
00000000
00000000
00000000
00001000
00000000
00000000
00000000
00010000
00000000
00000000
00000000
00100000
00000000
00000000
00000000
10000000
01000000
00100000
00010000
10000000
01000000
00100000
00010000
,  // measure 188
10000000
01000000
00100000
00010000
10000000
00000000
00000000
00000000
01000000
00000000
00000000
00000000
00010000
00000000
00000000
00000000
01000000
00000000
00000000
00000000
10000000
00000000
00000000
00000000
01000000
00000000
00000000
00000000
00010000
00000000
00000000
00000000
,  // measure 189
00001000
00011000
00010010
00001010
00000100
00000000
00000001
00000000
00000010
00000000
00000001
00000000
00000100
00000000
00000010
00000000
,  // measure 190
00010000
00000000
00001000
00000000
00011000
01001000
01010000
10010000
01100000
00000000
20020000
30030000
10000000
00000000
00100000
00000000
,  // measure 191
01000000
00000000
01001000
00000000
00001000
00000000
00010000
00000000
00000100
00001000
00000010
00000000
00000000
00000000
00001000
00000000
,  // measure 192
00000100
00000000
00000001
00000000
00000100
00010000
00001000
00010000
01000000
00000000
10000000
00000000
00100000
00000000
01000000
00010000
,  // measure 193
00000000
01000000
00001000
00000000
00010000
00000000
00000100
00000000
00000110
00000000
00000001
00000000
00000100
00000000
00000001
00001000
,  // measure 194
00000000
00000010
00001000
00000000
00000100
00000000
00010000
00000000
00011000
00000000
00100000
00000000
00010000
00000000
10000000
01000000
,  // measure 195
00000000
10000000
00010000
00000000
00100000
00000000
00001000
00000000
00010000
00000000
00000100
00000000
00000010
00000000
00000001
00001000
,  // measure 196
00000000
00000100
00010000
00000000
00001000
00010000
01000000
10000000
22000000
00000000
00000000
00000000
00000000
00000000
33000000
00000000
,  // measure 197
22000000
00000000
00000000
33000000
02020000
00000000
00000000
03030000
,  // measure 198
02020000
00000000
00000000
03030000
00001000
00000000
00000010
00000000
,  // measure 199
00000001
00000010
00001000
00010000
,  // measure 200
01000000
00000000
10000000
00000000
00010000
01000000
00100000
00000000
,  // measure 201
10000000
01000000
00010000
00000000
00001000
00000100
00000001
00000000
,  // measure 202
00000100
00000010
00001000
00000010
00001000
00000000
00010100
00000000
,  // measure 203
00101000
00000000
00000000
00000000
01010000
00100000
00000000
00000000
00000000
01000000
00000000
00000000
00000000
01100000
00000000
00000000
,  // measure 204
00000000
10010000
00100000
00000000
00000000
00000000
10000000
00000000
00000000
00000000
10100000
00000000
00000000
00000000
01001000
00022000
,  // measure 205
00000000
00000000
00000000
00000000
,  // measure 206
00000000
00000000
00000000
00000000
,  // measure 207
00000000
00000000
00000000
00000000
,  // measure 208
00000000
00000000
00000000
00000000
00000000
00000000
00000000
00000000
00000000
00000000
00000000
00000000
00000000
00000000
00000000
00033000
;

//---------------dance-double - ----------------
#NOTES:
     dance-double:
     :
     Medium:
     9:
     0.599992,0.957618,0.199997,0.087499,0.124998,1008.000000,960.000000,48.000000,21.000000,0.000000,0.000000,0.599992,0.957618,0.199997,0.087499,0.124998,1008.000000,960.000000,48.000000,21.000000,0.000000,0.000000:
00000000
00000000
00000001
00000000
00000010
00000000
00000100
00000000
00001000
00000000
00010000
00000000
00100000
00000000
01000000
10000000
,
01000000
00100000
00002000
00000000
00000000
00020000
00000000
00000000
00000000
00000000
00003000
00000000
00000000
00000000
00000000
00030000
,
00000000
00000001
00001000
00000010
00001000
00000001
00000000
00000100
,
00001000
00010000
00000000
00000100
00000010
00000100
00000000
00000010
,
00001000
00010000
00100000
00000000
10000000
00010000
01000000
00100000
,
10000000
00000000
01000000
00100000
00010000
00000000
10000000
00100000
,
00010000
00100000
10000000
00000000
00010000
10000000
00000000
01000000
,
00010000
00001000
00000000
01000000
00100000
01000000
00001000
00020000
,
00000000
00031000
00000010
00000000
00000001
00001000
00000100
00000010
,
00000001
00000000
00000000
00000000
00000100
00000000
00000010
00000000
00001000
00000000
00000000
00001000
00000000
00000000
00010000
00000000
,
01000000
00100000
10000000
00000000
00010000
00000000
00000000
00010000
,
00000000
00000000
00010000
00000000
00000000
00010000
00000000
00000000
,
00001000
00000000
00000000
00001000
00000000
00000000
00001000
00000000
,
00000000
00001000
00000000
00000000
00000001
00000000
00000001
00000000
,
00001000
00000010
00001000
00000000
00010000
00000000
00010000
00000000
,
10000000
00100000
10000000
00000000
00100000
01000000
00100000
01000000
,
00001000
00010000
00001000
00010000
00000100
00000010
00000100
00000010
,
00000001
00000000
00000001
00000100
00001000
00000100
00000010
00001000
,
00000000
00000100
00000000
00010000
00001000
00000000
00011000
00000000
,
01100000
00000000
10000000
01000000
00010000
01000000
00100000
00010000
,
00000000
01000000
00000000
00001000
00010000
00000000
00011000
00000000
,
00010100
00000000
00000010
00000001
00000010
00000000
00000100
00001000
,
00000100
00010000
00000000
00010000
00001000
00000000
00011000
00000000
,
01100000
00000000
10000000
01000000
00010000
00001000
00100000
00010000
,
01000000
00001000
00000000
00010000
00000200
00000000
00000010
00000000
,
00000310
00000000
00000001
00000100
00001000
00000000
00010000
00000010
,
00001000
00000010
00020000
00000000
00100000
00000000
00001000
00000000
,
01030000
00000000
10000000
00100000
00010000
00001000
01000000
00100000
,
10000000
01000000
00020000
00000000
00001000
00000000
00000010
00000000
,
00031000
00000000
00010000
00001000
00000100
00000001
00000010
00000000
,
00001000
00000000
00001000
00010000
01000000
10000000
00100000
00000000
,
01000000
00000000
00100000
00010000
00001000
00000010
00001000
00010000
,
00100000
00010000
00001000
00000010
00000002
00000000
00000100
00000000
,
00000103
00000000
00000001
00000010
00001000
00000000
00010000
00000100
,
00001000
00000100
00020000
00000000
01000000
00000000
00001000
00000000
,
00130000
00000000
10000000
01000000
00010000
00001000
00100000
01000000
,
10000000
00100000
00020000
00000000
00001000
00000000
01000000
00000000
,
00031000
00000000
00010000
00001000
00000010
00000000
00000001
00000100
,
00001000
00000000
00010000
00001000
00000100
00000000
00000001
00000010
,
00001000
00000000
00020000
00000000
00030000
01000000
00100000
01000000
,
00000000
10000000
00100000
00010000
00001000
00000010
00000001
00000000
,
00000110
00002002
00000000
00000000
,
00000000
00000000
00000000
00003003
00000000
00000000
00000000
00000000
,
00000000
00000000
00000000
00000000
,
00000000
00000000
00000001
00000010
,
00000100
00000000
00001000
00000010
,
00000100
00000000
00000001
00000010
,
00001000
00010000
00100000
10000000
,
00010000
00000000
10000000
00100000
,
01000000
00000000
00010000
00100000
,
01000000
00000000
10000000
00100000
,
00010000
00001000
00000010
00000001
,
00001000
00000000
00000001
00000100
,
00001000
00000000
00001000
00000100
,
00000001
00000000
00000001
00000100
,
00001000
00010000
01000000
10000000
,
00010000
00000000
10000000
01000000
,
00010000
00000000
00010000
01000000
,
10000000
00000000
10000000
01000000
,
00010000
00001000
00000100
00000001
,
00001000
00000001
00000010
00000000
,
00000110
00000000
00000100
00010000
,
00001000
00000000
00100000
00000000
,
00110000
00000000
00010000
01000000
,
00100000
00000000
10000000
00000000
,
10010000
00000000
00010000
00100000
,
00001000
00000000
00010000
00000000
,
00010010
00000000
00000010
00001000
,
00000100
00000000
00001000
00000001
,
00000100
00000010
00001000
00000100
,
00000010
00000000
00001000
00010000
,
01000000
00100000
00010000
01000000
,
00100000
00000000
10000000
01000000
,
00100000
00010000
01000000
00001000
,
00010000
00000000
00000010
00001000
,
00000001
00000000
00000010
00000001
,
00000100
00001000
00010000
01000000
,
10000000
00010000
10000000
00100000
,
00010000
00001000
01000000
00001000
,
00010000
00000100
00001000
00000010
,
00000100
00000001
00001000
00000001
,
00000100
00001000
00010000
01000000
,
10000000
00010000
20000000
00000000
,
30000000
10010000
00000000
00000000
00100000
00000000
10000000
00000000
,
00100000
01000000
00010000
00100000
,
01000000
00100000
00001000
00010000
,
00000100
00001000
00000001
00000100
,
00000010
00000100
00000001
00001000
,
00000010
00010000
00001000
01000000
,
00100000
10000000
01000000
00010000
,
00001000
00000100
00000001
00000010
,
00000100
00001000
00000001
00000100
,
00001000
00010000
01000000
10000000
,
00010000
00000000
10000000
01000000
,
00010000
00001000
00000100
00000001
,
00001000
00000000
00000101
00000000
,
00001100
00000000
00011000
00000000
,
01010000
00000000
11000000
10000000
,
00100000
01000000
00010000
00001000
,
00000010
00000000
00000000
00000000
00000100
00000000
00000000
00000000
00000001
00000000
00001000
00000000
00001100
00000000
00000000
00000100
,
00010000
00000000
00001000
00000000
00011000
00000000
00000000
00010000
01000000
00000000
10000000
00000000
11000000
00000000
00000000
01000000
,
00100000
00000000
00010000
00000000
01100000
00000000
01000000
00000000
10000000
00000000
00010000
00000000
01010000
00000000
00000000
01000000
,
00001000
00000000
00010000
00000000
00011000
00000000
00000000
00001000
00000100
00000000
00000001
00000000
00000101
00000000
00000000
00000100
,
00000020
00000030
00000000
00000000
00000001
00000000
00000100
00001000
,
00000000
00001000
00010000
00000000
00100000
00000000
10000000
01000000
,
00000000
01000000
00100000
00001000
00010000
00000000
00100000
00010000
,
00000000
00001000
00000010
00000000
00000001
00000000
00000100
00000010
,
00000000
00010000
00000100
00010000
00001000
00000000
00100000
00010000
,
00000000
10000000
01000000
00000000
00100000
00000000
00010000
01000000
,
00000000
00100000
10000000
00000000
01000000
00000000
00010000
00001000
,
00000010
00000100
00000010
00000000
00000001
00000000
00001000
00000000
,
00000000
00000010
00000100
00000000
00000010
00001000
00000000
00000001
,
00000100
00000010
00010000
00000000
00001000
00000000
00100000
00001000
,
00100000
00010000
00100000
00000000
01000000
00000000
10000000
00000000
,
00100000
00010000
00001000
00000000
00000100
00000000
00000001
00000010
,
00000001
00000000
00001001
00000000
00001000
00000100
00000010
00000000
,
00000001
00001000
00000100
00000000
00000010
00001000
00010000
00000100
,
00010000
00001000
00100000
00000000
00010000
10000000
01000000
00000000
,
00100000
00001000
00010000
00000000
00001000
01000000
00010000
01000000
,
00001000
00010000
00000010
00000000
00001000
00000010
00000100
00000000
,
00000001
00001000
00000010
00000000
00000100
00001000
00010000
00000010
,
00010000
00001000
01000000
00000000
00010000
10000000
00100000
00000000
,
01000000
00001000
00010000
00000000
00001000
00000100
00000001
00000000
,
00000010
00000001
00001000
00000000
00001010
00000000
00000010
00010000
,
00000000
00001000
00100000
00000000
10010000
00000000
01000000
00010000
,
10000000
01000000
00100000
00000000
00101000
00000000
00001000
00010000
,
00000000
00010000
00000100
00000000
00000110
00000000
00000001
00000000
,
00001000
00000000
00000100
00000000
00001000
00000000
00000000
00000000
00000011
00000000
00000000
00001000
00000000
00000000
00000000
00000000
,
00001010
00000000
00000000
00000100
00000000
00000000
00000000
00000000
00010100
00000000
00000000
00001000
00000000
00000000
00000000
00000000
,
01001000
00000000
00000000
00010000
00000000
00000000
00000000
00000000
10010000
00000000
00000000
01000000
00000000
00000000
00000000
00000000
,
01001000
00000000
00000000
00010000
00000000
00000000
00000000
00000000
00011000
00000000
00000000
00000100
00000000
00000000
00000000
00000000
,
00000101
00001000
00000010
00000100
,
00000001
00000010
00001000
00010000
,
01000000
10000000
00100000
10000000
,
00010000
01000000
00100000
00010000
,
00001000
00000010
00000001
00001000
,
00000010
00010000
00100000
10000000
,
01000000
00010000
00000100
00000001
,
00001000
00000010
00000001
00000100
,
00000100
00001000
00100000
01000000
,
10000000
00100000
00010000
00001000
,
00000100
00000001
00000010
00000001
,
00001000
00000100
00000010
00001000
,
00010000
01000000
01000000
10000000
,
10000000
00100000
00100000
00010000
,
00010000
00000000
00001000
00000000
01000000
00010000
01000000
00000000
,
00001000
00010000
00001000
00000000
00010000
00000100
00010000
00000000
,
00000010
00001000
00000010
00001000
00000000
00000001
00000000
00000000
,
00000100
00000010
00000000
00000100
00000010
00000000
00001000
00000000
,
00010000
00000000
01000000
00010000
00000000
10000000
00000000
00000000
,
01000000
00100000
00000000
01000000
00100000
00000000
00010000
00000000
,
00001000
00000000
00000100
00001000
00000000
00000001
00000000
00000000
,
00000010
00000100
00000000
00000010
00000100
00000000
00001000
00000000
,
00010000
00000000
00100000
00010000
00000000
10000000
00000000
00000000
,
00100000
01000000
00000000
00100000
01000000
00000000
00010000
00000000
,
00010000
00000000
00100000
00010000
00000000
10000000
00000000
00000000
,
01000000
00100000
00000000
01000000
00100000
00000000
00010000
00000000
,
00001000
00000000
00000100
00001000
00000000
00000001
00000000
00000000
,
00000100
00000010
00000000
00000100
00000010
00000000
00001000
00000000
,
00010000
00000000
00100000
00010000
00000000
10000000
00000000
00000000
,
00100000
01000000
00000000
00100000
01000000
00000000
00010000
00000000
,
00001000
00000000
00000010
00001000
00000000
00000001
00000000
00000000
,
00000100
00000010
00000000
00000100
00000010
00000000
00001000
00000000
,
00010000
01000000
00100000
10000000
,
01000000
00010000
00001000
00000100
,
00000001
00001000
00000001
00000010
,
00001000
00010000
00100000
10000000
,
00010000
00100000
00001000
00010000
,
00000100
00001000
00000001
00000010
,
00001000
00010000
00000010
00010000
,
00001000
00100000
00010000
10000000
,
10000000
00000000
00100000
00000000
00000000
00100000
00000000
00000000
,
00010000
00001000
00000000
01000000
00001000
00000000
00011000
00000000
,
00000000
00000000
00000010
00000000
00000000
00000010
00000000
00000000
,
00001000
00010000
00000000
00000100
00010000
00000000
00011000
00000000
,
00000000
00000000
01000000
00000000
00000000
01000000
00000000
00000000
,
00010000
00001000
00000000
00100000
00001000
00000000
00011000
00000000
,
00000000
00000000
00000100
00000000
00000000
00000100
00000000
00000000
,
00001000
00010000
00000000
00000010
00010000
00000000
00011000
00000000
,
00000100
00000000
00000010
00000100
00000010
00000000
00001000
00010000
,
00001000
00000000
00000000
00000000
00100000
00000000
00010000
00000000
01000000
00000000
00100000
00000000
00000000
10000000
00000000
00010000
,
00000000
10000000
00000000
01000000
00000000
00100000
00000000
00001000
00000000
00010000
00000000
00000100
00000100
00000100
00001000
00000000
,
00000010
00001000
00000000
00000001
00000010
00000001
00000000
00001000
,
00000100
00000000
00001000
00000000
00000000
00000000
00000010
00000000
00010000
00000000
00001000
00000000
00100000
00100000
00100000
00010000
,
00000000
10000000
00000000
01000000
00000000
00000000
00000000
00010000
00000000
00001000
00000000
00000100
00000000
00000000
00000000
00000100
,
00000000
00000000
00001000
00000000
00000000
00000000
00010000
00000000
00000000
00000000
00001000
00001000
00001000
00000100
00000000
00000000
00000000
00000001
00000000
00000000
00000000
00000100
00000000
00000000
00000000
00001000
00000000
00000000
00000000
00010000
00000000
00000000
,
00000000
01000000
00000000
00000000
00000000
10000000
00000000
00000000
00000000
01000000
00010000
00001000
00010000
00000000
00000000
00000000
00000000
00000000
00000000
00000000
00000010
00000000
00000000
00000000
00001000
00000000
00000000
00000000
00000001
00000000
00000000
00000000
,
00001000
00000000
00000010
00000000
00010000
00000000
00001000
00000000
01000000
00000000
00001000
00000000
00010000
00100000
01000000
10000000
,
01000000
00100000
00010000
00000000
00001000
00000000
00000100
00000000
00000000
00000000
00000001
00000000
00000100
00000000
00000010
00000000
,
00010000
00010000
00010000
00010000
00001000
00000000
00100000
00000000
00010000
00000000
00100000
00000000
00000000
00000000
01000000
00000000
,
10000000
00000000
01000000
00000000
00100000
00001000
00010000
00000100
00000020
00000000
00000031
00000000
00000101
00000000
00000000
00000000
,
00000000
00001010
00001100
00000000
00000000
00011000
00000000
00110000
,
00000000
10000000
01000000
00100000
00020000
00000000
01000000
01000000
,
00000000
00100000
00000000
00130000
00002000
00000000
00010000
00000000
,
00000000
00000010
00000000
00003010
00000200
00000000
00001000
00000000
,
00000001
00000000
00001300
00000010
00020000
00000000
00001000
00000000
,
00000000
01030000
00000000
00000000
10000000
00000000
00010000
00000000
,
01000000
00100000
10000000
01000000
,
00100000
00001000
00010000
00000100
,
00000010
00000001
00000100
00001000
,
00010000
00100000
00010000
00001000
,
01000000
00100000
10000000
01000000
,
00010000
00001000
00100000
00001000
,
00010000
00000000
00000000
00000000
00000100
00000010
00000000
00000000
00000000
00000001
00000000
00000000
00000000
00001000
00000000
00000000
,
00000000
00000001
00000100
00000000
00000000
00000000
00000010
00000000
00000000
00000000
00010000
00000000
00000000
00000000
00001000
00022000
,
00000000
00000000
00000000
00000000
,
00000000
00000000
00000000
00000000
,
00000000
00000000
00000000
00000000
,
00000000
00000000
00000000
00000000
00000000
00000000
00000000
00000000
00000000
00000000
00000000
00000000
00000000
00000000
00000000
00033000
;

//---------------dance-double - ----------------
#NOTES:
     dance-double:
     :
     Easy:
     7:
     0.422019,0.783506,0.049999,0.112499,0.083332,709.000000,697.000000,12.000000,27.000000,0.000000,0.000000,0.422019,0.783506,0.049999,0.112499,0.083332,709.000000,697.000000,12.000000,27.000000,0.000000,0.000000:
00000000
10000000
00000000
10000000
00000000
00010000
00100000
00001000
,
00010000
00000000
00000100
00000000
00000000
00000100
00000000
00000000
00000000
00000000
00000000
00000000
00000000
00000000
00000000
00000000
,
00000010
00001000
00010000
00000100
,
00000010
00000001
00001000
00000100
,
00010000
00001000
00100000
00010000
,
01000000
10000000
01000000
00100000
,
10000000
01000000
00010000
00001000
,
00000100
00000010
00001000
00000001
,
00000100
00000010
00010000
00001000
,
00100000
00010000
10000000
00010000
,
00100000
00000000
00010000
00000000
10000000
00000000
00000000
10000000
,
00000000
00000000
01000000
00000000
00000000
01000000
00000000
00000000
,
00010000
00000000
00000000
00010000
00000000
00000000
00001000
00000000
,
00000000
00001000
00000000
00000000
00000100
00000000
00000100
00000000
,
00000100
00000100
00000001
00000001
,
00000001
00000001
00001000
00001000
,
00001000
00001000
00000100
00000200
,
00000300
00000010
00000001
00001000
,
00000010
00000000
00020000
00000000
00032000
00000000
00103000
00010000
,
00100000
01000000
10000000
00010000
,
01000000
00000000
00002000
00000000
00023000
00000000
00030100
00001000
,
00000100
00000010
00000001
00001000
,
00000100
00000000
00020000
00000000
00032000
00000000
01003000
00010000
,
01000000
00100000
10000000
00010000
,
01000000
00001000
00000000
00001000
00010000
00000000
00000100
00000000
,
00000100
00001001
00000001
00000010
,
00000100
00010000
00001000
00000000
00010000
00000000
01000000
00000000
,
10000000
00020000
01000000
10000000
,
00100000
10030000
00000000
01000000
,
01000000
00000000
00010000
00000000
00001000
00010000
00001000
00000000
,
00000010
00000000
00001000
00000000
00010000
00001000
00010000
00000000
,
00100000
00010000
00001000
00000100
,
00000001
00002000
00000010
00000001
,
00003100
00001001
00000001
00000100
,
00000010
00010000
00001000
00000000
00010000
00000000
00100000
00000000
,
10000000
00020000
00100000
10000000
,
01000000
10030000
00000000
00100000
,
00100000
00000000
00010000
00000000
00001000
00010000
00001000
00000000
,
00000100
00000000
00001000
00000000
00010000
00001000
00010000
00000000
,
01000000
00010000
00001000
00000010
,
00000001
00000000
00001000
00000100
00001000
00000100
00010000
00001000
,
00010000
00001000
02000000
00000000
00000000
00000000
00000000
00000000
,
00000000
00000000
00000000
03000000
00000000
00000000
00000000
00000000
,
00000000
00000000
00000000
00000000
,
00000000
00000000
00010000
00000000
,
00010000
00000000
00001000
00000000
,
00001000
00000000
01000000
00000000
,
01000000
00000000
00100000
10000000
,
00100000
00000000
01000000
00000000
,
01000000
00000000
00001000
00000000
,
00001000
00000000
00010000
00000000
,
00010000
00000000
00000100
00000010
,
00000100
00000000
00000010
00000000
,
00000010
00000000
00000001
00000000
,
00000001
00000000
00001000
00000000
,
00001000
00000000
00000100
00010000
,
00000100
00000000
00010000
00000000
,
00010000
00000000
00001000
00000000
,
00001000
00000000
01000000
00000000
,
01000000
00000000
00100000
10000000
,
00100000
00000000
01000000
00000000
,
00010000
00000000
00100000
00000000
,
01000000
00000000
10000000
00000000
,
01000000
00000000
00100000
00000000
,
00001000
00000000
00010000
00000000
,
00001000
00000000
00010000
00000000
,
00000100
00000000
00001000
00000000
,
00000010
00000000
00000100
00000001
,
00001000
00000000
00001000
00000000
,
00000001
00000000
00000010
00000000
,
00000100
00000000
00010000
00000000
,
00001000
00000000
01000000
00000000
,
00010000
00000000
10000000
00000000
,
01000000
00000000
00100000
00000000
,
00001000
00000000
00010000
00000000
,
00010000
00000000
00001000
00000000
,
00001000
00000000
00000010
00000000
,
00000001
00000000
00000100
00000000
,
00000010
00000000
00010000
00000000
,
00001000
00000000
00100000
00000000
,
00010000
00000000
10000000
00000000
,
00100000
00000000
01000000
00000000
,
00001000
00000000
00000000
00000000
00010000
00001000
00010000
00002000
,
00000000
00003000
00000000
00000000
01000000
00000000
00010000
00000000
,
10000000
00000000
01000000
10000000
,
00010000
00000000
00100000
00001000
,
00010000
00000000
00000010
00001000
,
00000001
00000000
00000010
00001000
,
00000001
00000000
00001000
00000100
,
00010000
00000000
00001000
01000000
,
00010000
00000000
10000000
00010000
,
00100000
00000000
01000000
00100000
,
00001000
00000000
00010000
00000010
,
00010000
00000000
00001000
00000100
,
00000001
00000000
00000010
00000001
,
00001000
00000000
00000100
00010000
,
00001000
00000000
01000000
00010000
,
10000000
00000000
00100000
00000000
,
10000000
00000000
01000000
00000000
,
00010000
00000000
00000000
00000000
00011000
00001000
00010000
00000000
,
00000010
00001000
00000001
00000000
00000100
00000001
00000100
00000000
,
00000020
00020030
00032000
02003000
03010000
10000000
01000000
00000000
,
00100000
00010000
00100000
00000000
01000000
00010000
00001000
00000100
,
00002000
00003000
00000000
00000000
00001000
00000000
00000100
00000000
,
00000001
00000010
00000100
00000000
00010000
00000000
00001000
00000000
,
00100000
00010000
10000000
00000000
01000000
00000000
00100000
00000000
,
00000000
00001000
00010000
00000000
00000100
00000000
00000010
00000000
,
00000001
00001000
00000100
00000000
00010000
00000000
01000000
00000000
,
10000000
00100000
01000000
00000000
00001000
00000000
00010000
00000000
,
00000010
00001000
00000001
00000000
00000100
00000000
00000010
00000000
,
00000000
00010000
00001000
00000000
01000000
00000000
00100000
00000000
,
00000000
10000000
10000000
00000000
00010000
00000000
01000000
00000000
,
00001000
00010000
00000100
00000000
00000010
00000000
00000001
00000000
,
00001000
00000100
00010000
00000000
00001000
00000000
01000000
00000000
,
00100000
10000000
00010000
00000000
01000000
00000000
00001000
00000000
,
00010000
00000010
00001000
00000100
,
00010000
00001000
01000000
00000000
00100000
00000000
10000000
00000000
,
00010000
01000000
00001000
00000000
00010000
00000000
00000100
00000000
,
00000010
00000001
00001000
00000000
00000100
00000000
00010000
00000000
,
00001000
01000000
00010000
00100000
,
00001000
00010000
00000010
00000000
00000100
00000000
00000001
00000000
,
00001000
00000010
00010000
00000000
00001000
00000000
00100000
00000000
,
01000000
10000000
00010000
00000000
00100000
00000000
00001000
00000000
,
00010000
00000100
00001000
00000010
,
00010000
00001000
00100000
00000000
01000000
00000000
10000000
00000000
,
00010000
00100000
00001000
00000000
00010000
00000000
00000010
00000000
,
00000100
00000001
00001000
00000000
00000010
00000000
00010000
00000000
,
00001000
00000000
00000000
00000000
01000000
00000000
00000000
00000000
00010000
00000000
00000000
00010000
00000000
00000000
00000000
00000000
,
10000000
00000000
00000000
10000000
00000000
00000000
00000000
00000000
01000000
00000000
00000000
01000000
00000000
00000000
00000000
00000000
,
00010000
00000000
00000000
00010000
00000000
00000000
00000000
00000000
00001000
00000000
00000000
00001000
00000000
00000000
00000000
00000000
,
00000100
00000000
00000000
00000100
00000000
00000000
00000000
00000000
00000001
00000000
00000000
00000001
00000000
00000000
00000000
00000000
,
00000101
00001000
00000000
00000100
,
00000000
00000001
00000010
00000001
,
00000000
00001000
00000000
00000100
,
00000000
00010000
00000000
00000010
,
00000000
00010000
00000000
01000000
,
00000000
10000000
00100000
10000000
,
00000000
00010000
00000000
01000000
,
00000000
00001000
00000000
00100000
,
00000000
00001000
00000000
00000010
,
00000000
00000001
00000100
00000001
,
00000000
00001000
00000000
00000010
,
00000000
00010000
00000000
00000100
,
00000000
00010000
00000000
00100000
,
00000000
10000000
01000000
10000000
,
00000000
00010000
00000000
00010000
,
00000000
00001000
00000000
00001000
,
00000000
00000001
00000000
00000100
,
00000000
00000010
00001000
00000010
,
00000000
00010000
00000000
00001000
,
00000000
00100000
01000000
00100000
,
00000000
00010000
00000000
10000000
,
00000000
01000000
00100000
01000000
,
00000000
00010000
00000000
00001000
,
00000000
00000100
00000010
00000100
,
00000000
00000001
00000000
00000010
,
00000000
00000100
00001000
00000100
,
00000000
00010000
00000000
00001000
,
00000000
01000000
00100000
01000000
,
00000000
00010000
00000000
10000000
,
00000000
00100000
01000000
00100000
,
00000000
00010000
00000000
00001000
,
00000000
00000010
00000100
00000010
,
00000000
00000001
00000000
00000100
,
00000000
00000010
00001000
00000010
,
00000000
00010000
00000000
00001000
,
00000000
00100000
01000000
00100000
,
00000000
00010000
00000000
10000000
,
00000000
01000000
00100000
01000000
,
00000000
00010000
00000000
00001000
,
00000000
00000100
00000010
00000100
,
00000000
00000001
00000000
00000010
,
00000000
00000100
00001000
00000100
,
00000000
00010000
00000000
00001000
,
00000000
01000000
00100000
01000000
,
00000000
00010000
00000000
10000000
,
00000000
00100000
01000000
00100000
,
00000000
00010000
00001000
00010000
,
00000000
00000100
00001000
00000100
,
00001000
00000000
00000001
00001000
00000001
00000000
00000010
00000000
,
00001000
00000000
00000000
00000000
00010000
00000000
00000000
00000000
01000000
00000000
00000000
00000000
00000000
00100000
00000000
01000000
,
00000000
00100000
00000000
00000000
00000000
00010000
00000000
00000000
00000000
10000000
00000000
00100000
01000000
00010000
10000000
00000000
,
01000000
00100000
00000000
00001000
00010000
00001000
00000000
00000100
,
00000000
00000000
00000001
00000000
00000000
00000000
00000010
00000000
00000000
00000000
00000100
00000000
00000100
00010000
00001000
01000000
,
00000000
00100000
00000000
10000000
00000000
00000000
00000000
00010000
00000000
00100000
00000000
00010000
00000000
00000000
00000000
01000000
,
00000000
00000000
00000000
00000000
00000000
00000000
00001000
00000000
00000000
00000000
00010000
00000000
00000010
00000000
00000000
00000000
00000000
00001000
00000000
00000000
00000000
00000100
00000000
00000000
00000000
00000000
00000000
00000000
00000000
00000001
00000000
00000000
,
00000000
00000000
00000000
00000000
00000000
00000100
00000000
00000000
00000000
00001000
00000010
00010000
00001000
00000000
00000000
00000000
00000000
00000000
00000000
00000000
01000000
00000000
00000000
00000000
00100000
00000000
00000000
00000000
00000000
00000000
00000000
00000000
,
10000000
00000000
00010000
00000000
00100000
01000000
00020000
00000000
,
00000000
00031000
00000010
00000001
00000000
00000001
00000000
00000010
,
00000100
00001000
00000001
00000010
00000100
00000000
00001000
00000000
00000000
00000000
00000010
00000000
00000000
00000000
00010000
00000000
,
00000000
00000000
00100000
00000000
10000000
00010000
01000000
00100000
01000000
00000000
01100000
00000000
00001000
00000000
00000000
00000000
,
00000000
00011000
00010000
00000000
00000000
00001100
00000000
00000001
,
00000100
00001000
00021000
00000010
,
00000100
00031000
00012000
00100000
,
01000000
00013000
00102000
00010000
,
00100000
00013000
00020010
00001000
,
00000010
00031000
00010000
00000000
,
01000000
00000000
10000000
00000000
,
00010000
00100000
00001000
00010000
,
00000010
00000000
00000100
00000000
,
00000001
00000000
00001000
00000001
,
00001000
00000001
00000010
00000100
,
00000010
00000000
00002000
00000000
,
00013000
00000000
00000000
00000000
01000000
20000000
00000000
00000000
00000000
00000000
00000000
00000000
00000000
30010000
00000000
00000000
,
00000000
01000000
00200000
00000000
00000000
00000000
00000000
00000000
00000000
00000000
00310000
00000000
00000000
00000000
00001000
00022000
,
00000000
00000000
00000000
00000000
,
00000000
00000000
00000000
00000000
,
00000000
00000000
00000000
00000000
,
00000000
00000000
00000000
00000000
00000000
00000000
00000000
00000000
00000000
00000000
00000000
00000000
00000000
00000000
00000000
00033000
;
