#TITLE:NOVAmix3 (Happy Core);
#SUBTITLE:;
#ARTIST:dj nori;
#TITLETRANSLIT:;
#SUBTITLETRANSLIT:;
#ARTISTTRANSLIT:;
#GENRE:;
#CREDIT:;
#BANNER:NOVAmix3 (Happy Core).png;
#BACKGROUND:NOVAmix3 (Happy Core)-bg.png;
#LYRICSPATH:;
#CDTITLE:;
#MUSIC:NOVAmix3 (Happy Core).ogg;
#OFFSET:0.000000;
#SAMPLESTART:146.554001;
#SAMPLELENGTH:15.000000;
#SELECTABLE:YES;
#BPMS:0.000000=182.000000
,132.000000=172.000000
,195.666672=175.000000
,294.333344=155.100006
,344.000000=164.300003
,360.000000=175.000000
,440.000000=180.000000
,456.000000=185.000000
;
#STOPS:
;
#BGCHANGES:;
#KEYSOUNDS:;
#ATTACKS:;

//---------------dance-single - ----------------
#NOTES:
     dance-single:
     :
     Easy:
     4:
     0.287823,0.464586,0.134663,0.124304,0.000000,389.000000,363.000000,26.000000,24.000000,0.000000,0.000000,0.287823,0.464586,0.134663,0.124304,0.000000,389.000000,363.000000,26.000000,24.000000,0.000000,0.000000:
0000
0000
0000
0000
,
1001
0000
1001
0000
,
0010
1000
0100
0010
,
0001
1000
0010
0100
,
0100
0001
1000
0100
,
0010
0001
1000
1001
,
0000
1001
1001
0000
,
0010
0010
0100
0010
,
1001
1001
0110
0110
,
0002
0000
1000
0003
,
1000
0100
0010
0000
,
0001
0100
0010
0000
,
1000
0010
0100
0000
,
0001
0010
0100
0000
,
1000
0001
0100
0010
,
1000
0100
0010
0001
,
1000
0010
0100
0001
,
0020
0000
0100
0030
,
0001
0100
0001
0100
,
0010
0100
0010
0100
,
0010
1000
0100
1000
,
0010
1000
0100
0000
,
1000
0100
1000
0100
,
0010
0100
0010
0100
,
0010
0001
0100
0001
,
0010
0000
1001
0000
,
0010
1000
0001
0100
,
0010
1000
0001
0100
,
0010
1000
0100
0010
,
0001
1000
0100
0010
,
0001
0000
1000
0000
,
0010
0000
0100
0000
,
0001
0100
0010
1000
,
1001
0000
0110
0000
,
0100
0100
0001
1000
,
0001
0010
0100
1000
,
0001
0001
1000
0001
,
0100
0010
1000
0000
,
0100
0100
1000
0001
,
1000
0010
0100
0001
,
1000
1000
0001
0010
,
0100
1000
0002
0000
,
1003
0001
0100
0100
,
0010
1000
0100
0100
,
0010
0100
1000
0010
,
1000
0001
0100
0000
,
0001
1000
0010
0010
,
1000
0100
0010
0010
,
0001
0100
0001
1000
,
0020
0000
0200
0330
,
0100
0000
0010
0000
,
0100
0001
1000
0100
,
0010
0000
0001
0000
,
0010
0100
1000
0000
,
0010
0000
0100
0000
,
0001
1000
0010
0100
,
0001
0000
0010
0000
,
0100
1000
0010
0000
,
1000
0000
0001
0000
,
0010
0001
1000
0010
,
0100
0000
0010
0000
,
1000
0001
0010
0000
,
0100
0000
1000
0000
,
0010
1000
0100
0010
,
0001
0000
0100
0000
,
0110
0000
0000
0000
,
0010
0001
1000
0010
,
0100
0000
0010
0000
,
1000
0100
0010
0001
,
0010
0000
1000
0000
,
0010
0001
0100
1000
,
0100
0000
0010
0000
,
1000
0000
0001
1000
,
1001
0000
0000
0000
,
0100
0000
0010
1000
,
0100
0000
0010
0100
,
0010
0000
0001
0100
,
0010
0000
0100
0010
,
0100
0000
0010
1000
,
0100
0000
0010
0100
,
0010
0000
0001
0100
,
0010
0000
0100
0010
,
2000
0000
0000
0000
,
3002
0000
0000
0000
,
0203
0000
0000
0000
,
0320
0000
0000
0030
,
2000
0000
3020
0000
,
0230
0000
0302
0000
,
2003
0000
3200
0000
,
0320
0000
0000
0030
,
0010
0100
1001
0000
,
0100
0010
1001
0000
,
0010
1000
1100
0000
,
0010
0001
0101
0000
,
0001
1000
1001
0000
,
0100
0010
0110
0000
,
0010
0001
0011
0000
,
0001
1000
1001
0000
,
0010
1000
0100
0100
,
0010
0001
1000
0000
,
0010
0100
0001
0001
,
0010
0001
1000
0000
,
0010
1000
0100
0100
,
0010
0001
1000
0000
,
0010
0100
0001
0001
,
1000
0000
0000
0000
,
0001
0000
0000
0000
,
0100
0000
0000
0000
,
0010
0000
0000
0000
,
1000
0000
0000
0000
,
0001
0000
1000
0000
,
0010
0000
0100
0000
,
0001
0000
1000
0000
,
1001
0000
0000
0000
,
0110
0000
0100
0000
,
0100
0000
0000
0000
,
1000
0000
1000
0000
,
0001
0000
0000
0000
,
0001
0000
0100
0000
,
0010
0000
1000
0000
,
0100
0000
0010
0000
,
0002
0000
0003
0000
,
1001
0000
0000
0000
,
0010
0000
0010
0000
,
0100
0000
0001
0000
,
0010
0000
0010
0000
,
0100
0000
0000
0000
,
1000
0000
1000
0000
,
0001
0000
0100
0000
,
0010
0000
1000
0000
,
2002
0000
3003
0000
,
0200
0000
0300
0000
,
0020
0000
0030
0000
,
0002
0000
0003
0000
,
0200
0000
0000
0000
,
0000
0000
0000
0000
,
0320
0000
0000
0000
,
0000
0000
0000
0000
,
0030
0000
0000
0000
;

//---------------dance-single - ----------------
#NOTES:
     dance-single:
     :
     Medium:
     7:
     0.492037,0.607536,0.378091,0.145021,0.054383,665.000000,592.000000,73.000000,28.000000,0.000000,0.000000,0.492037,0.607536,0.378091,0.145021,0.054383,665.000000,592.000000,73.000000,28.000000,0.000000,0.000000:
0000
0000
0000
0000
,
1001
0000
1001
0000
,
1000
0100
1000
0000
0001
0000
0100
0010
,
0100
0000
0001
0000
1000
0000
0001
0010
,
0001
0000
0100
0000
0010
1000
0000
0001
,
0100
0001
0000
1000
0100
0000
0110
0000
,
0000
0000
0001
1000
0001
0000
0000
0010
,
0000
0010
0000
0010
0100
0000
1000
0001
,
1001
1001
0110
0110
,
2002
0000
0000
3003
,
1000
0010
0100
0001
,
1000
0100
0010
0011
,
1001
0010
1000
0001
,
1010
0100
0110
1001
,
0010
1000
0010
0000
0100
0000
0100
0000
,
0001
0010
0001
0000
0100
0000
0100
0000
,
1100
0101
1010
0011
,
0120
0000
0100
0030
,
1000
0000
0100
0000
0010
0001
0010
0000
,
0100
0000
1000
0000
0010
1000
0010
0000
,
1001
0110
0100
0001
,
1000
0000
0100
0000
0010
0100
0010
0000
,
0001
0000
1000
0000
0010
1000
0001
0000
,
0100
0000
0001
0000
1000
0100
1000
0000
,
1001
0110
0100
1000
,
0002
0000
0000
0000
2000
0000
0000
3003
,
0010
1000
0001
0100
,
0010
0000
1000
0100
0000
1000
0100
0000
,
0010
0001
1000
0010
,
0100
0000
0001
0010
0001
0000
0010
0000
,
0100
1000
0010
1000
,
0001
0000
0100
0001
0000
0100
0001
0000
,
1000
0010
0100
0001
,
0020
0000
0200
0330
,
1000
0100
0010
0100
1000
0100
0010
0001
,
1000
0000
0000
0010
0000
0000
0100
0000
0000
0001
0000
1000
0000
0000
1000
0000
,
0001
0010
0100
0010
0001
0010
0100
1000
,
0001
0000
0000
0100
0000
0000
0001
0000
1000
0000
0000
0100
0000
0000
1000
0000
,
0001
0100
0010
0100
0001
0100
0010
1000
,
0001
0000
0000
0100
0000
0000
0010
0000
0000
1000
0000
0001
0000
0000
0001
0000
,
1000
0010
0100
0010
1000
0100
0010
0001
,
1000
0000
0000
0001
0000
0000
0100
0000
0220
0000
0000
0000
0330
0000
0000
0000
,
1000
0010
0100
0010
1000
0010
0100
0010
,
1000
0100
0010
0100
1000
0100
0010
0100
,
1000
0001
0100
0001
1000
0001
0100
0001
,
1000
0100
0010
0001
0100
0010
1000
0000
,
0001
0100
0010
0100
0001
0100
0010
0100
,
0001
0010
0100
0010
0001
0010
0100
0010
,
0001
1000
0100
1000
0001
0100
0010
0100
,
0002
0000
0000
1003
,
0100
1000
0100
0010
,
0100
0000
1000
0001
0000
1000
0010
0000
,
0100
0001
0100
0010
,
1000
0001
0000
0010
0000
0100
1000
0000
,
0100
0010
0001
1000
,
0010
0000
0100
0001
0000
1000
0100
0000
,
0010
0100
1000
0010
,
0100
0001
0000
1000
0000
0100
1000
0000
,
0010
0100
0010
1000
,
0001
0000
0010
0001
0000
1000
0000
0010
,
0100
0001
0100
0010
,
1000
0100
0000
1000
0000
0001
0100
0000
,
0010
0100
0001
0010
,
0100
0000
1000
0010
0000
1000
0000
0001
,
0010
0100
1000
0100
,
0010
0001
0000
1000
0000
0000
0000
0000
,
0100
0010
0110
1001
,
0001
0100
0000
0010
0000
1000
0100
0000
,
0010
0001
1100
1100
,
1000
0001
0000
0100
0000
0010
1000
0000
,
0010
0100
1001
0110
,
0010
0001
0000
1000
0000
0010
0100
0000
,
0001
1000
1001
0110
,
0010
0000
0000
0000
0100
1000
0001
0000
,
0110
0000
0110
0000
0100
1000
0100
2000
,
0000
0100
3200
0000
0310
0000
0011
0000
,
0101
0000
0101
0000
0100
0010
0100
0020
,
0000
1000
2030
0000
3001
0000
0011
0000
,
1001
0000
1001
0000
1000
0100
1000
2000
,
0000
0001
3002
0000
0013
0000
0110
0000
,
1100
0000
1100
0000
0100
1000
0100
2000
,
0000
0010
3020
0000
0130
0000
0110
0000
,
0002
0000
0100
0000
0000
0010
0003
0000
,
2000
0000
0100
0000
0000
0010
3000
0000
,
0200
0000
0001
0000
0000
1000
0300
0000
,
0020
1000
0100
0031
,
0010
0000
0001
0000
0000
0100
0000
0000
0010
0000
0000
1000
0000
0000
0001
0000
,
0000
0000
1000
0000
0000
0010
0000
0000
0100
0000
0000
0001
0000
0000
1000
0000
,
0000
0000
0100
0000
0000
0010
0000
0000
0001
0000
0000
0010
0000
0000
0100
0000
,
0000
0000
1000
0000
0000
0001
0000
0000
0100
0000
0000
0010
0000
0000
1000
0000
,
0010
0000
0100
0000
0101
0000
0001
1000
,
0100
0000
0010
0000
0011
0000
0100
1000
,
0010
0000
0100
0000
1001
0000
0001
0100
,
0010
0000
1000
0000
1100
0000
1000
0001
,
0010
0000
0100
0000
1100
0000
1000
0001
,
0100
0000
0010
0000
0110
0000
0100
0001
,
1000
0000
0100
0000
0011
0000
0100
1000
,
0010
0100
1001
0000
,
0010
0100
0010
0000
0110
0000
0000
0000
,
0001
1000
0001
0000
1001
0000
0000
0000
,
0001
0010
0001
0000
0011
0000
0000
0000
,
0100
1000
0100
0000
1100
0000
0000
0000
,
1000
0010
1000
0000
1010
0000
0101
0000
,
0001
1000
0001
0000
0110
0000
1001
0000
,
0001
0010
0100
0000
1100
0000
1001
0000
,
0010
0100
0000
0001
0000
1000
0100
0000
,
1000
0000
0000
0000
0100
0000
0000
0000
1000
0000
0000
0100
0000
0000
0000
0000
,
0010
0000
0000
0000
0001
0000
0000
0000
0010
0000
0000
0001
0000
0000
0000
0000
,
0100
0000
0000
0000
0010
0000
0000
0000
0100
0000
0000
0010
0000
0000
0000
0000
,
1000
0000
0000
0000
0001
0000
0000
0000
1000
0000
0000
0001
0000
0000
0000
0000
,
0010
0001
1000
0010
,
0100
0001
0010
0100
,
1100
0000
0011
0000
,
1001
0000
0000
0110
,
0010
0100
0001
1000
,
0100
0010
0000
0010
,
0100
1000
0010
0100
,
0001
0001
0001
0000
,
0010
0001
1000
0010
,
0100
0001
0010
0100
,
1000
1000
0001
0001
,
1001
0000
0110
0000
,
0010
0100
1000
0001
,
0100
0100
0000
0010
,
0100
0001
0010
0100
,
1000
1000
1000
0000
,
1001
0000
0010
0100
,
0001
1000
0100
0010
,
0001
0001
1000
1000
,
1001
1001
0110
0110
,
1002
0000
0000
0000
,
0203
0000
0000
0000
,
0320
0000
0000
0000
,
2030
0000
0000
0000
,
3200
0000
0000
0000
,
0000
0000
0000
0000
,
0320
0000
0000
0000
,
0000
0000
0000
0000
,
0030
0000
0000
0000
;

//---------------dance-single - ----------------
#NOTES:
     dance-single:
     :
     Hard:
     9:
     0.640758,0.750486,0.564547,0.274505,0.137252,866.000000,757.000000,109.000000,53.000000,0.000000,0.000000,0.640758,0.750486,0.564547,0.274505,0.137252,866.000000,757.000000,109.000000,53.000000,0.000000,0.000000:
0000
0000
0000
0000
,
1001
0000
1001
0000
,
0010
1000
0100
0000
0010
0001
1000
0010
,
0100
0100
0010
0010
1000
0000
0001
0001
,
0001
1000
0100
0000
0010
0001
0000
1000
,
0010
1000
0000
0001
0100
0000
0110
0000
,
0000
0000
1000
0001
1001
0000
0000
1010
,
0000
0101
0000
0001
0010
0100
1000
0000
,
0001
0100
1000
0100
0001
0010
1000
0010
,
0002
0000
2000
3003
,
0010
0001
1000
0100
,
0001
0010
0100
1100
,
1010
0010
1000
0100
,
0110
0010
0011
1010
,
0001
1000
0010
0000
1000
0001
0010
0000
,
0001
0100
0010
0000
1000
0100
0010
0000
,
0001
0010
0100
1000
0010
0100
0001
1000
,
1010
0101
0110
1001
,
1000
0100
0010
0001
0100
0001
0100
0010
,
1000
0100
0010
0100
1000
0001
0100
0000
,
1100
0000
0101
0000
0010
0001
1000
0010
,
0100
0000
0001
0100
1000
0100
0001
0000
,
0001
0100
0010
1000
0100
1000
0100
0010
,
0001
0100
0010
0100
0001
1000
0010
0000
,
0011
0000
1010
0000
1000
0010
0001
0010
,
2000
0000
0002
3003
,
0001
0100
0010
0100
0001
1000
0010
1000
,
0100
1000
0001
0010
0100
1000
0001
0000
,
1000
0010
1000
0100
1000
0010
1000
0000
,
0001
0100
0001
0010
0001
0100
0001
0000
,
0100
0010
1000
0001
1000
0100
0010
0001
,
0100
0010
0100
0001
1000
0100
0010
0000
,
0011
1000
1010
1001
,
0220
0000
0000
0330
,
0001
0010
0000
0000
0110
0000
0000
0000
1000
0000
0010
0000
1000
0000
0100
0000
,
0010
0001
0100
0010
1000
0100
0110
0000
,
0100
1000
0100
1000
0001
0100
0001
0100
,
1000
0100
0001
1000
0100
0010
1001
0000
,
0001
0010
0000
0000
1100
0000
0000
0000
0100
0000
0001
0000
0100
0000
1000
0000
,
0001
0010
1000
0010
0001
1000
1001
0000
,
1000
0100
1000
0100
0010
0001
1000
0100
,
0010
0000
0000
0001
0000
0000
1000
0000
0100
0000
0000
0001
0000
0100
0000
1000
,
0001
1000
0000
0000
1001
0000
0000
0001
0000
1000
0000
0100
0000
0000
1000
0000
,
0001
0000
0000
0010
0000
0000
0100
0000
0000
0010
0000
0001
0000
0000
0100
0000
,
0010
0000
1000
0000
0100
0000
1000
0010
0000
1000
0000
0100
0000
0010
0001
0000
,
1000
0000
0000
0100
0000
0000
0010
0000
0001
0000
0000
0100
0000
0000
0010
0000
,
1000
0001
0000
0000
1001
0000
0000
1000
0000
0001
0000
0100
0000
0000
0001
0000
,
1000
0000
0000
0010
0000
0000
0100
0000
0000
0001
0000
1000
0000
0000
0100
0000
,
1000
0000
0100
0000
0010
0000
0001
1000
0000
0100
0000
0010
0000
0001
1000
0000
,
0002
0000
0000
1003
0001
1000
0001
0000
,
0101
0101
1010
1010
,
0010
1000
0100
1000
0000
0001
0010
0100
,
1100
1100
0011
0011
,
0001
1000
0010
0100
0000
0010
1000
0001
,
0011
0011
0110
0110
,
0100
1000
0001
1000
0000
0010
0100
0001
,
0101
0101
0110
0110
,
0010
0100
0001
1000
0000
0100
0010
0100
,
1100
1100
0011
0011
,
0001
1000
0010
0100
0000
0010
1000
0001
,
0011
0011
1100
1100
,
1000
0100
0010
0001
0000
0100
0010
1000
,
1010
1010
0101
0101
,
0001
1000
0100
0010
0000
0100
1000
0010
,
1010
1010
0101
0101
,
0001
1000
0001
2000
0000
0000
3000
0000
,
0002
2003
3020
2030
,
3001
0100
1000
0200
0000
0310
1000
0001
,
0020
0230
2300
3002
,
0013
1000
0010
0002
0000
0103
0010
1000
,
0200
0320
0032
2003
,
3010
1000
0100
2000
0000
3001
0100
0010
,
0200
0302
0023
0130
,
2002
3003
1100
0101
,
0012
0000
1003
0000
1000
0100
1000
0010
,
0100
0001
2000
0000
3001
0000
0011
0000
,
2100
0000
3001
0000
0001
0010
0001
0100
,
0010
1000
0002
0000
0013
0000
0110
0000
,
0012
0000
0103
0000
0010
1000
0100
0001
,
0100
1000
0020
0000
1030
0000
1001
0000
,
0210
0000
0301
0000
0100
0001
0010
1000
,
0010
0001
2000
0000
3010
0000
1100
0000
,
0020
0000
0031
0100
0000
1000
0000
0100
,
0001
1000
0000
0100
0000
0001
0000
0100
,
1000
0001
0000
0100
0000
1000
0000
0100
,
0001
1000
0000
0100
0002
0000
0203
0000
,
1300
0000
0001
0000
0100
0010
0000
0100
0010
0000
0010
1000
0000
1000
0100
0000
,
1000
0000
0010
0000
0100
0001
0000
0100
0010
0000
0010
0100
0000
0100
0001
0000
,
0010
0000
0100
0000
0010
0001
0000
0100
0001
0000
0001
0010
0000
0010
0100
0000
,
0010
0000
0001
0000
0100
0010
0000
0100
0002
0000
0003
2000
0000
0000
3001
0000
,
0001
0100
1000
0000
1100
0000
0000
1000
,
0100
0001
0010
0000
0110
0000
0100
1000
,
0010
0100
0001
0000
1001
0000
0000
0001
,
0010
0100
1000
0000
1001
0000
0000
0001
,
0010
1000
0010
0000
0110
0000
0000
0100
,
1000
0001
0100
0000
0110
0000
0010
1000
,
0100
0001
0100
0000
0110
0000
0000
0010
,
0001
1000
0010
0000
0110
0000
0000
0000
,
0010
0100
0001
0000
1000
0100
0010
0001
,
1000
0010
0100
0000
0010
1000
0100
0010
,
0001
1000
0010
0000
0100
0001
0010
0100
,
1000
0100
0010
0000
0110
0000
0010
0001
,
1000
0010
0100
0000
0001
0100
0010
1000
,
0001
0010
0100
0000
0010
0001
1000
0010
,
0100
0001
1000
0000
0001
0010
0100
1000
,
0001
0100
0010
1000
,
0001
0000
0100
0000
0001
0000
0100
0000
0001
0000
0000
0100
0000
0000
0001
0000
,
0100
0000
0010
0000
0100
0000
0010
0000
0100
0000
0000
0010
0000
0000
0100
0000
,
0010
0000
1000
0000
0010
0000
1000
0000
0010
0000
0000
1000
0000
0000
0010
0000
,
1000
0000
0001
0000
1000
0000
0001
0000
1000
0000
0000
0001
0000
0000
1000
0000
,
0001
0010
0100
1000
,
0010
0100
0001
1000
,
1001
1100
1001
0011
,
2002
0000
3003
0110
,
0010
0100
1100
0011
,
0100
1100
1000
0010
,
1010
0000
0101
0000
1001
0000
0001
0010
,
0100
1000
1001
0110
,
0010
0100
0101
1010
,
0010
1000
1001
0110
,
0011
0000
0001
1000
0010
0000
0100
0000
,
0001
0000
0000
1000
0000
0000
0100
0000
1000
0000
0000
0001
0000
0000
0100
0000
,
0010
1000
1100
0011
,
1100
1001
0010
0101
,
1010
0000
0010
0100
0000
1001
0000
0110
,
0000
0010
0001
1000
0010
0000
0100
0000
,
0001
0100
0010
0100
0001
1000
0100
1000
,
0010
1000
0001
0010
0100
0010
0001
1000
,
0010
1000
0001
1000
0010
0100
0001
0010
,
0100
0000
0000
1000
0000
0000
0100
0000
0010
0000
0000
0001
0000
0000
0010
0000
,
0200
0000
0000
1300
,
0002
0000
0000
0203
0000
0000
0320
0000
,
2030
0000
0000
0000
,
0000
0000
3002
0000
0203
0000
0310
2000
,
0000
0001
0002
0000
,
0000
0000
0000
3000
,
0200
0000
0000
0000
,
0000
0000
0000
0000
,
0303
0000
0000
0000
;

//---------------dance-double - ----------------
#NOTES:
     dance-double:
     :
     Hard:
     9:
     0.618560,0.750486,0.398809,0.212353,0.121714,836.000000,759.000000,77.000000,41.000000,0.000000,0.000000,0.618560,0.750486,0.398809,0.212353,0.121714,836.000000,759.000000,77.000000,41.000000,0.000000,0.000000:
// measure 0
00000000
00000000
00000000
00000000
,  // measure 1
00011000
00000000
00011000
00000000
,  // measure 2
00000010
00001000
00000001
00000000
00000010
00000001
00001000
00000010
,  // measure 3
00010000
00001000
01000000
00001000
00010000
00000000
00011000
00000000
,  // measure 4
00100000
00010000
01000000
00100000
10000000
00010000
00000000
01000000
,  // measure 5
00100000
01000000
00000000
00001000
00010000
00000000
00011000
00000000
,  // measure 6
00000000
00000000
00001010
00000000
00000011
00000000
00000000
00001001
,  // measure 7
00000000
00000011
00000000
00000100
00001000
00000000
00000010
00000000
,  // measure 8
00010000
00001000
00100000
00010000
10000000
00100000
01000000
00010000
,  // measure 9
00200000
00000000
00002000
00303000
,  // measure 10
00010000
00010000
00000100
00000100
,  // measure 11
00001000
00000001
00000010
00000100
,  // measure 12
00010100
00011000
00001000
01000000
,  // measure 13
01100000
00100000
10100000
10010000
,  // measure 14
00010000
10000000
00100000
00000000
01000000
00001000
00010000
00000000
,  // measure 15
00001000
00010000
00000010
00000000
00001000
00000001
00000100
00000000
,  // measure 16
00000001
00000010
00001000
00010000
00100000
10000000
00010000
00000000
,  // measure 17
10100000
01010000
10010000
00000000
,  // measure 18
10000000
00100000
01000000
00010000
00000000
00100000
00001000
00010000
,  // measure 19
00000010
00000000
00010000
00001000
00000000
00000100
00000001
00000000
,  // measure 20
00000011
00000000
00001100
00000000
00000010
00000100
00010000
00000100
,  // measure 21
00000010
00000000
00000001
00000100
00000000
00000010
00001000
00000000
,  // measure 22
00000001
00000010
00000100
00001000
00000000
00000010
00010000
00001000
,  // measure 23
00100000
00000000
00001000
00010000
00000000
01000000
10000000
00000000
,  // measure 24
10100000
00000000
01010000
00000000
00100000
00100000
01000000
01000000
,  // measure 25
01100000
00000000
10010000
00000000
,  // measure 26
00010000
01000000
00001000
00100000
01000000
10000000
01000000
00010000
,  // measure 27
00001000
00010000
00000010
00010000
00001000
00000100
00000001
00000000
,  // measure 28
00001000
00000010
00001000
00000001
00000100
00000010
00010000
00001000
,  // measure 29
00100000
00010000
10000000
01000000
00010000
01000000
10000000
00000000
,  // measure 30
00010000
10000000
00100000
10000000
00010000
01000000
00001000
00010000
,  // measure 31
00000100
00000010
00000001
00000100
00000010
00001000
00000001
00000000
,  // measure 32
00001010
00000000
00000101
00010010
,  // measure 33
00022000
00000000
00033000
00000000
,  // measure 34
00010000
10000000
00000000
00000000
01100000
00000000
00000000
00000000
10000000
00000000
01000000
00000000
00100000
00000000
00010000
00000000
,  // measure 35
10000000
00000000
00000000
01000000
00000000
00000000
00010000
00000000
00001000
00000000
00000000
00000100
00000000
00000000
00000001
00000000
,  // measure 36
00001000
00000100
00010000
00001000
00000010
00000001
00001000
00000001
,  // measure 37
00000100
00000000
00000000
00000001
00000000
00000000
00000010
00000000
00001000
00000000
00000000
00010000
00000000
00000000
00100000
00000000
,  // measure 38
10000000
00010000
00000000
00000000
01000000
00100000
00000000
00000000
10000000
00000000
00010000
00000000
00100000
00000000
00010000
00000000
,  // measure 39
01000000
00000000
00000000
00001000
00000000
00000000
00010000
00000000
00000010
00000000
00000000
00001000
00000000
00000000
00000001
00000000
,  // measure 40
00000010
00000000
00001000
00000000
00010000
00000000
00000100
00000010
00000000
00000000
00000001
00000000
00000100
00000000
00001000
00000000
,  // measure 41
00010000
00000000
00000000
01000000
00000000
00000000
00100000
00000000
00010000
00000000
00000000
10000000
00000000
01000000
00000000
00100000
,  // measure 42
00001000
00100000
00000000
00000000
00001000
00010000
00000000
00000100
00000000
00000010
00000000
00000100
00000000
00000000
00001000
00000000
,  // measure 43
00000001
00000000
00000000
00000010
00000000
00000000
00000100
00000000
00000000
00010000
00000000
00001000
00000000
00000000
00100000
00000000
,  // measure 44
00010000
00000000
10000000
00000000
01000000
00000000
00100000
00010000
00000000
10000000
00000000
00100000
00000000
01000000
00001000
00000000
,  // measure 45
00010000
00000000
00000000
00000100
00000000
00000000
00001000
00000000
00000001
00000000
00000000
00000010
00000000
00000000
00001000
00000000
,  // measure 46
00010000
00000010
00000000
00000000
00010000
00001000
00000000
01000000
00000000
00100000
00000000
01000000
00000000
00000000
00010000
00000000
,  // measure 47
10000000
00000000
00000000
00100000
00000000
00000000
01000000
00000000
00000000
00001000
00000000
00010000
00000000
00000000
00000010
00000000
,  // measure 48
00001000
00000000
00000001
00000000
00000100
00000000
00000010
00001000
00000000
00000001
00000000
00000010
00000000
00000100
00010000
00000000
,  // measure 49
00002000
00000000
00000000
01003000
00100000
10000000
02000000
00000000
,  // measure 50
13000000
11000000
00010000
00110000
,  // measure 51
00100000
10000000
00100000
01000000
00000000
01000000
00100000
00010000
,  // measure 52
01000000
01010000
00001000
00011000
,  // measure 53
00010000
00100000
00010000
00001000
00000000
00001000
00000100
00000001
,  // measure 54
00000100
00000101
00000010
00000011
,  // measure 55
00000010
00000001
00000100
00000010
00000000
00000010
00001000
00000100
,  // measure 56
00001000
00001100
00010000
00011000
,  // measure 57
00001000
00100000
01000000
00010000
00000000
00010000
01000000
10000000
,  // measure 58
11000000
11000000
01100000
01100000
,  // measure 59
00100000
00001000
00010000
00001000
00000000
00001000
00010000
00000100
,  // measure 60
00001100
00001100
00000011
00000011
,  // measure 61
00000001
00000010
00000100
00000010
00000000
00000010
00000001
00000100
,  // measure 62
00000110
00001010
00011000
00101000
,  // measure 63
00010000
00100000
01000000
10000000
00000000
10000000
00100000
01000000
,  // measure 64
01010000
00011000
00001010
00000011
,  // measure 65
00000100
00020000
00000000
00002000
00000000
00000000
00033000
00000000
,  // measure 66
02000000
03020000
00230000
00302000
,  // measure 67
00013000
00100000
10000000
01000000
00000000
01000000
10000000
00010000
,  // measure 68
02000000
03020000
00032000
00003020
,  // measure 69
00001030
00000001
00000010
00000100
00000000
00000100
00000010
00000001
,  // measure 70
00000200
00000320
00002030
00003200
,  // measure 71
00010300
00100000
00010000
00001000
00000000
00001000
00100000
00010000
,  // measure 72
02000000
03020000
00230000
20300000
,  // measure 73
30200000
00000000
00300000
00000000
,  // measure 74
00001000
00000100
00000001
00001000
00010000
00000100
00001000
00010000
,  // measure 75
00100000
10000000
00020000
00000000
10030000
00000000
01000000
00000000
,  // measure 76
00010000
01000000
10000000
00010000
00001000
01000000
00010000
00001000
,  // measure 77
00000100
00000001
00002000
00000000
00003010
00000000
00000100
00000000
,  // measure 78
00000001
00000010
00001000
00010000
00000100
00000001
00000100
00001000
,  // measure 79
00000010
00010000
00100000
01000000
00020000
00000000
20030000
00000000
,  // measure 80
30100000
10000000
01000000
00010000
00001000
00100000
00010000
00001000
,  // measure 81
00000001
00000100
00001000
00010000
00000100
00000000
00000110
00000000
,  // measure 82
00000001
00000000
00001000
00000000
00000000
00000000
00001000
00000000
00000100
00000000
00000000
00010000
00000000
00000000
00001000
00000000
,  // measure 83
00010000
01000000
10000000
00100000
,  // measure 84
00010000
00010000
00001000
00000000
00000000
00000000
00011000
00000000
,  // measure 85
00001000
00000000
00000100
00000000
00000001
00000010
00010000
00000000
,  // measure 86
00001000
01000000
01000000
00000000
10000000
00000000
00010000
00000000
,  // measure 87
10000000
00100000
00001000
00000000
00010000
00000100
00000010
00000000
,  // measure 88
00000100
00000000
00000001
00000000
00001001
00000000
00000000
00000000
00000100
00000000
00010000
00001000
00010000
00000000
00000000
00000000
,  // measure 89
00011000
00000000
01001000
00000000
00000000
01000000
10010000
00000000
,  // measure 90
10000000
01000000
00010000
00000000
00011000
00000000
00000000
00001000
,  // measure 91
00000100
00000001
00000010
00000000
00000110
00000000
00000100
00001000
,  // measure 92
00000010
00010000
00001000
00000000
00011000
00000000
00000000
00010000
,  // measure 93
01000000
10000000
00100000
00000000
01100000
00000000
00000000
00010000
,  // measure 94
10000000
00100000
00010000
00000000
00011000
00000000
00000000
00001000
,  // measure 95
00000010
00000001
00000100
00000000
00000110
00000000
00000010
00001000
,  // measure 96
00000100
00010000
00001000
00000000
00011000
00000000
00000000
00010000
,  // measure 97
00100000
10000000
01000000
00000000
01100000
00000000
00000000
00010000
,  // measure 98
10000000
01000000
00010000
00001000
00000100
00000000
00000000
00000001
,  // measure 99
00001000
00000001
00000010
00000100
00010000
00000000
00001000
01000000
,  // measure 100
00100000
01000000
00001000
00100000
01000000
00000000
10000000
00100000
,  // measure 101
00010000
00001000
00000010
00000000
00001001
00000000
00000000
00001000
,  // measure 102
00000001
00000100
00001000
00010000
01000000
00000000
00000000
10000000
,  // measure 103
00010000
10000000
00100000
01000000
00001000
00000000
00010000
00000100
,  // measure 104
00000010
00000100
00010000
00000010
00000100
00000000
00000001
00000010
,  // measure 105
00001000
00010000
00100000
00000000
10010000
00000000
00000000
00000000
,  // measure 106
10000000
00100000
00010000
00001000
00000100
00000001
00000000
00001000
,  // measure 107
00000001
00000010
00001000
00010000
01000000
10000000
00000000
00010000
,  // measure 108
10000000
00100000
00010000
00001000
00000100
00000001
00000000
00001000
,  // measure 109
00000001
00000010
00001000
00010000
01000000
10000000
00000000
00010000
,  // measure 110
10000000
00100000
00000000
00100000
00010000
00001000
00000000
00001000
,  // measure 111
00000010
00000001
00000000
00000001
00000100
00000010
00000000
00000010
,  // measure 112
00010000
00001000
00100000
00010000
01000000
00100000
10000000
01000000
,  // measure 113
02200000
00000000
03300000
10010000
,  // measure 114
20000000
32000000
03020000
00032000
,  // measure 115
00000000
00003010
00000000
00000100
,  // measure 116
00000100
00000010
00000001
00000000
00000001
00000100
00001000
00000000
,  // measure 117
00001000
00010000
01000000
00000000
01000000
10000000
00100000
00010000
,  // measure 118
00011000
00000000
00100000
00000000
10000000
10000000
10000000
00000000
,  // measure 119
01000000
00000000
00010000
00000000
00001000
00001000
00001000
00000000
,  // measure 120
00000010
00000001
00001000
00000000
00000010
00010000
00001000
00100000
,  // measure 121
00010000
00000000
00000000
00010000
00000000
00000000
00010000
00000000
10000000
00000000
00000000
10000000
00000000
00000000
10000000
00000000
,  // measure 122
01000000
00010000
00001000
00000100
00000001
00000010
00000001
00001000
,  // measure 123
00000100
00010000
00001000
00000010
00000001
00001000
00000100
00010000
,  // measure 124
00001000
00010000
00100000
10000000
00010000
10000000
01000000
00010000
,  // measure 125
00001000
00100000
00010000
00000000
10000000
00000000
01000000
00010000
,  // measure 126
00011000
00000000
00000010
00000000
00000001
00000100
00000010
00000100
,  // measure 127
00000001
00001000
00000100
00010000
00001000
00100000
00010000
01000000
,  // measure 128
10000000
00010000
00100000
10000000
01000000
00010000
00001000
00000010
,  // measure 129
00000011
00000000
00000000
00000011
00000000
00000000
00001001
00000000
00001100
00000000
00000000
00001100
00000000
00000000
00000110
00000000
,  // measure 130
00000002
00000000
00000000
00001000
,  // measure 131
00000203
00000000
00000000
00000010
00000000
00000000
00002300
00000000
,  // measure 132
00020000
00000000
00000000
00000000
,  // measure 133
00033000
00000000
00000000
00000000
00100000
00000000
00000000
00000000
10000000
00000000
00000000
00010000
00000000
00000000
01000000
00000000
,  // measure 134
00100000
00000000
00010000
00002000
00000000
00000000
00000000
00000000
,  // measure 135
00000000
00000000
00000000
00000000
,  // measure 136
00020000
00000000
00000000
00000000
,  // measure 137
00000000
00000000
00000000
00000000
,  // measure 138
00033000
00000000
00000000
00000000
;

//---------------dance-double - ----------------
#NOTES:
     dance-double:
     :
     Medium:
     7:
     0.506095,0.571799,0.321119,0.196815,0.049204,684.000000,622.000000,62.000000,38.000000,0.000000,0.000000,0.506095,0.571799,0.321119,0.196815,0.049204,684.000000,622.000000,62.000000,38.000000,0.000000,0.000000:
00000000
00000000
00000000
00000000
,
00011000
00000000
00011000
00000000
,
01000000
00100000
01000000
00000000
00010000
00000000
10000000
00100000
,
10000000
00000000
00010000
00000000
01000000
00000000
00001000
00010000
,
00001000
00000000
00010000
00000000
00000010
00001000
00000000
00000001
,
00000100
00000010
00000000
00010000
00001000
00000000
00011000
00000000
,
00000000
00000000
01000000
00000000
01000000
00000000
00000000
00010000
,
00000000
00010000
00000000
00010000
10000000
00000000
01100000
00000000
,
00010000
00001000
00010000
00000000
00000100
00000010
00000100
00000000
,
00002002
00000000
00000000
00003003
,
00000001
00000010
00000001
00001000
,
00000010
00010000
00001000
01001000
,
01010000
10000000
00100000
01000000
,
01001000
00001000
00011000
00010010
,
00001000
00000000
00000001
00000100
00000001
00000000
00001000
00000000
,
00000100
00000000
00010000
00001000
00010000
00000000
00001000
00000000
,
00100000
00010000
00100000
00010000
10000000
00000000
01100000
00000000
,
00010000
00010000
00010000
00000000
,
10000000
00000000
01000000
00000000
00100000
00010000
00100000
00000000
,
00001000
00000000
00010000
00000000
00000100
00000010
00000100
00000000
,
00001000
00000000
00000001
00000000
00000010
00000100
00000010
00000100
,
00010000
00011000
01001000
01010000
,
10000000
00000000
00100000
00000000
01000000
00010000
01000000
00000000
,
00001000
00000000
00010000
00000000
00000010
00000100
00000010
00000000
,
00001000
00000000
00000001
00000000
00000100
00000010
00000100
00000010
,
00020000
00000000
00002000
00033000
,
00100000
00000000
00010000
01000000
00010000
00000000
10000000
00000000
,
01000000
00000000
00010000
00000000
00001000
00000000
00000100
00000001
,
00000100
00000001
00000010
00000100
,
00010000
00001000
00200000
00300000
,
00010000
00010000
10000000
10000000
,
00100000
00000000
01000000
00000000
00001000
00010000
00001000
00000000
,
00010000
00000100
00000010
00000001
,
00002002
00000000
00000000
00003003
,
00000010
00001000
00000001
00001000
00000010
00010000
00001000
00000000
,
00100000
00000000
00000000
00000000
00010000
00000000
10000000
00000000
00100000
00000000
00000000
10000000
00000000
00000000
01000000
00000000
,
00100000
00010000
10000000
00010000
00100000
00001000
00010000
00000000
,
00000010
00001001
00000100
00001001
,
00000100
00001000
00000001
00001000
00000100
00010000
00001000
00000000
,
01000000
00000000
00000000
00000000
00010000
00000000
10000000
00000000
01000000
00000000
00000000
10000000
00000000
00000000
00100000
00000000
,
01000000
00010000
10000000
00010000
01000000
00001000
00010000
00000000
,
00000100
00000000
00000000
00000000
00001001
00000000
00000000
00000000
00000010
00000000
00000000
00000001
00000000
00000000
00001000
00000000
,
00000100
00000010
00000100
00001000
00000100
00000010
00000100
00010000
,
00001000
00000000
00000000
00100000
00000000
00000000
01000000
00000000
00000000
10000000
00000000
00010000
00000000
00000000
10000000
00000000
,
00010000
01000000
00100000
01000000
00010000
01000000
00100000
01000000
,
00001000
00000000
00000000
00010000
00000000
00000000
00000100
00000000
00000010
00000000
00000000
00000001
00000000
00000000
00001000
00000000
,
00000010
00000100
00000010
00001000
00000010
00000100
00000010
00010000
,
00001000
00000000
00000000
01000000
00000000
00000000
00100000
00000000
00000000
10000000
00000000
00010000
00000000
00000000
10000000
00000000
,
00010000
00100000
01000000
00100000
00010000
00100000
01000000
00100000
,
00002000
00000000
00003000
00000000
,
00110000
00100000
01000000
01000000
,
10000000
00000000
00100000
10000000
00000000
00010000
00100000
00000000
,
01000000
01000000
00100000
00100000
,
00001000
00010000
00000000
00010000
00000000
00000100
00001000
00000000
,
00000100
00000100
00000010
00000010
,
00000100
00000000
00001000
00000010
00000000
00001000
00000001
00000000
,
00000100
00000100
00000010
00000010
,
00001000
00000100
00000000
00000100
00000000
00010000
00001000
00100000
,
00010000
01010000
10000000
11000000
,
01000000
00000000
10000000
00100000
00000000
10000000
00010000
00000000
,
00100000
00110000
00001000
00011000
,
00010000
00000100
00000000
00000100
00000000
00000010
00000001
00000000
,
00000100
00000101
00000001
00001001
,
00001000
00000000
00000100
00010000
00000000
00001000
00100000
00000000
,
01000000
01000000
00100000
00100000
,
00001000
00020000
00000000
00002000
00000000
00000000
00033000
00000000
,
01000000
01000000
01100000
01100000
,
00100000
00000000
01000000
00010000
00000000
00100000
00001000
00000000
,
00000100
00000100
00000110
00000110
,
00000010
00000000
00001000
00000100
00000000
00100000
00010000
00100000
,
01000000
01000000
11000000
11000000
,
10000000
00000000
00100000
01000000
00000000
00010000
00100000
00000000
,
00001000
00001000
00011000
00011000
,
00020000
00000000
00030000
00000000
,
11000000
00000000
01010000
00000000
10000000
00100000
10000000
00010000
,
00000000
01000000
00001000
00000000
00010000
00000000
00010100
00000000
,
00000110
00000000
00001001
00000000
00000100
00000010
00001000
00000010
,
00000000
00010000
00001000
00000000
00100000
00000000
00110000
00000000
,
10010000
00000000
11000000
00000000
10000000
00100000
00010000
00001000
,
00000000
01000000
00010000
00000000
00100000
00000000
00011000
00000000
,
00001010
00000000
00000101
00000000
00000001
00000010
00001000
00010000
,
00000000
00000100
00001000
00000000
00010100
00000000
00101000
00000000
,
00021000
00000000
00000000
02000000
00030000
00000000
13000000
00000000
,
00100000
00010000
00001000
00000100
,
00000001
00000020
00000000
00000000
00001030
00000000
00010000
00000000
,
00022000
00033000
01000000
01000000
,
00010000
00000000
10000000
00000000
00000000
01000000
00000000
00000000
00010000
00000000
00000000
00001000
00000000
00000000
00000100
00000000
,
00000001
00000010
00000100
00001000
00000001
00000000
00001001
00000000
,
00001000
00000000
00000001
00000000
00000000
00000100
00000000
00000000
00001000
00000000
00000000
00010000
00000000
00000000
01000000
00000000
,
01100000
20020000
00000000
30030000
,
10000000
00000000
01000000
00000000
11000000
00000000
10000000
00010000
,
01000000
00000000
00100000
00000000
00110000
00000000
00010000
00001000
,
00000010
00000000
00000001
00000000
00000101
00000000
00000100
00000010
,
00001000
00000000
00000100
00000000
00010100
00000000
00100000
00010000
,
01000000
00000000
00010000
00000000
10010000
00000000
10000000
00100000
,
01000000
00000000
00010000
00000000
00110000
00000000
00100000
00001000
,
00010000
00000000
00000010
00000000
00010010
00000000
00010000
00001000
,
00000100
00000000
00000001
00000000
00001001
00000000
00000000
00001000
,
00000001
00000001
00000100
00000000
00001000
00000000
00000000
00010000
,
01000000
01000000
10000000
00000000
00100000
00000000
10000000
00010000
,
10000000
10000000
01000000
00000000
00010000
00000000
00000000
00001000
,
00000100
00000100
00000001
00000000
00000010
00000000
00000000
00000001
,
00001000
00001000
00000100
00000000
00010000
00000000
00000000
00001000
,
00100000
00100000
00010000
00000000
01000000
00000000
00100000
10000000
,
00010000
00010000
01000000
00000000
00001000
00000000
00010000
00000000
,
00000020
00000000
00000000
00000030
,
00000100
00000001
00000100
00000001
00000100
00000001
00000000
00001000
,
00000100
00010000
00000100
00010000
00000100
00010000
00000000
00001000
,
00100000
00010000
00100000
00010000
00100000
00010000
00000000
10000000
,
01000000
00100000
01000000
00100000
01000000
00100000
00000000
00010000
,
10000000
00100000
01000000
00010000
,
00001000
00000010
00000100
00000001
,
00000010
00000100
00000010
00000100
00010000
00001000
00010000
00001000
,
00200000
00000000
00300000
10010000
,
20000000
32000000
03200000
00320000
,
00000000
02030000
00000000
03001000
,
00010000
00000000
00000010
00000000
00000100
00000000
00000001
00001000
,
00000001
00000000
00000100
00000000
00001000
00000000
00000100
00000010
,
00020000
00000010
00001000
01000000
,
00032000
00100000
00010000
00000100
,
00023000
00000000
00000000
01000000
01030000
00000000
10000000
00010000
,
00100000
00000000
00000000
00100000
00000000
00000000
00100000
00000000
01000000
00000000
00000000
01000000
00000000
00000000
01000000
00000000
,
20000000
30200000
02300000
03020000
,
00000000
00230000
00000000
00301000
,
00010000
00000000
00000100
00000010
00000000
00000001
00000000
00001000
,
00000001
00000000
00000010
00000000
00001000
00000000
00000010
00000100
,
00010000
00010000
00001000
00001000
,
00100000
01000000
00100000
01000000
10000000
00010000
10000000
00010000
,
01000000
01001000
00001000
00011000
,
00000010
00000000
00000000
00000010
00000000
00000000
00000010
00000000
00000100
00000000
00000000
00000100
00000000
00000000
00000100
00000000
,
00002000
00000000
00000000
00000000
,
00003002
00000000
00000000
00000000
,
00000203
00000000
00000000
00000000
,
00000300
00000000
00001000
01000000
,
00020000
00000000
00000000
00000000
,
00000000
00000000
00000000
00000000
,
20000000
00000000
00000000
00000000
,
00000000
00000000
00000000
00000000
,
30030000
00000000
00000000
00000000
;

//---------------dance-double - ----------------
#NOTES:
     dance-double:
     :
     Easy:
     4:
     0.271545,0.321637,0.108766,0.176097,0.000000,367.000000,346.000000,21.000000,34.000000,0.000000,0.000000,0.271545,0.321637,0.108766,0.176097,0.000000,367.000000,346.000000,21.000000,34.000000,0.000000,0.000000:
00000000
00000000
00000000
00000000
,
00011000
00000000
00011000
00000000
,
00000010
00000001
00000010
00000000
,
00000100
00010000
00010000
00001000
,
00000000
00100000
00010000
10000000
,
00100000
00000000
01000000
00010000
,
00000000
00100000
00001000
00000000
,
00010000
00000000
00000010
00000000
,
00001000
00000100
00010000
00001000
,
02000000
00000000
00000000
03000000
,
00010000
00010000
01000000
00000000
,
00001000
00001000
00010000
00000000
,
00000100
00000100
00000010
00000000
,
00001001
00000000
00000010
00000010
,
00000001
00000000
00000101
00000000
,
00010010
00000000
00001000
00001000
,
00100000
00010000
10000000
00100000
,
02000000
00000000
00000000
03000000
,
01001000
00000000
00001000
00000000
,
00010000
00010000
00010000
00000000
,
00000010
00001000
00000001
00000000
,
00000010
00000010
00000010
00000000
,
00010100
00000000
00010000
00000000
,
00001000
00001000
00001000
00000000
,
00100000
00010000
10000000
01000000
,
00100000
00000000
10010000
00000000
,
00100000
00100000
10000000
10000000
,
00010000
00000000
00100000
00000000
,
00001000
00001000
00010000
00010000
,
00000100
00000000
00000010
00000000
,
00000001
00000001
00001000
00001000
,
00000100
00000000
00010000
00000000
,
00011000
00000000
01001000
00000000
,
20020000
00000000
30030000
00000000
,
00001000
00001000
00010000
00000010
,
00001000
00000001
00000010
00000100
,
00010000
00001000
00001000
00100000
,
00010000
10000000
01000000
00000000
,
00010000
00010000
00001000
00100000
,
00010000
10000000
00100000
01000000
,
00001000
00010000
00010000
00000010
,
00001000
00000001
00000200
00000000
,
00000310
00010000
00001000
00001000
,
00100000
00010000
10000000
01000000
,
00100000
00010000
01000000
00010000
,
00100000
00001000
00010000
00010000
,
00000010
00001000
00000001
00000100
,
00000010
00001000
00000100
00001000
,
00000020
00000000
00000200
00000330
,
00001000
00000000
00000000
00000000
,
00100000
00000000
00001000
00000000
,
00010000
00001000
00010000
00000100
,
00001000
00000000
00000100
00000000
,
00010000
00001000
00100000
00010000
,
00100000
00000000
01000000
00000000
,
10000000
00100000
01000000
00010000
,
10000000
00000000
01000000
00000000
,
00100000
00010000
02000000
03000000
,
00001000
00000000
00010000
00000000
,
00001000
00010000
00001000
00100000
,
00010000
00000000
00100000
00000000
,
00001000
00010000
00000010
00001000
,
00000010
00000000
00000100
00000000
,
00000010
00001000
00000100
00010000
,
00001000
00000000
00010000
00000000
,
00022000
00000000
00000000
00033000
00000000
00000000
00000000
00000000
,
01000000
01000000
00100000
00100000
,
10000000
00000000
01000000
00000000
,
00100000
00100000
00010000
00010000
,
01000000
00000000
00010000
00000000
,
00100000
00100000
00001000
00001000
,
00010000
00000000
00000100
00000000
,
00000010
00000010
00000001
00000001
,
00002000
00000000
00003000
00000000
,
00000001
00000000
00000100
00001000
,
00010000
00000000
00011000
00000000
,
01000000
00000000
00010000
10000000
,
01000000
00000000
01100000
00000000
,
10000000
00000000
01000000
00010000
,
00001000
00000000
00011000
00000000
,
00000100
00000000
00001000
00000001
,
00000100
00000000
00000110
00000000
,
00000002
00000000
00000000
00000000
,
00002003
00000000
00000000
00000000
,
00023000
00000000
00000000
00000000
,
20030000
00000000
00000000
00000000
,
30020000
00000000
00230000
00000000
,
00302000
00000000
00023000
00000000
,
00030020
00000000
00002030
00000000
,
00003002
00000000
00000000
00000003
,
00000100
00000001
00000100
00000000
,
00000010
00001000
00000010
00000000
,
00010000
00000100
00010000
00000000
,
00001000
00100000
00001000
00000000
,
01000000
00010000
01000000
00000000
,
00100000
10000000
00100000
00000000
,
10000000
01000000
00100000
00010000
,
00100000
01000000
10000000
00000000
,
10000000
01000000
00010000
00000000
,
01000000
00100000
00001000
00000000
,
00010000
00000010
00001000
00000000
,
00000100
00000010
00000001
00000000
,
00000001
00000100
00001000
00000000
,
00000100
00000010
00010000
00000000
,
00001000
01000000
00100000
10000000
,
20020000
00000000
00000000
30030000
,
00010000
00010000
00010000
00000000
,
10000000
10000000
10000000
00000000
,
01000000
01000000
01000000
00000000
,
00010000
00010000
00010000
00000000
,
00001000
00000000
00000010
00000000
,
00000001
00000000
00001000
00000000
,
00000001
00000100
00000010
00010000
,
00022000
00000000
00033000
00000000
,
01100000
00000000
00100000
00000000
,
00100000
00000000
00000000
00000000
,
10000000
00000000
10000000
00000000
,
00010000
00000000
00000000
00000000
,
00010000
00000000
01000000
00000000
,
00001000
00000000
00010000
00000000
,
00000010
00000000
00001000
00000000
,
00000002
00000000
00000003
00000000
,
00001001
00000000
00000000
00000000
,
00000010
00000000
00000010
00000000
,
00000100
00000000
00010000
00000000
,
00001000
00000000
00001000
00000000
,
01000000
00000000
00000000
00000000
,
00010000
00000000
00010000
00000000
,
10000000
00000000
01000000
00000000
,
00100000
00000000
00001000
00000000
,
00022000
00000000
00033000
00000000
,
00000200
00000000
00000300
00000000
,
00000020
00000000
00000030
00000000
,
00000002
00000000
00000003
00000000
,
00002000
00000000
00000000
00000000
,
00000000
00000000
00000000
00000000
,
00000002
00000000
00000000
00000000
,
00000000
00000000
00000000
00000000
,
00003003
00000000
00000000
00000000
;
