#TITLE:NOVAmix2 (neofreeze);
#SUBTITLE:;
#ARTIST:DJ sigstop;
#TITLETRANSLIT:;
#SUBTITLETRANSLIT:;
#ARTISTTRANSLIT:;
#GENRE:;
#CREDIT:;
#BANNER:NOVAmix2 (neofreeze).png;
#BACKGROUND:NOVAmix2 (neofreeze)-bg.png;
#LYRICSPATH:;
#CDTITLE:;
#MUSIC:NOVAmix2 (neofreeze).ogg;
#OFFSET:2.526316;
#SAMPLESTART:95.786003;
#SAMPLELENGTH:15.000000;
#LASTBEATHINT:2.416667;
#SELECTABLE:YES;
#BPMS:0.000000=95.000000
,52.000000=110.000000
,123.000000=107.000000
,124.000000=110.000000
,188.000000=140.000000
,252.000000=105.000000
,256.000000=145.000000
,356.000000=93.000000
,372.000000=92.000000
,376.000000=90.000000
,380.000000=88.000000
,381.000000=84.000000
,382.000000=71.000000
,383.000000=45.000000
,384.000000=94.000000
;
#STOPS:
;
#BGCHANGES:;
#KEYSOUNDS:;
#ATTACKS:;

//---------------dance-single - ----------------
#NOTES:
     dance-single:
     :
     Easy:
     3:
     0.197313,0.265879,0.069059,0.069059,0.000000,280.000000,266.000000,14.000000,14.000000,0.000000,0.000000,0.197313,0.265879,0.069059,0.069059,0.000000,280.000000,266.000000,14.000000,14.000000,0.000000,0.000000:
0000
0000
0000
0000
,
1000
0100
1000
0001
,
0100
0010
0100
0001
,
1000
0100
0001
0100
,
1000
0010
0100
0001
,
0200
1000
1300
0010
,
0200
0001
0301
1000
,
0100
0000
0001
0100
,
1000
0010
0001
0100
,
1000
0100
0010
0001
,
0100
1000
0010
0001
,
0100
0010
1000
0001
,
0010
0000
0100
0000
1000
0001
1000
0000
,
0001
0000
0000
0000
,
0010
0000
0010
0000
,
0010
1000
0100
1000
,
0001
0001
0100
0010
,
1000
0100
1000
0001
,
0100
0000
1000
0100
,
0010
0001
0100
0001
,
1000
1000
0100
0010
,
0001
0100
0001
1000
,
0100
0000
0110
1001
,
0010
1000
0100
1000
,
0001
0001
0100
0010
,
1000
0100
1000
0001
,
0100
0000
1000
0100
,
0010
0001
0100
0001
,
1000
1000
0100
0010
,
0001
0100
0001
1000
,
0100
0000
1001
1001
,
1000
0010
0100
0001
,
1000
0100
0010
0001
,
1000
0010
0001
0010
,
0100
0001
0010
1000
,
0001
0001
0000
0000
1000
0000
1000
0000
,
0010
0100
0110
0000
,
0001
0000
0000
0100
0100
0000
1000
0000
,
0010
1000
0001
1001
,
1000
0000
1000
0010
,
0100
0100
0100
1001
,
0010
0000
0010
1000
,
0001
0001
0001
0010
,
0100
0000
0100
1000
,
0001
0001
0001
0110
,
1000
0000
1000
0010
,
0002
0010
2003
0100
,
3001
0000
0010
0000
,
1000
0000
0001
1000
,
1001
0000
0100
0000
,
1000
0000
0001
0100
,
0110
0000
0100
0000
,
1000
0000
0001
0000
,
0010
0000
0100
0000
,
0001
0000
1000
1000
,
0001
0000
0010
0000
,
0100
1000
0100
0000
,
0010
0000
0100
0000
,
0100
0001
0100
0000
,
1000
0000
0001
0000
,
1000
0000
0001
1000
,
0010
0000
0100
0000
,
0010
0000
1000
0001
,
0200
0000
0300
0000
,
2001
0000
0000
0000
,
3002
0000
0000
0000
,
0023
0000
0000
0000
,
0230
0000
0000
0000
,
2300
0000
0000
0000
,
3020
0000
0000
0000
,
0230
0000
0000
0000
,
0002
0000
0000
0000
,
0303
0000
0000
0000
,
1001
0000
0001
0000
,
0100
0000
0010
0000
,
1000
0000
0100
0000
,
0010
0000
0001
0000
,
1001
0000
1000
0000
,
0010
0000
0100
0000
,
0001
0000
1000
0000
,
0100
0000
0010
0000
,
0110
0000
0100
0000
,
1000
0001
1000
0000
,
0010
0000
0100
0000
,
0001
1000
0001
0000
,
0010
0000
0100
0000
,
1000
0001
1000
0000
,
0010
0000
0100
0000
,
0001
1000
0001
0000
,
0100
0000
0000
0000
,
0100
0000
0000
0000
,
0010
0000
0000
0000
,
0010
0000
0010
0000
,
0100
0000
0000
0000
,
0001
0000
0000
0000
,
1000
1000
0001
0001
,
0020
0000
0000
0000
,
0000
0000
0000
0000
,
0030
0000
0000
0000
;

//---------------dance-single - ----------------
#NOTES:
     dance-single:
     :
     Medium:
     5:
     0.297378,0.338391,0.098656,0.157850,0.022198,422.000000,402.000000,20.000000,32.000000,0.000000,0.000000,0.297378,0.338391,0.098656,0.157850,0.022198,422.000000,402.000000,20.000000,32.000000,0.000000,0.000000:
// measure 0
0000
0000
0000
0000
,  // measure 1
0200
0000
0302
0000
,  // measure 2
2003
0000
0000
0000
3200
0000
0310
0001
,  // measure 3
2000
3020
0230
0302
,  // measure 4
0023
0000
0230
0000
2300
0000
3001
1000
,  // measure 5
1000
0010
2000
0000
3001
0010
0002
0000
,  // measure 6
1003
0100
2000
0000
3001
0100
0001
0000
,  // measure 7
1001
0000
0000
0100
0100
0000
1000
0001
,  // measure 8
0020
0032
0203
2300
,  // measure 9
3100
0000
0010
1000
0001
0000
0010
0000
,  // measure 10
0100
1000
0001
0000
0100
0000
0010
0000
,  // measure 11
1000
0100
1000
0000
0010
0000
0100
0000
,  // measure 12
0001
1000
0001
0000
0110
0000
0100
0000
,  // measure 13
0001
0000
0000
0000
,  // measure 14
0010
0010
0010
0010
,  // measure 15
0011
0000
0100
0000
1000
0001
0100
0000
,  // measure 16
1000
0101
0010
1000
,  // measure 17
0001
0010
0100
1000
,  // measure 18
0001
1000
0001
0000
0100
0000
0010
0000
,  // measure 19
1000
0101
1000
0010
,  // measure 20
1100
0001
0010
0100
,  // measure 21
1000
0010
0100
0001
,  // measure 22
1000
0001
1000
0000
0100
0000
0100
0000
,  // measure 23
1010
0000
0001
0000
0010
0001
0100
0000
,  // measure 24
0010
1100
0001
0100
,  // measure 25
1000
0010
0100
0001
,  // measure 26
1000
0001
1000
0000
0010
0000
0100
0000
,  // measure 27
0001
1100
0001
0010
,  // measure 28
0101
1000
0010
0100
,  // measure 29
0001
0010
0100
1000
,  // measure 30
0001
1000
0001
1000
0100
0000
0100
0000
,  // measure 31
1000
0000
0001
0000
0100
0010
0100
0000
,  // measure 32
0001
0000
1000
0000
0100
0001
1000
0000
,  // measure 33
0010
0000
0010
0000
0100
0100
0100
0000
,  // measure 34
0001
0000
1000
0000
0010
0100
0010
0000
,  // measure 35
1000
1000
0000
0001
0001
0000
1000
0000
,  // measure 36
0010
0000
0000
0000
0100
0000
0000
0000
1001
0000
0000
1001
0000
0000
0000
0000
,  // measure 37
1000
0100
0001
0100
,  // measure 38
1000
0010
1000
0000
0001
0010
0001
0000
,  // measure 39
0100
0000
0100
0010
,  // measure 40
1000
0000
0001
0000
1000
0000
0001
0100
,  // measure 41
1000
0000
0100
0001
,  // measure 42
1000
0000
0010
0000
0100
0000
0001
0100
,  // measure 43
1000
0000
0010
1000
,  // measure 44
0001
0000
0100
0000
0010
0000
1000
0100
,  // measure 45
0001
0000
0100
1000
,  // measure 46
0010
0001
1010
0101
,  // measure 47
1001
0000
0100
0001
1000
0000
0010
0000
,  // measure 48
0100
0001
0010
0000
0100
0000
1000
0000
,  // measure 49
0100
0010
0001
0000
1000
0000
0010
0000
,  // measure 50
0100
0001
1000
0000
0100
1000
0001
0010
,  // measure 51
0100
0000
1000
0000
0010
1000
0001
0000
,  // measure 52
0100
0000
0001
0000
1000
0100
1000
0001
,  // measure 53
0010
0100
1000
0010
,  // measure 54
0100
0001
1001
0110
,  // measure 55
0001
0000
0000
1000
0000
0000
0100
0000
0000
0010
0000
0000
0001
0000
0000
0000
,  // measure 56
1000
0010
1000
0000
0001
0010
0001
0000
,  // measure 57
1000
0000
0000
0100
0000
0000
0001
0000
0000
0100
0000
0000
1000
0000
0000
0000
,  // measure 58
0010
0100
0010
0000
1000
0001
1000
0000
,  // measure 59
0001
0000
0000
0010
0000
0000
1000
0000
0000
0100
0000
0000
0001
0000
0000
0000
,  // measure 60
1000
0000
0010
0000
0100
0001
0100
0000
,  // measure 61
1000
0000
0000
0010
0000
0000
0001
0000
0000
0100
0000
0000
1000
0000
0000
0000
,  // measure 62
0100
0010
0100
0000
0001
1000
0001
1000
,  // measure 63
0200
0000
0300
0000
,  // measure 64
1002
0000
0000
0000
,  // measure 65
2003
0000
0000
0000
,  // measure 66
3020
0000
0000
0000
,  // measure 67
2030
0000
0000
0000
0000
0000
0000
3001
,  // measure 68
1002
0000
0203
0000
,  // measure 69
0320
0000
2030
3002
,  // measure 70
0023
0000
0000
0000
,  // measure 71
2030
0000
0200
0000
,  // measure 72
3300
0000
0000
0000
,  // measure 73
1001
1000
0001
0100
,  // measure 74
0010
0100
0001
1000
,  // measure 75
0100
0010
0100
1000
,  // measure 76
0001
0000
0010
0000
0100
0000
1000
0001
,  // measure 77
1000
0010
0100
0001
,  // measure 78
1000
0100
1000
0001
,  // measure 79
0010
0001
0100
0010
,  // measure 80
1000
0000
0001
0000
0100
0010
0100
0010
,  // measure 81
1000
0000
0010
0000
0100
0001
1000
0000
,  // measure 82
0100
0010
0001
0100
,  // measure 83
0001
0000
0010
0000
0100
1000
0001
0000
,  // measure 84
0100
0010
1000
0001
,  // measure 85
0010
0000
0001
0000
1000
0001
1000
0000
,  // measure 86
0010
0000
0100
0000
0001
1000
0001
0000
,  // measure 87
0010
0000
0100
0000
1000
0001
1000
0000
,  // measure 88
0010
0000
0100
0000
0001
1000
0001
0000
,  // measure 89
1000
0000
0001
1000
0000
0000
0000
0000
,  // measure 90
0010
0000
0100
0010
0000
0010
0100
0000
,  // measure 91
0001
0000
0100
0001
0000
0000
0000
0000
,  // measure 92
1000
0000
0100
1000
0100
0000
0010
0000
,  // measure 93
0001
0000
0010
0001
0000
0000
0000
0000
,  // measure 94
1000
0000
0010
1000
0000
0000
0000
0000
,  // measure 95
0010
0000
1000
0000
0001
1000
0001
0000
,  // measure 96
0200
0000
0000
0000
,  // measure 97
0000
0000
0000
0000
,  // measure 98
0300
0000
0000
0000
;

//---------------dance-single - ----------------
#NOTES:
     dance-single:
     :
     Hard:
     8:
     0.458752,0.531757,0.162783,0.064127,0.263906,651.000000,618.000000,33.000000,13.000000,0.000000,0.000000,0.458752,0.531757,0.162783,0.064127,0.263906,651.000000,618.000000,33.000000,13.000000,0.000000,0.000000:
0000
0000
0000
0000
,
1001
0000
1000
0100
0001
0000
1000
0010
,
0100
0000
1000
0010
0001
0000
0010
0100
,
1001
1000
0010
0010
0001
0001
1000
1000
,
0100
0000
0001
0000
0010
0000
1000
0000
0010
0000
0100
0000
1000
0001
1000
0001
,
1001
1000
0010
0000
0101
0001
1000
0000
,
0110
0100
0010
0000
1001
0001
1000
0000
,
0011
0100
1000
0010
0010
0000
1001
1000
,
0010
0100
0001
0010
0100
0001
0100
1000
,
1002
0000
0000
0010
0000
0000
0103
0000
2000
0010
0000
0000
0100
0000
3000
0010
,
0200
0000
0001
0000
0000
1000
0300
0000
0020
0000
0030
0100
0002
0000
1003
0000
,
0100
0000
1000
0001
0000
0000
0100
0000
0000
0010
0000
0000
0100
0000
0000
0001
,
1000
0000
0000
0010
0000
0000
0100
0000
0000
0010
0000
0010
1000
0000
0000
0100
0000
0000
0010
0000
0000
0001
0000
0000
,
0101
0011
1010
1100
,
1000
0000
0100
0000
0010
0000
0100
1000
0000
0001
0000
0000
0000
0000
0000
0000
,
0101
1000
0001
0000
0100
0001
0010
0100
,
1000
0010
0100
0000
0001
1000
0100
1000
,
0010
0100
0001
0000
1000
0010
1000
0100
,
0001
0100
1000
0010
0100
0000
1001
0000
,
0101
1000
0001
0000
0010
0100
1000
0010
,
1000
0001
0100
0000
0001
1000
0100
1000
,
0001
1000
0100
0000
1000
0010
1000
0100
,
1000
0010
0100
0001
0010
0000
1001
0000
,
1100
0001
0100
0000
0100
1000
0010
0100
,
0001
0010
0100
0000
1000
0001
0100
0001
,
0010
0100
1000
0000
0001
0010
0001
0100
,
1000
0100
0001
0010
0100
1000
0000
0000
,
0101
1000
0001
0000
0010
0100
1000
0010
,
1000
0001
0100
0000
0001
1000
0100
1000
,
0001
1000
0100
0000
1000
0010
1000
0100
,
1000
0010
0100
0001
0010
0100
1000
0000
,
0001
0000
1000
0010
0100
0001
1000
0000
,
0100
0001
0100
1000
0010
1000
0001
0000
,
0001
0010
0100
0010
0001
1000
0010
0000
,
0010
1000
0001
1000
0010
0010
0010
0100
,
1000
1000
0000
0001
0100
1000
0001
0000
,
0010
0000
0001
0000
1000
0000
0010
0000
0101
0000
0000
1100
0000
0000
0001
0000
,
0010
0000
0001
0000
1000
0000
0100
0000
1000
0000
0010
0100
0010
0000
0000
0000
,
1000
0000
0010
0000
1000
0000
0001
0000
0010
0100
0000
0000
0110
0000
0000
0000
,
0010
0000
0000
0000
0010
0000
0000
0000
0100
0000
0000
0001
1000
0000
0010
0000
,
0100
0000
0100
0000
0100
0000
0010
1000
,
1000
0000
0000
0000
0001
0000
0000
0000
0100
0000
0000
0010
1000
0000
0001
0000
,
0100
0010
0100
0010
0100
0010
0100
0100
,
0001
0000
0000
0000
1000
0000
0000
0000
0010
0000
0000
1000
0001
0000
0100
0000
,
0010
0000
1010
0000
0100
0000
0010
1000
,
1000
0000
0000
0000
0001
0000
0000
0000
0100
0000
0000
0001
0010
0000
0001
0000
,
1000
0100
0001
0100
1000
2000
0000
3000
,
1000
0000
0001
0000
0011
0000
1000
0100
0000
1000
0001
0000
1000
0000
0010
0000
,
0101
0000
0010
0000
1000
0000
0100
1000
0000
1000
0001
0000
0100
0000
0010
0000
,
1001
0000
0010
0101
0000
0010
0100
0010
,
0001
0000
0010
0000
0100
0000
1000
0001
0000
0001
1000
0000
0010
0000
1000
0000
,
0001
0000
0000
0010
0000
0000
1000
0000
0000
0010
0000
0000
0001
0000
0000
0000
,
0100
0000
1000
0000
0100
0000
0010
1000
0000
1000
0001
0000
0100
0000
0010
0000
,
1000
0000
0000
0001
0000
0000
0010
0000
0000
0001
0000
0000
0100
0000
0000
0000
,
0001
0010
0001
0000
1000
0100
1000
0000
0001
0000
0010
0000
0100
0000
1000
0000
,
1001
0000
0000
0000
0010
1000
0000
0100
0000
0010
0000
0001
0100
0000
1000
0000
,
0001
0000
0010
0000
1000
0001
0000
0010
0000
0001
0000
1000
0010
0000
1000
0000
,
0001
0000
0100
0000
0001
0010
0000
0100
0000
1000
0000
0001
1000
0000
0010
0000
,
1000
0000
0100
0000
0010
0001
0000
0100
0000
0010
0000
1000
0001
0000
0010
0000
,
0001
0000
0000
1000
0000
0000
0010
0000
0000
1000
0000
0000
0100
0000
0000
0000
,
0001
0000
0100
0000
1000
0000
0000
0000
0100
0000
0000
1000
0000
0000
0010
0000
,
0001
0000
0000
0010
0000
0000
1000
0000
0000
0001
0000
0000
0100
0000
0000
0000
,
0001
0000
1000
0000
0010
0100
0000
0001
0000
1000
0000
0000
0001
0000
1000
0000
,
0020
0000
0030
0000
,
1002
0000
0000
1000
0000
0000
1000
0000
1003
0000
0000
0001
0000
0000
0001
0000
,
2000
0000
0000
0010
0000
0000
0010
0000
3010
0000
0000
0100
0000
0000
0010
0000
,
0200
0000
0000
0001
0000
0000
0001
0000
0301
0000
0000
1000
0000
0000
0100
0000
,
0020
0000
0000
0001
0000
0000
0001
0000
0031
0000
0000
0100
0000
0000
0110
0000
,
0110
0000
0000
0100
0000
0000
0100
0000
0001
0000
0000
0001
0000
0000
0001
0000
,
0010
0000
0000
0010
0000
0000
0010
0000
1000
0000
0000
1000
0000
0000
1000
0000
,
0010
0000
0000
0010
0000
0000
0010
0000
0001
0000
0000
0001
0000
0000
0001
0000
,
0100
0000
0000
0100
0000
0000
0100
0000
1000
0000
0000
1000
0000
0000
1000
0000
,
0000
0000
0000
0000
,
0110
0000
0000
0001
0000
0000
1000
0000
0010
0000
0000
1000
0000
0000
0100
0000
,
0010
0000
0000
0100
0000
0000
1000
0000
0001
0000
0000
0100
0000
0000
0001
0000
,
0010
0000
0000
0001
0000
0000
1000
0000
0010
0000
0000
0100
0000
0000
0001
0000
,
1000
0000
0000
0100
0000
0000
1000
0000
0001
0000
0000
0100
0000
0000
0010
0000
,
1000
0000
0000
0001
0000
0000
0010
0000
0001
0000
0000
0100
0000
0000
0001
0000
,
1000
0000
0000
0100
0000
0000
1000
0000
0001
0000
0000
0010
0000
0000
0100
0000
,
1000
0000
0000
0010
0000
0000
0100
0000
0001
0000
0000
1000
0000
0000
0100
0000
,
0010
0000
0000
0010
0000
0000
0001
0000
1000
0000
0000
1000
0000
0000
0100
0000
,
0110
0000
0000
0010
0000
0000
0001
0000
1000
0000
0000
0100
0000
0000
0010
0000
,
1000
0000
0000
0010
0000
0000
0001
0000
0100
0000
0000
0010
0000
0000
0001
0000
,
0010
0000
0000
1000
0000
0000
0001
0000
0010
0000
0000
0100
0000
0000
0001
0000
,
0100
0000
0000
1000
0000
0000
0001
0000
0100
0000
0000
0010
0000
0000
0001
0000
,
0010
0000
0000
1000
0000
0000
0100
0000
0001
0000
0000
1000
0000
0000
0010
0000
,
0001
0000
0000
0100
0000
0000
1000
0000
0001
0000
0000
0010
0000
0000
1000
0000
,
0100
0000
0000
0010
0000
0000
1000
0000
0010
0000
0000
0001
0000
0000
1000
0000
,
0010
0000
0000
0001
0000
0000
1000
0000
0100
0000
0000
0001
0000
0000
1000
0000
,
0010
0100
0001
1000
0000
0001
1000
0000
,
0001
0100
0010
1000
0000
0001
1000
0000
,
0100
1000
0010
0100
0000
0001
0100
0000
,
0010
1000
0001
0000
1000
0000
0001
0000
,
1000
0100
0010
0001
0000
0000
0000
0000
,
0001
0100
0010
1000
0000
0000
0001
0000
,
1000
0001
1000
0001
0100
0010
0100
0010
,
2000
0000
0000
0000
,
0000
0000
0002
0000
0000
0000
0000
0000
0000
0000
0000
0000
,
3003
0000
0000
0000
;

//---------------dance-double - ----------------
#NOTES:
     dance-double:
     :
     Hard:
     8:
     0.451705,0.507587,0.138119,0.069059,0.273771,641.000000,613.000000,28.000000,14.000000,0.000000,0.000000,0.451705,0.507587,0.138119,0.069059,0.273771,641.000000,613.000000,28.000000,14.000000,0.000000,0.000000:
00000000
00000000
00000000
00000000
,
01000000
00010000
00100000
01000000
10000000
00100000
01000000
00001000
,
00010000
00000100
00000010
00000001
00001000
00000100
00010000
00001000
,
00100000
01000000
10000000
00100000
00010000
00100000
01000000
00010000
,
00001000
00000000
00000100
00000000
00000010
00000000
00001000
00000000
00000001
00000000
00000001
00000000
00000100
00001000
00000100
00001000
,
00000001
00000100
00000010
00001000
00000002
00000000
00001003
00000010
,
00000200
00000301
00000020
00001030
,
00000010
00000001
00000100
00000010
00001000
00000100
00010000
00001000
,
00100000
00010000
01000000
00100000
10000000
01000000
00100000
00010000
,
20000000
00000000
00000000
00000000
31000000
00000000
00100000
00000000
00010000
00000000
00000000
00001000
00000000
00000000
00010000
00000000
,
00002000
00000000
00000000
00000000
00003020
00000000
00000000
00001000
,
00000230
00000010
00001000
00000301
,
00010100
00011000
00101000
10010000
,
01000000
00000000
10000000
00000000
00100000
00000000
00010000
00001000
,
00010000
00000000
01000000
00000000
10000000
00000000
01000000
00000000
10000000
00010000
00000000
01000000
00000000
00000000
00000000
00000000
,
01010000
10000000
01000000
00000000
00010000
01000000
10000000
01000000
,
00010000
00001000
00000010
00000000
00000001
00000100
00000010
00000001
,
00001000
00000100
00001000
00000000
00010000
01000000
00010000
00000000
,
01000000
10000000
00100000
10000000
00010000
00000000
10010000
00000000
,
01010000
10000000
01000000
00000000
00100000
01000000
10000000
01000000
,
00010000
00001000
00010000
00000000
00001000
00010000
01000000
10000000
,
00100000
10000000
00100000
00000000
01000000
00010000
01000000
00000000
,
00001000
00000100
00000001
00000000
00000110
00000000
00001001
00000000
,
00000101
00001000
00000100
00000000
00001000
00000100
00000001
00000100
,
00001000
00010000
00100000
00000000
10000000
01000000
00100000
10000000
,
00010000
01000000
00010000
00000000
00001000
00000100
00001000
00000000
,
00000100
00000001
00000010
00000001
00001000
00000000
00001001
00000000
,
00001100
00000001
00000100
00000000
00000010
00000100
00000001
00000100
,
00001000
00010000
00001000
00000000
00010000
00001000
00000100
00000001
,
00000010
00000001
00000010
00000000
00000001
00001000
00000001
00000000
,
00000100
00001000
00010000
01000000
10000000
00000000
01100000
00000000
,
10010000
00000000
00100000
00010000
01000000
00100000
00010000
00000000
,
00100000
01000000
00010000
00100000
00001000
00010000
00000100
00000000
,
00000010
00000001
00000100
00000000
00000010
00001000
00000100
00000000
,
00000010
00001000
00000010
00000001
00000010
00000010
00000010
00000100
,
00001000
00000000
00001000
00000000
00000000
00000000
00000100
00000000
00010000
00000000
00000000
00010000
00000000
00000000
00001000
00000000
,
00100000
00000000
00010000
00000000
10000000
00000000
00100000
00000000
01010000
00000000
00000000
00110000
00000000
00000000
00100000
00000000
,
10000000
00000000
00100000
00000000
00010000
00000000
01000000
00000000
00001000
00000000
00010000
00001000
00010000
00000000
00000000
00000000
,
00001000
00000000
00000100
00000000
00000001
00000000
00000010
00000000
00000100
00001000
00000000
00000000
00001001
00000000
00000000
00000000
,
00000001
00000000
00000000
00000000
00000000
00000000
00000000
00000000
00000100
00000000
00000000
00000010
00010000
00000000
00001000
00000000
,
01000000
00000000
01000000
00000000
01000000
00100000
10000000
10000000
,
00010000
00000000
00000000
00000000
00000000
00000000
00000000
00000000
01000000
00000000
00000000
00001000
00100000
00000000
00001000
00000000
,
00010000
00000000
00001000
00010000
00000010
00000000
00000010
00000100
,
00000001
00000000
00000000
00000000
00000000
00000000
00000000
00000000
00001000
00000000
00000000
00000010
00010000
00000000
00001000
00000000
,
00010000
00000000
00011000
00000000
00001000
00000000
00100000
00010000
,
01000000
00000000
00010000
10000000
,
00010000
00000000
00100000
00001000
01000000
00000000
01001000
00000000
,
10010000
00000000
00000000
00000000
01100000
00000000
00000000
10000000
00000000
00010000
10000000
00000000
01000000
00100000
00000000
00100000
,
00001000
00000000
00010000
00000000
00010000
00000000
00000000
00001000
00000000
00000000
00000100
00000000
00000001
00000000
00000010
00000000
,
00001001
00000000
00000000
00000000
00000110
00000000
00000000
00001000
00000000
00000001
00001000
00000000
00000100
00000000
00010000
00000000
,
00001000
00100000
00000000
00100000
00010000
00000000
01000000
00100000
00000000
00000000
10000000
00010000
10000000
00000000
01000000
00000000
,
10010000
00000000
00010000
00000000
10000000
00000000
00000000
01000000
00000000
00010000
00001000
00000000
00100000
00000000
00001000
00000000
,
00010000
00000000
00000100
00000000
00000010
00000000
00000000
00000001
00000000
00001000
00000001
00000000
00000100
00000000
00000010
00000000
,
00001000
00000000
00000000
00000100
00000000
00000000
00000010
00000000
00000000
00001000
00000000
00000000
00100000
00000000
00010000
00000000
,
10000000
01000000
10000000
00000000
00010000
00000000
00000000
00100000
00000000
00100000
01000000
00000000
10000000
00000000
00100000
00000000
,
10010000
00000000
00010000
00000000
10000000
00000000
00000000
00100000
00000000
00010000
00001000
00000000
01000000
00000000
00001000
00000000
,
00010000
00000000
00000010
00000000
00000100
00000000
00000000
00000001
00000000
00001000
00000001
00000000
00000010
00000000
00000100
00000000
,
00001000
00000000
00000000
00000010
00000000
00000000
00000100
00000000
00000000
00001000
00000000
00000000
01000000
00000000
00010000
00000000
,
10000000
00000000
01000000
00000000
00010000
00001000
00000000
00000010
00000000
00000010
00000000
00000010
00000001
00000000
00000100
00000010
,
00001000
00000000
00000000
00000001
00000000
00000000
00000100
00000000
00000000
00001000
00000000
00000000
00010000
00000000
01000000
00000000
,
10000000
00000000
00010000
00000000
10000000
00000000
00000000
00000000
01000000
00000000
00000000
00010000
00000000
00000000
00001000
00000000
,
00000100
00000000
00000000
00000001
00000000
00000000
00000010
00000000
00000000
00001000
00000000
00000000
00010000
00000000
01000000
00000000
,
00000000
10000000
00000000
00000000
00010000
00000000
10000000
00000000
00100000
00000000
00010000
00000000
00001000
00000010
00000000
00000200
,
00000000
00000000
00000300
00000000
,
00001020
00000000
00000000
00001000
00000000
00000000
00001030
00000000
00000100
00000000
00000000
00000010
00000000
00000000
00000001
00000000
,
00001000
00000000
00000000
00001000
00000000
00000000
00001000
00000000
00000010
00000000
00000000
00001000
00000000
00000000
00010000
00000000
,
00100000
00000000
00000000
00100000
00000000
00000000
00100000
00000000
00010000
00000000
00000000
01000000
00000000
00000000
00010000
00000000
,
10000000
00000000
00000000
10000000
00000000
00000000
10000000
00000000
00100000
00000000
00000000
01000000
00000000
00000000
00001000
00000000
,
00021000
00000000
00000000
00001000
00000000
00000000
00031000
00000000
01000000
00000000
00000000
01000000
00000000
00000000
01000000
00000000
,
10000000
00000000
00000000
10000000
00000000
00000000
10000000
00000000
00100000
00000000
00000000
00100000
00000000
00000000
00100000
00000000
,
00010000
00000000
00000000
00010000
00000000
00000000
00010000
00000000
00000010
00000000
00000000
00000010
00000000
00000000
00000010
00000000
,
00000001
00000000
00000000
00000001
00000000
00000000
00000001
00000000
00000100
00000000
00000000
00000100
00000000
00000000
00000100
00000000
,
00000001
00000000
00001000
00000000
00000010
00000000
00000100
00000001
00000100
00000001
00000100
00000000
00000010
00000000
00001000
00000001
,
00002000
00000000
00000000
00000001
00000000
00000000
00003001
00000000
00000010
00000001
00000000
00000100
00000000
00000000
00000100
00000000
,
00000010
00000000
00000000
00000010
00000000
00000000
00000010
00000000
00010000
00001000
00000000
00010000
00000000
00000000
00010000
00000000
,
01000000
00000000
00000000
10000000
00000000
00000000
00100000
00000000
00010000
00000000
00000000
00100000
00000000
00000000
10000000
00000000
,
00010000
00000000
00000000
00000010
00000000
00000000
00000001
00000000
00000100
00000000
00000000
00001000
00000000
00000000
00000100
00000000
,
00000001
00000000
00000000
00000001
00000000
00000000
00000001
00000000
00000010
00000100
00000000
00000010
00000000
00000000
00000100
00000000
,
00010000
00000000
00000000
00010000
00000000
00000000
00010000
00000000
00000010
00001000
00000000
00000010
00000000
00000000
00000010
00000000
,
00010000
00000000
00000000
01000000
00000000
00000000
00100000
00000000
00010000
00000000
00000000
01000000
00000000
00000000
10000000
00000000
,
00010000
00000000
00000000
00100000
00000000
00000000
10000000
00000000
01000000
00000000
00000000
00010000
00000000
00000000
00001000
00000000
,
00012000
00000000
00000000
00010000
00000000
00000000
00013000
00000000
00001000
00010000
00000000
00000010
00000000
00000000
00000010
00000000
,
00000100
00000000
00000000
00000100
00000000
00000000
00000100
00000000
00000010
00001000
00000000
00000001
00000000
00000000
00000001
00000000
,
00000010
00000000
00000000
00010000
00000000
00000000
00000010
00000000
00000001
00000000
00000000
00000100
00000000
00000000
00001000
00000000
,
00010000
00000000
00000000
00100000
00000000
00000000
10000000
00000000
01000000
00000000
00000000
00100000
00000000
00000000
10000000
00000000
,
00100000
00000000
00000000
00100000
00000000
00000000
00100000
00000000
00010000
01000000
00000000
00001000
00000000
00000000
00001000
00000000
,
00000010
00000000
00000000
00000010
00000000
00000000
00000010
00000000
00000100
00001000
00000000
00000010
00000000
00000000
00010000
00000000
,
01000000
00000000
00000000
00100000
00000000
00000000
00010000
00000000
01000000
00000000
00000000
10000000
00000000
00000000
01000000
00000000
,
00001000
00000000
00000000
00010000
00000000
00000000
00000100
00000000
00000010
00000000
00000000
00001000
00000000
00000000
00010000
00000000
,
00001000
00000100
00000010
00000001
00000000
00000001
00000010
00000000
,
00001000
00000100
00000010
00000001
00000000
00000001
00001000
00000000
,
00000001
00000010
00000100
00001000
00000000
00001000
00000100
00000000
,
00010000
00001000
00100000
00000000
00010000
00000000
10000000
00000000
,
00010000
00100000
01000000
10000000
00000000
00000000
00000000
00000000
,
10000000
01000000
00100000
00010000
00000000
00000000
00000000
00000000
,
10000000
00100000
01000000
00010000
01000000
00100000
10000000
01000000
,
20000000
00000000
00000000
00000000
,
00000000
00000000
00020000
00000000
00000000
00000000
00000000
00000000
00000000
00000000
00000000
00000000
,
30030000
00000000
00000000
00000000
;

//---------------dance-double - ----------------
#NOTES:
     dance-double:
     :
     Medium:
     6:
     0.301606,0.359556,0.078925,0.152917,0.046862,428.000000,412.000000,16.000000,31.000000,0.000000,0.000000,0.301606,0.359556,0.078925,0.152917,0.046862,428.000000,412.000000,16.000000,31.000000,0.000000,0.000000:
00000000
00000000
00000000
00000000
,
01000000
01000000
00000000
00000000
01000000
01000000
00000000
00000000
,
00010000
00010000
00000000
00000000
00020000
00000000
00130000
00000000
,
00001000
00001000
00000000
00000000
00001000
00001000
00000000
00000000
,
00010000
00010000
00000000
00000000
00020000
00000000
00031000
00000000
,
00000100
00000010
00001000
00000001
,
00000020
00000130
00002000
00003001
,
00001000
00000010
00000001
00000010
,
00001000
00000100
00000001
00000100
,
00020000
01030000
10000000
00100000
,
00020000
00130000
20000000
31000000
,
00100000
00010000
01000000
00100000
,
10000000
00000000
00010000
00000000
10000000
00010000
10000000
00000000
,
00010000
00000000
00000000
00000000
,
00000010
00000010
00000010
00000010
,
00000011
00000000
00000100
00000000
00001000
00010000
00001000
00000000
,
00000100
00000101
00000010
00000001
,
00000100
00001000
00010000
01000000
,
10000000
00100000
10000000
00000000
00010000
00000000
01000000
00000000
,
00010000
11000000
00100000
00010000
,
01010000
00001000
00000100
00000001
,
00000010
00000100
00001000
00010000
,
10000000
01000000
10000000
00000000
00010000
00000000
00010000
00000000
,
10100000
00000000
01000000
00000000
00010000
00001000
00010000
00000000
,
01000000
11000000
00100000
10000000
,
01000000
00010000
00001000
00000100
,
00000001
00000010
00000001
00000000
00001000
00000000
00000100
00000000
,
00001000
00000101
00000010
00000001
,
00001100
00010000
01000000
10000000
,
00010000
00010000
01000000
00100000
,
10000000
01000000
10000000
00000000
00010000
00000000
00010000
00000000
,
10000000
00000000
00010000
00000000
01000000
01000000
01000000
00000000
,
00010000
00000000
00100000
00000000
00010000
00010000
00010000
00000000
,
01000000
00000000
00100000
00000000
10000000
01000000
00010000
00000000
,
00001000
00000000
00000100
00000000
00000001
00000010
00000100
00001000
,
00000001
00000000
00000001
00000000
00000000
00000000
00001000
00000000
00001000
00000000
00000000
00001000
00000000
00000000
00001000
00000000
,
00000100
00000000
00000000
00000000
00000010
00000000
00000000
00000000
00000001
00000000
00000000
00000001
00000000
00000000
00000000
00000000
,
00001000
00000000
00000010
00000000
00000001
00000010
00001000
00000000
,
00000100
00000100
00010000
00011000
,
00100000
00000000
00020000
00000000
,
10000000
00000000
10000000
00000000
10030000
00000000
10000000
01000000
,
00010000
00000000
00002000
00000000
,
01003000
00000000
00010000
00000000
00100000
00000000
00001000
00010000
,
00000100
00000000
00000020
00000000
,
00000001
00000000
00000001
00000000
00000031
00000000
00000001
00000010
,
00001000
00000000
00020000
00000000
,
00030100
00010000
00001000
00100000
,
10010000
00000000
00000000
00000000
00010000
00000000
00000000
10000000
00000000
00000000
00100000
00000000
01000000
00000000
00001000
00000000
,
00010000
00000000
00000010
00000000
00001000
00000000
00000000
00000001
00000000
00000000
00001000
00000000
00000100
00000000
00000000
00000000
,
00001001
00000000
00000000
00000000
00001000
00000000
00000000
00000001
00000000
00000000
00000010
00000000
00000001
00000000
00000100
00000000
,
00001000
00000000
00000000
00000000
00010000
00000000
00000000
00100000
00000000
00000000
10000000
00000000
00010000
00000000
10000000
00000000
,
01000000
00000000
00010000
00000000
00001000
00000000
00000000
00100000
00000000
00000000
00001000
00000000
00010000
00000000
00000010
00000000
,
00001000
00000000
00000001
00000000
00000100
00000000
00000000
00001000
00000000
00000000
00010000
00000000
01000000
00000000
10000000
00000000
,
00010000
00000000
10000000
00000000
00100000
00000000
00000000
01000000
00000000
00000000
00010000
00000000
01000000
00000000
00001000
00000000
,
00010000
00000000
00000100
00000000
00001000
00000000
00000000
00000001
00000000
00000000
00001000
00000000
00000010
00000000
00000100
00000000
,
00000001
00000000
00001000
00000000
00000001
00000000
00000000
00000100
00000000
00000000
00000010
00000000
00010000
00000000
00001000
00000000
,
01000000
00000000
00100000
00000000
10000000
00000000
00000000
00000000
00100000
00000000
00000000
00100000
00000000
00000000
10000000
00000000
,
01000000
00000000
00010000
00000000
00001000
00000000
00000000
00000100
00000000
00000000
00000001
00000000
00000010
00000000
00000100
00000000
,
00001000
00000000
00000001
00000000
00000100
00000000
00000000
00000010
00000000
00000000
00010000
00000000
00001000
00000000
01000000
00000000
,
00100000
00000000
00000000
00000000
00100000
00000000
00000000
00000000
10000000
00000000
00000000
01000000
00000000
00000000
00010000
00000000
,
00001000
00000000
00000010
00000000
00000001
00000000
00000000
00000000
00001000
00000000
00000000
00001000
00000000
00000000
00000001
00000000
,
00000100
00000000
00000001
00000000
00000010
00000000
00000000
00000000
00000001
00000000
00000000
00000100
00000000
00000000
00001000
00000000
,
00000000
00010000
00000000
00000000
00100000
00000000
10000000
00000000
01000000
00000000
00100000
00000000
00001000
00000000
00000000
00022000
,
00000000
00000000
00033000
00000000
,
00002001
00000000
00000000
00000000
,
00003200
00000000
00000000
00000000
,
00020300
00000000
00000000
00000000
,
00030020
00000000
00000000
00000000
00000000
00000000
00000000
00010030
,
00012000
00000000
02003000
00000000
,
03020000
00000000
00230000
02300000
,
23000000
00000000
00000000
00000000
,
30020000
00000000
02030000
00000000
,
03000000
00000000
00000000
00000000
,
00001010
00001000
00000100
00001000
,
00000010
00000100
00000001
00001000
,
00000010
00010000
00001000
01000000
,
00001000
00000000
00010000
00000000
00000010
00000000
00010000
00001000
,
01000000
00100000
10000000
01000000
,
00100000
00010000
01000000
00100000
,
10000000
00100000
01000000
00001000
,
00010000
00000000
00000010
00000000
00010000
00000010
00010000
00000010
,
00000100
00000000
00000010
00000000
00001000
00000010
00010000
00000000
,
00001000
00010000
00000010
00000100
,
00000010
00000000
00010000
00000000
00000010
00010000
00001000
00000000
,
01000000
00010000
10000000
01000000
,
00100000
00000000
01000000
00000000
10000000
00010000
10000000
00000000
,
01000000
00000000
00010000
00000000
00000010
00000100
00000010
00000000
,
00001000
00000100
00001000
00000000
00000001
00000010
00000001
00000000
,
00010000
00000010
00010000
00000000
00001000
00010000
00001000
00000000
,
00002001
00000000
00000100
00003100
00000000
00000000
00000000
00000000
,
00020000
00000000
00001000
00031000
00000000
00001000
00100000
00000000
,
02000000
00000000
00100000
03100000
00000000
00000000
00010000
10000000
,
00100000
00000000
01000000
00010000
00000000
00010000
10000000
00000000
,
02000000
00000000
10000000
13000000
00000000
00000000
00000000
00000000
,
02000000
00000000
00100000
03100000
00000000
00000000
00000000
00000000
,
00010000
00000000
00100000
00000000
00001000
00010000
00001000
00000000
,
00020000
00000000
00000000
00000000
,
00000000
00000000
00000000
00030000
00000000
00000000
00000000
00000000
00000000
00000000
00000000
00000000
00000000
00000000
00000000
00000000
;

//---------------dance-double - ----------------
#NOTES:
     dance-double:
     :
     Easy:
     3:
     0.174058,0.263618,0.044395,0.078925,0.000000,247.000000,238.000000,9.000000,16.000000,0.000000,0.000000,0.174058,0.263618,0.044395,0.078925,0.000000,247.000000,238.000000,9.000000,16.000000,0.000000,0.000000:
00000000
00000000
00000000
00000000
,
10000000
00000000
00010000
00000000
,
01000000
00000000
00020000
00000000
,
00130000
00000000
00010000
00000000
,
00100000
00000000
00001000
00001000
,
00001000
00000000
00000000
00000000
,
00000001
00000000
00000000
00000000
,
00000100
00000010
00000100
00000100
,
00000010
00000100
00000010
00000010
,
00001000
00000000
00000000
00000000
,
00000001
00000000
00000000
00000000
,
00010000
00001000
00010000
00010000
,
00001000
00010000
00001000
00001000
,
01000000
00000000
00000000
00000000
,
00000010
00000000
00000010
00000000
,
00000010
00001000
00000100
00001000
,
00000001
00000001
00000100
00000000
,
00001000
00000000
00010000
00000000
,
00100000
00000000
10000000
01000000
,
00100000
00010000
01000000
00010000
,
10000000
10000000
01000000
00000000
,
00010000
00000000
00001000
00000000
,
00000010
00000000
00001001
00001001
,
00000010
00000001
00000100
00001000
,
00010000
00010000
00001000
00000000
,
00001000
00000000
00010000
00000000
,
00100000
10000000
01000000
10000000
,
00100000
10000000
01000000
00010000
,
00001000
00001000
00010000
00000000
,
00010000
00000000
00001000
00000000
,
00000010
00000001
00001001
00001001
,
00000001
00000000
00001000
00001000
,
00000010
00010000
00001000
00001000
,
00010000
00000000
10000000
10000000
,
00100000
10000000
01000000
00100000
,
00010000
00010000
00000000
00000000
01000000
00000000
01000000
00000000
,
00001000
00010000
00000010
00000010
,
00010000
00000000
00010000
00000000
00001000
00001000
00001000
00000000
,
00010000
00000010
00001000
00001001
,
00000001
00000000
00000001
00000010
,
00000100
00000100
00000100
00001000
,
00000010
00000000
00000010
00000010
,
00010000
00001000
00010000
00010000
,
01000000
00000000
01000000
10000000
,
00010000
00010000
00010000
01000000
,
00001000
00000000
00001000
00001000
,
00000010
00000001
00000100
00000001
,
00000001
00000000
00000010
00000000
,
00001000
00000000
00010000
01000000
,
10000000
00000000
00100000
00000000
,
00010000
00000000
00001000
00000100
,
00000001
00000000
00001000
00001000
,
00000010
00000000
00010000
00010000
,
00001000
00000000
00100000
00000000
,
00010000
00010000
00000000
10000000
,
10010000
00000000
00100000
00000000
,
10000000
00010000
01000000
00000000
,
00001000
00000000
00010000
00000000
,
00000100
00001000
00000001
00000000
,
00000010
00000000
00000001
00000000
,
00001000
00000100
00001000
00000000
,
00000100
00000000
00010000
00000000
,
00001000
01000000
00010000
00000000
,
00200000
00000000
00000000
00300000
,
10020000
00000000
00000000
00000000
,
00230000
00000000
00000000
00000000
,
02300000
00000000
00000000
00000000
,
23000000
00000000
00000000
00000000
,
30200000
00000000
00000000
00000000
,
00320000
00000000
00000000
00000000
,
00030200
00000000
00000000
00000000
,
00000020
00000000
00000000
00000000
,
00000330
00000000
00000000
00000000
,
00001001
00000000
00000001
00000000
,
00001000
00000000
00000100
00000000
,
00010000
00000000
00001000
00000000
,
00100000
00000000
01000000
00000000
,
10000000
00000000
00010000
00000000
,
01000000
00000000
00001000
00000000
,
00100000
00000000
00000100
00000000
,
00010000
00000000
00000010
00000000
,
00000110
00000000
00000100
00000000
,
00000001
00000010
00000001
00000000
,
00000100
00000000
00000010
00000000
,
00001000
00000100
00001000
00000000
,
00000100
00000000
00010000
00000000
,
00001000
00000000
00100000
00000000
,
00001000
00000000
00010000
00000000
,
00000100
00001000
00000001
00000000
,
00020000
00000000
00030000
00000000
,
00000200
00000000
00000300
00000000
,
00020000
00000000
00030000
00000000
,
00001000
00000000
00100000
00000000
,
00002000
00000000
00003000
00000000
,
00020000
00000000
00030000
00000000
,
00001000
00010000
00000100
00001000
,
00000020
00000000
00000000
00000000
,
00000000
00000000
00000030
00000000
00000000
00000000
00000000
00000000
00000000
00000000
00000000
00000000
;
