#TITLE:NOVAmix1 (Smash Hits);
#SUBTITLE:;
#ARTIST:DJ HypnoTik;
#TITLETRANSLIT:;
#SUBTITLETRANSLIT:;
#ARTISTTRANSLIT:;
#GENRE:;
#CREDIT:;
#BANNER:NOVAmix1 (Smash Hits).png;
#BACKGROUND:NOVAmix1 (Smash Hits)-bg.png;
#LYRICSPATH:;
#CDTITLE:;
#MUSIC:NOVAmix1 (Smash Hits).ogg;
#OFFSET:0.000000;
#SAMPLESTART:75.990013;
#SAMPLELENGTH:15.000000;
#SELECTABLE:YES;
#BPMS:0.000000=118.099998
,86.000000=122.320007
,111.000000=122.000000
,120.000000=124.000000
,144.000000=123.000000
,151.000000=102.000000
,152.000000=125.999992
,214.000000=132.000000
,280.000000=102.000000
,328.000000=100.000000
;
#STOPS:
;
#BGCHANGES:;
#KEYSOUNDS:;
#ATTACKS:;

//---------------dance-single - ----------------
#NOTES:
     dance-single:
     :
     Easy:
     3:
     0.187422,0.285736,0.093378,0.088709,0.009338,281.000000,261.000000,20.000000,19.000000,0.000000,0.000000,0.187422,0.285736,0.093378,0.088709,0.009338,281.000000,261.000000,20.000000,19.000000,0.000000,0.000000:
0000
0000
0000
0000
,
0100
0000
0100
0000
,
1000
0000
0000
0000
,
0001
0000
0001
0000
,
0001
0000
0000
0000
,
1000
0000
0010
0000
,
0100
0000
0000
0000
,
0100
0000
0100
0000
,
0010
0000
0010
0000
,
1000
0000
1000
0000
,
0001
0000
0002
0003
,
1000
0000
2000
3000
,
0100
0000
0100
0100
,
0010
0010
0001
1000
,
0001
0000
1000
0000
,
0001
0001
1000
1000
,
0010
0000
0100
0000
,
0110
0000
1001
0000
,
0001
0100
0001
0000
,
1000
0100
1000
0000
,
0001
0010
0001
0000
,
1000
0010
0100
0001
,
1000
0000
0000
0000
,
0000
0000
0000
0000
,
0000
0000
0000
0000
,
0000
0000
0000
0000
,
1000
0000
0000
0001
,
1001
0000
0000
1000
,
0200
0000
0000
0000
,
0310
0100
1000
0100
,
0010
0000
0000
0010
0000
0000
0000
0000
,
0001
0100
0010
0100
,
0001
0000
0000
0001
0000
0000
0000
0000
,
0001
0001
0010
0010
,
0100
0000
0000
0100
0000
0000
0000
0000
,
1000
0001
1000
0001
,
1000
0000
0000
1000
0000
0000
2000
0000
,
0000
0000
0000
3000
,
0110
0110
0010
1000
,
0001
0010
0100
1000
,
1001
1001
0010
0100
,
0001
1000
0001
0010
,
0110
0110
0100
1000
,
0010
0001
0100
1000
,
1001
1001
0010
0100
,
0001
0010
0100
1000
,
2001
0001
0001
3001
,
0001
0100
0010
1000
,
1002
1000
1000
1003
,
0010
0100
0001
0010
,
0210
0010
0010
0310
,
0100
1000
0001
0100
,
0120
0100
0100
0130
,
0001
0010
0100
1000
,
0001
0000
0010
0000
,
0100
0100
0100
0000
,
1000
0000
0010
0000
,
0100
0000
0000
0000
,
0010
0000
1000
0000
,
0001
0001
0001
0000
,
0010
0000
0100
0000
,
1000
1000
1000
0000
,
1001
0000
0110
0000
,
0010
0000
0100
0000
,
1000
1000
1000
0000
,
0010
0000
0100
0000
,
0001
0000
0010
0000
,
0100
0100
0100
0000
,
0010
0000
0001
0000
,
1000
0000
0010
0000
,
0200
0000
0000
0000
,
0000
0000
0300
0000
,
0001
0100
0010
0000
,
1000
0000
0000
0000
,
0100
1000
0001
0010
,
0100
1000
0020
0230
,
0301
0100
0010
1000
,
0001
0000
0000
0001
0000
0000
0000
0000
1000
0000
0000
1000
0000
0000
0000
0000
,
0010
0100
0001
0010
,
0100
1000
0020
2030
,
3001
0100
0010
1000
,
0100
0000
0000
0100
0000
0000
0000
0000
0010
0000
0000
0010
0000
0000
0000
0000
,
0010
0000
0010
0000
,
0100
0000
0100
0000
,
1000
0000
0001
0000
,
0200
0000
0300
0000
,
0010
0000
0010
0000
,
0100
0000
0100
0000
,
0001
0000
0001
0000
,
2000
0000
3000
0000
,
0001
0000
0001
0000
,
1000
0000
0020
0030
,
0100
0000
0100
0000
,
0020
0000
0130
0110
,
1001
0000
0001
0000
,
1000
0000
1000
0000
,
0001
0001
1000
1000
,
0020
0030
0000
0000
,
0100
0000
0100
0000
,
0001
0000
0001
0000
,
1000
1000
0001
0001
,
0020
0030
0100
0010
,
0110
0000
0000
0000
;

//---------------dance-single - ----------------
#NOTES:
     dance-single:
     :
     Medium:
     5:
     0.350833,0.380747,0.280133,0.135398,0.037351,526.000000,466.000000,60.000000,29.000000,0.000000,0.000000,0.350833,0.380747,0.280133,0.135398,0.037351,526.000000,466.000000,60.000000,29.000000,0.000000,0.000000:
0000
0000
0000
0000
,
0100
0000
1000
0000
,
0001
0000
1000
0100
1000
0100
0000
0000
,
0010
0001
0100
0010
,
1000
0000
0001
0100
0001
2000
0000
3000
,
0000
1010
0000
0101
0000
0000
1000
0100
,
1000
0000
0001
0010
0001
0000
0100
0010
,
0100
0000
0001
1000
0001
0000
1000
0100
,
0020
0032
0023
0230
,
2300
3002
0203
0320
,
1030
0000
0100
1000
0001
1000
0000
0000
,
0001
0000
0100
0001
0010
0001
0000
0000
,
1000
0001
0100
0001
,
1000
1001
0110
1001
,
0020
0000
1030
0000
0100
1000
0001
0000
,
0100
0001
0020
1000
,
0031
0000
1000
0000
0001
0100
1000
0000
,
0010
1000
0010
2000
0000
0000
3001
0000
,
0110
0000
1001
0000
0010
1000
0001
0000
,
0010
0100
2000
0100
,
3010
0000
0001
0000
0100
0001
1000
0000
,
1010
0001
0011
0100
,
1000
0000
0000
0000
,
0000
0000
0000
0000
,
0000
0000
0000
0000
,
0000
0000
0000
0000
,
1001
0000
1000
0001
0000
0001
0100
0010
,
1000
0000
0000
1000
0000
0000
1000
0000
0100
0000
0000
0000
0110
0000
0000
0000
,
0001
0100
0001
1000
0000
0000
0000
1000
,
0100
0010
0001
1001
,
0001
0000
0100
0001
0000
0000
0000
0010
,
0000
0001
0010
0000
0110
0000
1001
0000
,
1000
0000
0010
0100
0000
0000
0000
0100
,
0001
0010
0100
0000
0100
1000
0010
0000
,
1010
0000
1000
0001
0000
0000
0000
0001
,
0000
0010
0001
0000
0101
0000
1100
0000
,
1000
0000
1000
0001
0000
0001
0020
0000
,
0000
0200
0300
0031
,
0101
0000
1010
0000
0010
1000
0001
0000
,
0010
0000
0100
0000
1000
0001
0100
0000
,
1010
0000
0101
0000
0001
1000
0100
0000
,
0010
0000
0100
0000
1000
0010
0100
0000
,
1001
0000
0110
0000
0010
0001
1000
0000
,
0010
0000
0100
0000
0010
1000
0001
0000
,
0011
0000
1100
0000
1000
0001
0100
0000
,
0010
0000
0100
0000
0001
0010
0100
0000
,
1100
0000
1100
0000
1000
0010
1000
0000
,
0010
1000
0010
0000
0100
0000
0001
0000
,
0011
0000
0011
0000
0001
0100
0001
0000
,
0100
0001
0100
0000
0010
0000
1000
0000
,
1010
0000
1001
0000
0001
0010
0001
0000
,
0001
1000
0001
0000
1000
0000
0010
0000
,
0110
0000
0101
0000
0001
0100
0001
0000
,
0010
0100
0010
0000
0001
1000
0010
0000
,
0011
0000
1100
0000
0011
0000
0100
1000
,
0000
0001
0100
0000
1010
0000
0010
0000
,
0100
0000
0101
0000
1001
0000
1000
0100
,
0000
0010
0001
0000
0011
0000
0100
0000
,
1100
0000
1001
0000
0101
0000
0001
0010
,
0000
0001
1000
0000
1001
0000
0110
0000
,
0010
0000
0011
0000
1100
0000
0010
1000
,
0000
0001
0100
0000
0110
0000
1001
0000
,
0001
0000
0010
0000
0100
1000
0001
0000
,
0100
0000
0010
0100
0000
0010
0100
0000
,
0001
0000
0010
0000
0100
1000
0001
0000
,
0100
0000
0010
0100
0000
0010
0100
0000
,
0001
0010
0100
0110
,
0100
1000
0001
1001
,
0001
0000
0100
0000
0010
0000
1000
0100
,
0000
0010
0001
0000
1000
0000
0010
0000
,
0200
0000
0000
0000
,
0000
0000
0300
0000
,
0100
0001
1000
0100
,
1000
0000
0000
0001
0000
0000
1000
0000
0000
0001
0000
0000
1000
0000
0001
0000
,
0001
0000
1000
0000
0001
0000
0000
0000
0100
0000
0000
0001
0000
0000
0001
0000
,
1000
0010
1000
0000
0200
0000
0320
0000
,
0030
0000
0100
0000
0010
0000
0000
0000
0001
0000
0000
1000
0000
0000
0010
0000
,
0100
0000
0000
0100
0000
0000
0000
0000
0001
0000
0000
0001
0000
0000
0000
0000
,
1000
0000
0100
0000
1000
0000
0000
0000
0001
0000
0000
0100
0000
0000
0100
0000
,
0010
1000
0001
0000
0020
0000
0230
0000
,
0300
0000
0010
0000
0100
0000
0000
0000
1000
0000
0000
0010
0000
0000
1000
0000
,
0001
0000
0000
0001
0000
0000
0000
0000
1000
0000
0000
1000
0000
0000
0000
0000
,
0001
0000
0000
0000
1000
0100
1000
0001
,
1000
0000
0000
0000
0100
0010
1000
0001
,
0200
0302
2003
3200
,
0320
0000
0030
0000
0001
0010
0100
1000
,
0001
0100
0001
0000
1000
0000
1001
0000
,
1000
0010
0100
0001
0020
0000
0130
0000
,
1000
0100
1000
0100
0010
0001
0010
0002
,
0000
0000
1003
0000
1000
0010
0100
0001
,
1000
0100
1000
0001
1000
0100
1000
0000
,
0001
0100
0001
1000
0002
0000
0013
0000
,
0100
1000
0010
0100
0001
0010
0100
2000
,
0000
0000
3100
0000
0100
0010
0100
0000
,
1001
0000
0101
0000
0010
1000
0001
0000
,
1001
0000
1100
0000
0010
0001
1000
0000
,
0001
0000
1000
0000
0000
0001
0000
0000
1000
0000
0000
0000
0100
0000
0000
0000
,
0010
0000
0110
0000
0001
0010
0100
1000
,
0001
0000
1001
0000
0001
0100
0010
1000
,
0001
0000
1001
0000
1000
0010
0100
0001
,
1000
0000
0001
0000
0000
1000
0000
0000
0001
0000
0000
0000
0100
0000
0000
0000
,
0010
0000
0000
0000
0110
0000
0000
0000
0001
0000
0000
0010
0000
0100
0000
1000
;

//---------------dance-single - ----------------
#NOTES:
     dance-single:
     :
     Hard:
     7:
     0.440209,0.499731,0.294140,0.191424,0.154073,660.000000,597.000000,63.000000,41.000000,0.000000,0.000000,0.440209,0.499731,0.294140,0.191424,0.154073,660.000000,597.000000,63.000000,41.000000,0.000000,0.000000:
0000
0000
0000
0000
,
2000
0000
0000
0000
3001
0000
0010
0100
,
1000
0000
0001
1000
0010
0100
0010
0000
,
1000
0001
0100
0001
1000
0100
1000
0010
,
0100
0000
0001
0100
0010
1000
0010
0000
,
1000
1100
0000
0101
0000
0001
0010
0100
,
1000
0000
0001
0000
1000
1000
0010
0100
,
0001
0000
1000
0001
0100
0100
0010
1000
,
0002
0023
0230
2300
,
3001
0100
0001
0010
0001
1000
0001
0100
,
0000
0010
1000
0100
1000
0000
0100
0010
,
0001
0100
0001
0100
0020
0000
1030
0100
,
0010
0001
0100
0001
0010
0100
1000
0001
,
0100
0110
0101
1001
,
1020
0000
0230
0000
0301
0010
0100
0020
,
0000
0000
0031
0000
1000
0000
0100
0000
0110
0000
0000
1100
0000
0000
1001
0000
,
0000
0000
0100
0001
1000
0100
1000
0010
,
0100
0001
0010
0001
1000
0001
0010
0000
,
0021
0000
0230
0000
1300
0010
0100
0020
,
0000
0000
1030
0000
0001
0000
0100
0000
0110
0000
0000
0101
0000
0000
1001
0000
,
0000
0000
0100
1000
0001
0100
0001
0010
,
0100
1000
0010
1000
0001
1000
0010
0000
,
0100
0000
0000
0000
,
0000
0000
0000
0000
,
0000
0000
0000
0000
,
0000
0000
0000
0000
,
0100
0010
0001
0100
0000
0100
0001
0010
,
0100
0000
0000
1000
0000
0000
0010
0000
0100
0000
0000
0000
1001
0000
0000
0000
,
0001
0100
0010
0100
0001
0100
0010
0100
,
0001
0000
0010
0100
1000
0000
0010
0000
,
1000
0100
0010
0001
0000
0000
0000
0000
,
0001
0001
1000
0001
0100
0010
1000
0000
,
1000
0100
1000
0001
0000
0000
0000
0100
,
0001
0010
0100
1000
0100
0000
0100
0000
,
0010
0001
0100
0010
0000
0000
0000
0110
,
0000
0010
1000
0100
0001
0100
1000
0000
,
1010
0000
0100
0101
0000
0001
0011
0000
,
0000
0000
0000
0010
0100
0000
0000
0000
0000
0000
0000
0100
0010
0000
0000
0000
,
0110
0000
0101
0000
0001
1000
0100
0000
,
1000
0010
1000
0100
1000
0001
0010
0000
,
0110
0000
1100
0000
1000
0001
0100
0000
,
0001
0010
0001
1000
0010
1000
0100
0000
,
0011
0000
1100
0000
1000
0001
0100
0000
,
0010
0100
0001
0100
0010
1000
0100
0000
,
1100
0000
0011
0000
0001
0010
0001
0000
,
1000
0010
1000
0100
0010
0100
1000
0000
,
1001
0000
0101
0000
0001
0100
0010
0000
,
0010
0100
0001
1000
0100
0010
0001
0000
,
0011
0000
1100
0000
1000
0001
0100
0000
,
0010
0100
0001
0010
0001
1000
0010
0000
,
1010
0000
0110
0000
0100
0001
0010
0000
,
0010
0001
1000
0010
0001
0010
1000
0000
,
1010
0000
0101
0000
0001
0010
0001
0000
,
1000
0100
0001
0100
1000
0010
0101
0000
,
0001
1000
0100
0000
0011
0000
0100
1000
,
0000
0010
0100
0000
0101
0000
0001
1000
,
0000
0100
0010
0000
0011
0000
0100
1000
,
0000
0010
0100
0000
0101
0000
0010
1000
,
0000
0010
0001
0000
0011
0000
0010
1000
,
0000
0100
0001
0000
0101
0000
0100
1000
,
0000
0001
0100
0000
1010
0000
0010
0001
,
0000
0010
1000
0000
1001
0000
0110
0000
,
0010
0000
0011
0000
1100
0000
0001
0200
,
0310
0000
0100
0001
0000
1000
0100
0000
,
0011
0000
1100
0000
1001
0000
0001
1000
,
0010
0000
0100
0001
0000
1000
0100
0000
,
0011
0000
1100
0000
1001
0000
0001
0100
,
0000
0010
0100
0000
0101
0000
0001
0010
,
0000
1000
0010
0000
0011
0000
0100
1000
,
0000
0001
0100
0000
1010
0000
0101
0000
,
2002
0000
0000
0000
,
0000
0000
3003
0000
,
0100
0010
1000
0001
,
1000
0000
0000
0100
0000
0000
0010
0000
0000
0001
0000
0000
0100
0000
0010
0000
,
1000
0000
0100
0000
0010
0000
0001
0000
0100
0000
0010
1000
0000
0010
1000
0000
,
0001
0100
0010
1000
2020
3030
0022
0033
,
0000
0000
0010
0000
0100
0000
0000
0000
1000
0000
0001
0010
0000
0000
0100
0000
,
1000
0000
0000
0010
0000
0000
0100
0000
0000
0001
0000
0000
1000
0000
0100
0010
,
0100
0000
0010
0000
0001
0000
1000
0000
0010
0000
0100
0001
0000
0100
0001
0000
,
0010
0001
0100
0010
0220
0330
2002
3003
,
1000
0000
0010
0000
0001
0000
0000
0000
0010
0000
0100
0001
0000
0000
1000
0000
,
0100
0000
0000
0001
0000
0000
0100
0000
0000
1000
0000
0000
0010
0000
1000
0001
,
2000
0000
3000
0000
0000
0000
0000
0000
1000
0100
0000
0010
0000
0001
0100
0002
,
0000
0000
0003
0000
0100
0000
0000
0000
0010
1000
0000
0001
0000
0010
0100
0010
,
0000
0000
0002
0000
0000
0203
0000
0000
0320
0000
0000
0000
2030
0000
0000
0000
,
3100
0000
0000
0000
1000
0010
0100
0001
,
1000
0000
0100
1000
0000
0100
1000
0000
0010
0000
0100
0000
0101
0000
0000
0000
,
0001
0000
0100
0010
0000
0100
0010
0000
2000
0000
0000
0000
3001
0000
0000
0000
,
0010
0000
0100
0000
1000
0000
0001
0000
0100
0000
0010
0000
1000
0001
2000
0000
,
0000
0000
3001
0000
1000
0010
0100
0001
,
1000
0000
0100
0010
0000
0100
0010
0000
0001
0000
1000
0000
1100
0000
0000
0000
,
0001
0000
1000
0010
0000
0100
0000
0000
0002
0000
0000
0000
0103
0000
0000
0000
,
1000
0000
0010
0000
1000
0000
0001
0000
0010
0000
0001
0000
0100
0010
0200
0000
,
0000
0000
0000
0000
0310
0000
0000
0000
0001
0100
0000
0001
0010
0000
0100
1000
,
0100
0000
0010
0000
0001
0000
1000
0000
0010
1000
0000
0100
0010
0000
0001
1000
,
0001
0000
0100
0000
0010
0000
1000
0000
0001
0010
0000
0100
1000
0000
0001
0100
,
0001
0000
2000
0000
0000
3020
0000
0000
0230
0000
0301
0100
0001
0000
1000
0100
,
2000
0000
0000
0000
3100
0000
0000
0000
0001
0010
0000
0100
1000
0000
0001
0100
,
0001
0000
0100
0000
0010
0000
1000
0000
0100
1000
0000
0001
0100
0000
0010
0100
,
0010
0000
1000
0000
0100
0000
0010
0000
0001
0010
0000
0100
0010
0000
0001
1000
,
0001
0000
0200
0000
0000
0320
0000
0000
2030
0000
3001
0100
0001
0000
1000
0100
,
2000
0000
0000
0000
3100
0000
0000
0000
0010
0001
0000
1000
0000
0010
0100
0010
;

//---------------dance-double - ----------------
#NOTES:
     dance-double:
     :
     Hard:
     7:
     0.425535,0.452138,0.219437,0.093378,0.233444,638.000000,591.000000,47.000000,20.000000,0.000000,0.000000,0.425535,0.452138,0.219437,0.093378,0.233444,638.000000,591.000000,47.000000,20.000000,0.000000,0.000000:
00000000
00000000
00000000
00000000
,
00000000
00000000
00000000
00010000
,
00001000
00000000
00000100
00000001
00000010
00000010
00001000
00000000
,
00010000
00000000
01000000
10000000
00100000
00100000
00010000
00000000
,
00001000
00000000
00000010
00000001
00000100
00000100
00001000
00000000
,
00010000
01000000
10000000
00000000
00100000
00000000
00010000
00000000
,
00001000
00000010
00000001
00000001
00000100
00001000
00010000
00000000
,
00010000
00100000
10000000
10000000
01000000
00010000
00001000
00000000
,
00000010
00000001
00000100
00000010
00001000
00000100
00010000
00001000
,
00100000
00100000
00010000
01000000
10000000
01000000
00010000
00100000
,
00001000
00000000
00010000
00000000
00000100
00000000
00000000
00000010
00000001
00000000
00000100
00000000
00001000
00000000
00000000
00000000
,
00010000
00000000
00001000
00000000
01000000
00000000
00000000
00100000
10000000
00000000
10000000
00000000
01000000
00000000
00010000
00001000
,
00000000
00000000
00000100
00000001
00000010
00000100
00001000
00000100
,
00010100
00000000
00000000
00000000
01001000
00000000
00000000
00000000
01000000
00010000
00000000
00000000
10010000
00000000
00000000
00000000
,
10000000
00000000
00000000
10000000
01000000
00000000
00010000
00000000
00001000
00000000
00000000
00000000
00000000
00000000
00000010
00000000
,
00000001
00000000
00000000
00000001
00000100
00000000
00001000
00000000
00010000
00000000
00000000
00000000
00000100
00000000
00000000
00000000
,
00000010
00000000
00000000
00000010
00000001
00000000
00000100
00000000
00001000
00000000
00000000
00000000
00000000
00000000
00010000
00000000
,
00100000
00000000
00000000
10100000
00000000
00000000
11000000
00000000
00000000
00000000
00011000
00000000
00000000
00000000
00000010
00000000
,
00000001
00000000
00000000
00000001
00000100
00000000
00001000
00000000
00010000
00000000
00000000
00000000
00000000
00000000
00100000
00000000
,
10000000
00000000
00000000
10000000
01000000
00000000
00010000
00000000
00001000
00000000
00000000
00000000
01000000
00000000
00000000
00000000
,
00100000
00000000
00000000
00100000
10000000
00000000
01000000
00000000
00010000
00000000
00000000
00000000
00000000
00000000
00001000
00000000
,
00001010
00000011
00001001
00000000
,
00000000
00000000
00000000
00000000
,
00000000
00000000
00000000
00000000
,
00000000
00000000
00000000
00000000
,
00000000
00000000
00000000
00000000
,
01000000
10000000
00100000
01000000
00000000
00010000
00100000
00001000
,
00010000
00000000
00000000
00001000
00000000
00000000
00010000
00000000
01000000
00000000
00000000
00000000
01100000
00000000
00000000
00000000
,
01000000
00100000
00001000
00000100
00000000
00000010
00000100
00000001
,
00000020
00000230
00020300
00031000
,
00001000
00100000
00010000
10000000
00000000
00100000
10000000
01000000
,
00010000
01000000
10000000
01000000
00010000
00001000
00010000
00000000
,
00001000
00010000
00000000
00022000
00000000
00000000
00033000
00010000
,
00000100
00001000
00000100
00000000
00000110
00000000
00001001
00000000
,
00000001
00000100
00001000
00010000
00000000
00011000
00000000
00010000
,
00001000
00100000
00010000
10000000
00100000
10000000
00010000
00000000
,
10010000
00000000
10000000
01000000
00000000
00010000
00001000
00000000
,
00000000
00000000
00000000
00001000
00020000
00000000
00000000
00000000
00000000
00000000
00031000
00010000
00001000
00000000
00000000
00000000
,
00001001
00000000
00000000
00000000
00000101
00000000
00000000
00000001
00000000
00000010
00000100
00000000
00000000
00000000
00000000
00000000
,
00000000
00000000
00010000
00000000
00000000
00010000
00000000
00001000
00000000
00000000
00100000
00000000
00100000
00010000
00000000
00000000
,
10010000
00000000
00000000
00000000
11000000
00000000
00000000
10000000
00000000
00100000
01000000
00000000
00000000
00000000
00000000
00000000
,
00000000
00000000
00001000
00000000
00000000
00001000
00000000
00010000
00000000
00000000
00000010
00000000
00000010
00001000
00000000
00000000
,
00001001
00000000
00000000
00000000
00000011
00000000
00000000
00000001
00000000
00000100
00000010
00000000
00000000
00000000
00000000
00000000
,
00000000
00000000
00010000
00000000
00000000
00010000
00000000
00001000
00000000
00000000
01000000
00000000
01000000
00010000
00000000
00000000
,
10010000
00000000
00000000
00000000
10100000
00000000
00000000
10000000
00000000
01000000
00100000
00000000
00000000
00000000
00000000
00000000
,
00000000
00000000
00001000
00000000
00000000
00001000
00000000
00010000
00000000
00000000
00000100
00000000
00000100
00001000
00000000
00000000
,
00000001
00000000
00000010
00000000
00001000
00000000
00000000
00010000
00000000
00010000
00000010
00000000
00001000
00000000
00000000
00000000
,
00010000
00000000
01000000
00000000
00100000
00000000
10000000
00010000
00000000
00000000
00100000
00000000
01000000
10000000
00000000
00000000
,
10000000
00000000
00100000
00000000
00010000
00000000
00000000
00001000
00000000
00001000
00100000
00000000
00010000
00000000
00000000
00000000
,
00001000
00000000
00000100
00000000
00000010
00000000
00000001
00001000
00000000
00000000
00000100
00000000
00000010
00000001
00000000
00000000
,
00000001
00000000
00000100
00000000
00001000
00000000
00000000
00010000
00000000
00010000
00000100
00000000
00001000
00000000
00000000
00000000
,
00010000
00000000
00100000
00000000
01000000
00000000
10000000
00010000
00000000
00000000
01000000
00000000
00100000
10000000
00000000
00000000
,
10000000
00000000
01000000
00000000
00010000
00000000
00000000
00001000
00000000
00001000
01000000
00000000
00010000
00000000
00000000
00000000
,
00001000
00000000
00000010
00000000
00000100
00000000
00000001
00000100
00000000
00000000
00000000
00000000
00000000
00000000
00001000
00000000
,
00000000
00001000
00100000
00000000
00110000
00000000
00100000
00010000
,
00000000
00010000
10000000
00000000
10100000
00000000
10000000
00100000
,
00000000
00100000
00010000
00000000
00001100
00000000
00000100
00000010
,
00000000
00000100
00001000
00000000
11000000
00000000
01000000
10000000
,
00000000
01000000
00010000
00000000
00011000
00000000
00010000
00000100
,
00000000
00000100
00001000
00000000
00001001
00000000
00001000
00000010
,
00000000
00000010
00010000
00000000
00110000
00000000
00100000
01000000
,
00000000
00000000
00100000
00000000
00001000
00000000
00000000
00000000
00010000
00000000
00001000
00010000
00001000
00000000
00010000
00000000
,
00000100
00000000
00000110
00000000
00000001
00000100
00001000
00010000
,
01000000
00000000
00000000
11000000
00000000
00000000
10010000
00000000
,
10000000
00100000
00010000
00001000
00000010
00000001
00000100
00001000
,
00010000
00000000
00000000
00000000
00000000
00000000
00001000
00000000
00010000
00000000
00001000
00010000
00001000
00000000
00010000
00000000
,
00000000
00001000
01000000
00000000
01010000
00000000
01000000
00100000
,
00000000
10000000
01000000
00000000
01100000
00000000
01000000
00100000
,
00000000
00100000
00001000
00000000
00011000
00000000
00010000
00000100
,
00000000
00000000
00000100
00000000
00000010
00000000
00000000
00000000
00000110
00000000
00001000
00000001
00001000
00000000
00000001
00000000
,
00000200
00000000
00000000
00000000
,
00000000
00000000
00000300
00000000
,
00000001
00000000
00000000
00000010
00000000
00000000
00000100
00000000
00000000
00001000
00000000
00000000
00000100
00000000
00000000
00000000
,
00010000
00000000
00000000
00001000
00000000
00000000
00100000
00000000
00000000
00010000
00000000
00000000
10010000
00000000
00000000
00000000
,
01000000
00000000
00010000
00000000
10000000
00000000
01000000
00000000
00010000
00000000
00000000
00001000
00000000
00000000
00000100
00000000
,
00000001
00000000
00000010
00000001
00000000
00000000
00000200
00000000
00000000
00000000
00001300
00000000
00010000
00000000
00100000
00000000
,
10000000
00000000
01000000
00000000
00100000
00000000
00000000
00000000
00101000
00000000
00000000
00011000
00000000
00000000
00010000
00000000
,
00001000
00000000
00000000
00000100
00000000
00000000
00000001
00000000
00000010
00000000
00000000
00000000
00001001
00000000
00000000
00000000
,
00000100
00000000
00001000
00000000
00000001
00000000
00000100
00000000
00001000
00000000
00000000
00010000
00000000
00000000
01000000
00000000
,
10000000
00000000
00100000
10000000
00000000
00000000
02000000
00000000
00000000
00000000
03010000
00000000
00001000
00000000
00000010
00000000
,
00000001
00000000
00000100
00000000
00000010
00000000
00000000
00000000
00010010
00000000
00000000
00011000
00000000
00000000
00001000
00000000
,
00010000
00000000
00000000
01000000
00000000
00000000
10000000
00000000
00100000
00000000
00000000
00000000
10010000
00000000
00000000
00000000
,
00000000
00000000
00000000
00000000
00000000
00000000
00000000
00000000
00100000
10000000
00000000
00010000
00000000
01000000
00001000
00020000
,
00000000
00000000
00000000
00000000
00030100
00000000
00000000
00000000
00001000
00000001
00000000
00000100
00000000
00000010
00001000
00000010
,
00000000
00000000
00020000
00000000
00000000
00032000
00000000
00000000
02003000
00000000
00000000
00000000
03200000
00000000
00000000
00000000
,
10300000
01000000
00100000
00010000
01000000
00001000
00010000
00000010
,
00001000
00000000
00000001
00000010
00000000
00000001
00000010
00000000
00000100
00000000
00010000
00000000
00001000
00000000
01000000
00000000
,
00010000
00000000
10000000
00100000
00000000
10000000
00100000
00000000
01000000
00000000
00001000
00000000
00010000
00000000
00000100
00000000
,
00001000
00000000
00000001
00000000
00000100
00000010
00000000
00000100
00000000
00000001
00000000
00000000
00001000
00000000
00000010
00000000
,
00020000
00000000
00001000
00000000
00031000
01000000
00100000
10000000
,
00010000
00000000
10000000
01000000
00000000
10000000
01000000
00000000
00100000
00000000
00001000
00000000
00010000
00000000
00000010
00000000
,
00001000
00000000
00000000
00000001
00000000
00000100
00000000
00000000
00000010
00000000
00000000
00000000
00001001
00000000
00000000
00000000
,
00001000
00000100
00000010
00000001
00001000
00000100
00010000
00001000
,
02000000
00000000
00000000
00000000
00000000
00000000
00000000
00000000
03010000
10000000
00000000
10000000
01000000
00000000
00100000
00000000
,
00001000
00000000
00010000
00000000
00000100
00000000
00001000
00000000
00000001
00000010
00000000
00000001
00000100
00000000
00000010
00000000
,
00001000
00000000
00000100
00000000
00000010
00000000
00000001
00000000
00001000
00000001
00000000
00000001
00000100
00000000
00000010
00000000
,
00010000
00001000
01000000
00100000
10000000
00000000
01000000
00000000
,
20020000
00000000
00000000
00000000
30030000
00000000
00000000
00000000
00010000
10000000
00000000
10000000
00100000
00000000
01000000
00000000
,
00001000
00000000
00010000
00000000
00000010
00000000
00001000
00000000
00000001
00000100
00000000
00000001
00000010
00000000
00000100
00000000
,
00001000
00000000
00000010
00000000
00000100
00000000
00000001
00000000
00001000
00000001
00000000
00000001
00000010
00000000
00000100
00000000
,
00010000
00001000
00100000
01000000
10000000
00000000
01000000
00000000
,
20020000
00000000
00000000
00000000
30030000
00000000
00000000
00000000
00010000
10000000
00000000
10000000
00000000
00100000
01000000
00001000
;

//---------------dance-double - ----------------
#NOTES:
     dance-double:
     :
     Medium:
     6:
     0.338161,0.380981,0.228775,0.112053,0.028013,507.000000,458.000000,49.000000,24.000000,0.000000,0.000000,0.338161,0.380981,0.228775,0.112053,0.028013,507.000000,458.000000,49.000000,24.000000,0.000000,0.000000:
00000000
00000000
00000000
00000000
,
00000000
00000000
00000000
00001000
,
00010000
00000000
00000100
00000000
00000010
00000100
00000000
00000000
,
00010000
00000000
00001000
00000000
01000000
00000000
00100000
10000000
,
00100000
00000000
01000000
00000000
00001000
00010000
00001000
00000000
,
00000200
00000000
00000320
00000000
,
00000130
00000000
00000001
00000100
00001000
00000000
00010000
00000000
,
01000000
00000000
10000000
01000000
00010000
00000000
01000000
00000000
,
10000000
00000000
00100000
01000000
00010000
00000000
00100000
00000000
,
00001000
00000000
00010000
00000100
00000010
00000100
00010000
00000000
,
00002000
00000000
00000000
00000000
00000100
00000100
00000000
00000000
,
00023000
00000000
00000000
00000000
01000000
01000000
00000000
00000000
,
00031000
00000000
00000100
00000001
00001000
00000001
00000100
00000010
,
00010000
00011000
00001000
00011000
,
00100000
00000000
10000000
00000000
01000000
00100000
01000000
00010000
,
00000000
00001000
00000100
00000001
00001000
00000000
00000010
00000000
,
00000100
00000000
00000001
00000000
00000010
00000100
00000010
00001000
,
00000000
00010000
00100000
10000000
00010000
00000000
00100000
00000000
,
01000000
00000000
10000000
00000000
00100000
01000000
00100000
00010000
,
00000000
00001000
00000010
00000001
00001000
00000000
00000100
00000000
,
00000010
00000000
00000001
00000000
00000100
00000010
00000100
00001000
,
00000000
00010000
01000000
10000000
00010000
00000000
01000000
00000000
,
00000000
00000000
00000000
00000000
,
00000000
00000000
00000000
00000000
,
00000000
00000000
00000000
00000000
,
00000000
00000000
00000000
00000000
,
00002000
00000000
00000000
00013000
00000000
00000000
00010000
00000000
,
00001000
00010000
00001000
00011000
,
00010000
01000000
10000000
01000000
,
00010000
00001000
00000100
00001000
,
00021000
00000000
00000000
00030010
00000000
00000000
00000000
00010000
,
00000000
00000010
00010000
00001000
00100000
00000000
00010000
00000000
,
10000000
01000000
00000000
00200000
00000000
00000000
00300000
00100000
,
00001000
00100000
00010000
00000000
00001000
00000000
00000001
00000000
,
00000101
00000000
00000000
00001001
00000000
00000000
00001000
00000000
,
00000001
00000010
00001000
00000000
00010000
00000000
00001000
00000000
,
00011000
00000000
00100000
00010000
00000000
10000000
00200000
00000000
,
00000000
02000000
00000000
03300000
,
01010000
00000000
11000000
00000000
00010000
10000000
01000000
00000000
,
10000000
00100000
00000000
01000000
00001000
00000000
00011000
00000000
,
00001100
00000000
00000101
00000000
00001000
00000001
00000100
00000000
,
00000001
00000010
00000000
00000100
00000000
00000010
00001000
00000000
,
00011000
00000000
00011000
00000000
00100000
10000000
01000000
00000000
,
00010000
00001000
00000000
00001000
00000000
00010000
00000010
00000000
,
00011000
00000000
00011000
00000000
00000010
00000001
00000100
00000000
,
00001000
00010000
00000000
00010000
00000000
00001000
00100000
00000000
,
00110000
00000000
10010000
00000000
10000000
01000000
00010000
00000000
,
00000000
00000000
00001000
00000000
00000000
00001000
00000000
00000010
00000000
00000000
00000001
00000000
00000100
00000000
00000000
00000000
,
00001010
00000000
00001001
00000000
00000001
00000100
00001000
00000000
,
00000000
00000000
00010000
00000000
00000000
00010000
00000000
00100000
00000000
00000000
10000000
00000000
01000000
00000000
00000000
00000000
,
01100000
00000000
10010000
00000000
10000000
00100000
00010000
00000000
,
00001000
00000010
00000001
00000100
00000000
00000100
00000010
00000000
,
00000110
00000000
00001001
00000000
00000001
00000010
00001000
00000000
,
00011000
01010000
11000000
00000000
,
00010000
00000000
00000010
00000000
00000110
00000000
00000100
00000001
,
00000000
00000010
00000100
00000000
00000110
00000000
00000100
00000000
,
00010000
00000000
00001000
00000000
00011000
00000000
00001000
00100000
,
00000000
00010000
00100000
00000000
01100000
00000000
01000000
00000000
,
10000000
00000000
00010000
00000000
01010000
00000000
01000000
00001000
,
00000000
00010000
00001000
00000000
00011000
00000000
00010000
00000000
,
00000100
00000000
00000010
00000000
00000101
00000000
00000100
00001000
,
00000000
00010000
00001000
00000000
00011000
00000000
00001000
00000000
,
00011000
01000000
10000000
01000000
,
00010000
00000000
00000000
00001000
00000000
00000000
00000000
00000000
,
00001000
00000100
00000001
00000100
,
00001000
00000000
00000000
00010000
00000000
00000000
00000000
00000000
,
00100000
00000000
10000000
00000000
11000000
00000000
10000000
01000000
,
00000000
00100000
00010000
00000000
10010000
00000000
10000000
00000000
,
00010000
00000000
01000000
00000000
01010000
00000000
01000000
00100000
,
00000000
00100000
01000000
00000000
01100000
00000000
00001000
00000000
,
00022000
00000000
00000000
00000000
,
00000000
00000000
00033000
00000000
,
10000000
01000000
00100000
00001000
,
00010000
00000100
00000010
00000001
,
00000001
00000000
00000100
00000000
00000010
00000000
00000000
00000000
00001000
00000000
00000000
00000100
00000000
00000000
00000100
00000000
,
00010000
00001000
00100000
00020000
00000000
10030000
01000000
00000000
,
10000000
00000000
00100000
00000000
01000000
00000000
00000000
00000000
00010000
00000000
00000000
00100000
00000000
00000000
00001000
00000000
,
00010000
00000000
00000000
00010000
00000000
00000000
00000000
00000000
00000010
00000000
00000000
00000010
00000000
00000000
00001000
00000000
,
00000001
00000000
00000010
00000000
00000100
00000000
00000000
00000000
00001000
00000000
00000000
00000010
00000000
00000000
00000010
00000000
,
00010000
00001000
01000000
00020000
00000000
10030000
00100000
00000000
,
10000000
00000000
01000000
00000000
00100000
00000000
00000000
00000000
00010000
00000000
00000000
01000000
00000000
00000000
00001000
00000000
,
00010000
00000000
00000000
00010000
00000000
00000000
00000000
00000000
00000100
00000000
00000000
00000100
00000000
00000000
00000010
00000000
,
00000001
00000000
00000000
00000000
00000010
00000100
00010000
00000100
,
00010000
00000000
00000000
00000000
00001000
00100000
01000000
10000000
,
00020000
02030000
03200000
20300000
,
30020000
00000000
00030000
00000000
10000000
01000000
10000000
00010000
,
10000000
00100000
01000000
00000000
00001000
00010000
00000100
00000000
,
00001000
00000010
00000100
00000001
00000020
00000000
00000130
00000000
,
00001000
00000100
00001000
00000100
00010000
00001000
00010000
00001000
,
00200000
00000000
00310000
00000000
10000000
00100000
01000000
00010000
,
01000000
00001000
00010000
00000100
00010000
00001000
00010000
00000000
,
00001000
01000000
00001000
00010000
00002000
00000000
00003100
00000000
,
00000010
00001000
00000100
00000010
00000001
00000100
00000010
00010000
,
00002000
00000000
01003000
00000000
00100000
01000000
00100000
00000000
,
00011000
00000000
00010010
00000000
00000010
00000100
00000010
00000000
,
00011000
00000000
01001000
00000000
01000000
00100000
01000000
00000000
,
00020000
10000000
01000000
10030000
,
01000000
00010000
00001000
00000100
00000001
00000000
00000010
00000100
,
00000010
00000000
00011000
00000000
00101000
00000000
00100000
01000000
,
00100000
00000000
00011000
00000000
00010100
00000000
00000100
00000010
,
00000100
00002000
00000001
00000100
,
00003001
00000000
00000100
00000000
00000010
00001000
00000001
00001000
,
00000100
00000000
00000000
00000000
;

//---------------dance-double - ----------------
#NOTES:
     dance-double:
     :
     Easy:
     3:
     0.192091,0.285736,0.093378,0.121391,0.009338,288.000000,268.000000,20.000000,26.000000,0.000000,0.000000,0.192091,0.285736,0.093378,0.121391,0.009338,288.000000,268.000000,20.000000,26.000000,0.000000,0.000000:
// measure 0
00000000
00000000
00000000
00000000
,  // measure 1
00000000
00000000
00000000
00000000
,  // measure 2
10000000
00000000
10000000
00000000
,  // measure 3
00010000
00000000
00010000
00000000
,  // measure 4
10000000
00000000
10000000
00000000
,  // measure 5
00100000
00000000
00010000
00000000
,  // measure 6
00001000
00001000
00000100
00000000
,  // measure 7
00000001
00000001
00000010
00000000
,  // measure 8
00000100
00000000
00000100
00000000
,  // measure 9
00010000
00000000
00010000
00000000
,  // measure 10
00001000
00100000
00100000
00000000
,  // measure 11
00010000
01000000
01000000
00000000
,  // measure 12
00100000
10000000
00010000
01000000
,  // measure 13
00001000
00010000
00001000
00010000
,  // measure 14
00000100
00000000
00000010
00000000
,  // measure 15
00000001
00000001
00000001
00000000
,  // measure 16
00001000
00000000
00000100
00000000
,  // measure 17
00010000
00010000
00001000
00000000
,  // measure 18
01000000
00000000
00100000
00000000
,  // measure 19
10000000
10000000
10000000
00000000
,  // measure 20
00010000
00000000
01000000
00000000
,  // measure 21
00001000
00001000
00010000
00000000
,  // measure 22
00000000
00000000
00000000
00000000
,  // measure 23
00000000
00000000
00000000
00000000
,  // measure 24
00000000
00000000
00000000
00000000
,  // measure 25
00000000
00000000
00000000
00000000
,  // measure 26
00000200
00000000
00000000
00000000
,  // measure 27
00010300
00010000
00001000
00011000
,  // measure 28
00001000
01000000
00000000
00100000
,  // measure 29
10000000
01000000
00010000
00001000
,  // measure 30
00020000
00000000
00000000
00032000
00000000
00000000
00003000
00000100
,  // measure 31
00000000
00001000
00010000
01000000
,  // measure 32
00010000
00000000
00000000
00002000
00000000
00000000
00013000
00000000
,  // measure 33
00000100
00001000
00000100
00000010
,  // measure 34
00000200
00000000
00000000
00002300
00000000
00000000
00003000
00000010
,  // measure 35
00000000
00000100
00000001
00000010
,  // measure 36
00002000
00000000
00000000
00023000
00000000
00000000
00230000
00000000
,  // measure 37
00000000
20000000
00000000
30300000
,  // measure 38
00011000
00011000
00001000
00000100
,  // measure 39
00000001
00001000
00000010
00000100
,  // measure 40
00011000
00011000
00010000
01000000
,  // measure 41
10000000
00010000
00100000
01000000
,  // measure 42
00011000
00011000
00001000
00000010
,  // measure 43
00000001
00001000
00000100
00000010
,  // measure 44
00011000
00011000
00010000
00100000
,  // measure 45
10000000
00010000
01000000
00100000
,  // measure 46
20010000
00010000
00010000
30010000
,  // measure 47
10000000
01000000
00010000
00001000
,  // measure 48
00012000
00010000
00010000
00013000
,  // measure 49
00010000
00001000
00000100
00000001
,  // measure 50
00001002
00001000
00001000
00001003
,  // measure 51
00000001
00000100
00001000
00010000
,  // measure 52
00021000
00001000
00001000
00031000
,  // measure 53
00001000
00000000
00010000
00000000
01000000
00000000
00000000
00010000
,  // measure 54
00000000
00000000
00000000
00000000
01000000
00000000
00000000
10000000
,  // measure 55
00000000
00000000
00000000
00000000
00100000
00000000
00000000
00010000
,  // measure 56
00000000
00000000
00000000
00000000
00001000
00000000
00000000
00000010
,  // measure 57
00000000
00000000
00000100
00000000
,  // measure 58
00000010
00001000
00000001
00000000
,  // measure 59
00000100
00001000
00010000
00000000
,  // measure 60
00010000
00001000
00010000
00000000
,  // measure 61
00001000
00010000
00011000
00000000
,  // measure 62
00010000
00010000
01000000
10000000
,  // measure 63
01000000
00000000
01000000
00000000
,  // measure 64
01000000
00010000
00001000
00000100
,  // measure 65
00000001
00000000
00000001
00000000
,  // measure 66
00000001
00000000
00000000
00000000
00000010
00000000
00000000
00000100
,  // measure 67
00000000
00000000
00000000
00000000
00010000
00000000
00000000
00001000
,  // measure 68
00000000
00000000
00000000
00000000
00100000
00000000
00000000
00100000
,  // measure 69
00000000
00000000
01000000
00000000
,  // measure 70
00022000
00000000
00000000
00000000
,  // measure 71
00000000
00000000
00033000
00000000
,  // measure 72
00100000
10000000
01000000
00000000
,  // measure 73
00010000
01000000
00100000
00000000
,  // measure 74
00100000
00100000
00010000
00010000
,  // measure 75
10000000
10000000
01000000
02200000
,  // measure 76
03300000
00001000
00010000
00000000
,  // measure 77
00000010
00000000
00000000
00000010
00000000
00000000
00000000
00000000
00000100
00000000
00000000
00000100
00000000
00000000
00000000
00000000
,  // measure 78
00000010
00000010
00001000
00001000
,  // measure 79
00000001
00000001
00000100
00000220
,  // measure 80
00000330
00010000
00001000
00000000
,  // measure 81
01000000
00000000
00000000
01000000
00000000
00000000
00000000
00000000
00100000
00000000
00000000
00100000
00000000
00000000
00000000
00000000
,  // measure 82
00000000
00000000
01000000
00000000
,  // measure 83
00001000
00000000
00001000
00000000
,  // measure 84
00010000
00000000
00000100
00000000
,  // measure 85
00000020
00000000
00000030
00000000
,  // measure 86
00000100
00000000
00000100
00000000
,  // measure 87
00010000
00000000
00010000
00000000
,  // measure 88
00001000
00000000
01000000
00000000
,  // measure 89
00200000
00000000
00300000
00000000
,  // measure 90
10000000
00000000
10000000
00000000
,  // measure 91
00010000
00000000
00200000
00300000
,  // measure 92
00001000
00000000
00001000
00000000
,  // measure 93
00020000
00000000
00130000
01100000
,  // measure 94
10010000
00000000
10000000
00000000
,  // measure 95
00010000
00000000
00010000
00000000
,  // measure 96
00100000
00100000
00001000
00001000
,  // measure 97
00020000
00030000
00000000
00000000
,  // measure 98
00000100
00000000
00000100
00000000
,  // measure 99
00000001
00000000
00000001
00000000
,  // measure 100
00001000
00001000
00000001
00000001
,  // measure 101
00000020
00000030
00000100
00000010
,  // measure 102
00000110
00000000
00000000
00000000
;
