#TITLE:NEXT FRONTIER;
#SUBTITLE:;
#ARTIST:NAOKI;
#TITLETRANSLIT:;
#SUBTITLETRANSLIT:;
#ARTISTTRANSLIT:;
#GENRE:;
#CREDIT:;
#BANNER:NEXT FRONTIER.png;
#BACKGROUND:NEXT FRONTIER-bg.png;
#LYRICSPATH:;
#CDTITLE:;
#MUSIC:NEXT FRONTIER.ogg;
#OFFSET:-0.261011;
#SAMPLESTART:53.053459;
#SAMPLELENGTH:12.799995;
#SELECTABLE:YES;
#BPMS:0.000000=150.000000
;
#STOPS:195.750000=1.200000
;
#BGCHANGES:;
#KEYSOUNDS:;
#ATTACKS:;

//---------------dance-single - ----------------
#NOTES:
     dance-single:
     :
     Beginner:
     2:
     0.103481,0.178799,0.009169,0.036677,0.000000,79.000000,78.000000,1.000000,4.000000,0.000000,0.000000,0.103481,0.178799,0.009169,0.036677,0.000000,79.000000,78.000000,1.000000,4.000000,0.000000,0.000000:
0000
0000
0000
0000
,
0000
0000
0000
0000
,
0000
0000
0000
0000
,
0000
0000
0000
0000
,
1000
0000
1000
0000
,
0001
0000
0001
0000
,
1000
0000
1000
0000
,
0020
0000
0030
0000
,
0100
0000
0000
0000
,
0100
0000
0100
0000
,
0010
0000
0000
0000
,
0010
0000
0010
0000
,
0100
0000
0000
0000
,
0100
0000
0100
0000
,
0010
0000
0000
0000
,
0010
0000
1000
0000
,
0001
0000
0000
0000
,
1000
0000
0000
0000
,
0010
0000
0000
0000
,
0100
0000
0000
0000
,
0001
0000
0000
0000
,
0010
0000
0000
0000
,
0100
0000
0000
0000
,
1000
0000
0000
0000
,
0001
0000
0000
0000
,
0001
0000
0000
0000
,
1000
0000
0000
0000
,
1000
0000
0000
0000
,
0010
0000
0000
0000
,
0010
0000
0000
0000
,
0100
0000
0000
0000
,
0100
0000
0000
0000
,
0020
0000
0000
0030
,
1000
0000
1000
0000
,
1000
0000
0000
0000
,
0001
0000
0001
0000
,
0001
0000
0000
0000
,
0010
0000
0010
0000
,
0010
0000
0000
0000
,
0100
0000
0100
0000
,
0100
0000
0000
0000
,
0002
0000
0003
0000
,
0000
0000
0000
0000
,
2000
0000
3000
0000
,
0000
0000
0000
0000
,
0100
0000
0100
0000
,
0100
0000
0000
0000
,
0100
0000
0100
0000
,
0100
0000
0000
0000
,
0001
0000
0000
0000
,
1000
0000
0000
0000
,
0001
0000
0000
0000
,
1000
0000
0000
0000
,
0010
0000
0000
0000
,
0100
0000
0000
0000
,
0010
0000
0000
0000
,
0100
0000
0000
0000
,
0001
0000
0001
0000
,
0001
0000
0000
0000
,
1000
0000
1000
0000
,
1000
0000
0000
0000
,
0010
0000
0010
0000
,
0010
0000
0000
0000
,
0100
0000
0100
0000
,
0100
0000
0100
0000
,
0110
0000
0000
0000
;

//---------------dance-single - ----------------
#NOTES:
     dance-single:
     :
     Easy:
     4:
     0.269836,0.332841,0.045846,0.100861,0.000000,206.000000,201.000000,5.000000,11.000000,0.000000,0.000000,0.269836,0.332841,0.045846,0.100861,0.000000,206.000000,201.000000,5.000000,11.000000,0.000000,0.000000:
0000
0000
0000
0000
,
0000
0000
0000
0000
,
0000
0000
0000
0000
,
0000
0000
0000
0000
,
1000
0000
1000
0000
,
0001
0000
0001
0000
,
0010
0000
0010
0000
,
0200
0000
0000
0300
,
0001
0001
1000
1000
,
0001
0001
0010
0010
,
0001
0001
1000
1000
,
0001
0001
0010
0010
,
0100
0100
1000
1000
,
0100
0100
0001
0001
,
0100
0100
1000
1000
,
0010
0100
0002
0000
,
1003
0100
1000
0000
,
0001
0100
0001
0000
,
1000
0010
1000
0000
,
0001
0010
0001
0010
,
0100
0010
0100
0000
,
0001
1000
0001
0000
,
0100
0010
0100
0000
,
0001
1000
0001
0000
,
1000
0010
0100
0001
,
1000
0001
0010
0100
,
1000
0001
0010
0100
,
1000
0100
0001
0100
,
0010
1000
0001
0010
,
0100
0010
0001
1000
,
0010
0100
0001
1000
,
0100
0010
0001
2000
,
0000
0000
0000
3000
,
0001
0001
1000
1000
,
0010
0100
0001
1000
,
0100
0100
0010
0010
,
0001
1000
0010
0100
,
0001
0001
1000
1000
,
0100
0010
0001
1000
,
0010
0010
0100
0100
,
0001
1000
0220
0330
,
0001
0100
0000
0100
,
0000
0100
0000
0100
,
0010
1000
0100
1000
,
0010
0100
0001
0010
,
0200
0000
1300
0000
,
0200
0000
0301
0000
,
0020
0000
1030
0000
,
0020
0000
0031
0000
,
0001
0000
0001
0000
,
1000
0000
1000
0000
,
0010
0000
0010
0000
,
0100
0000
0100
0000
,
0001
0100
0001
0100
,
1000
0100
1000
0100
,
0010
0100
0010
0100
,
0001
1000
0001
0000
,
1000
0010
0100
0001
,
1000
0100
1000
0100
,
0001
0010
0100
1000
,
0001
0100
0001
0100
,
0010
1000
0001
0010
,
0100
0010
0100
0010
,
1001
0000
1001
0000
,
1001
0010
0100
0001
,
2002
0000
0000
0000
,
3003
0000
0000
0000
;

//---------------dance-single - ----------------
#NOTES:
     dance-single:
     :
     Hard:
     9:
     0.623504,0.665683,0.201722,0.128369,0.316337,476.000000,454.000000,22.000000,14.000000,0.000000,0.000000,0.623504,0.665683,0.201722,0.128369,0.316337,476.000000,454.000000,22.000000,14.000000,0.000000,0.000000:
0000
0000
0000
0000
,
0000
0000
0000
0000
,
0000
0000
0000
0000
,
0000
0000
0000
0000
,
1000
0100
0010
0001
0100
0010
1000
0100
,
0010
0100
1000
0001
0100
0010
0100
0001
,
1000
0010
0100
0001
1000
0100
0010
0001
,
1000
0000
0000
0001
0000
0000
0100
0000
0000
0010
0000
0000
1000
0000
0001
0000
,
1000
0100
0001
0100
1000
0100
0001
0100
,
1000
0100
0001
0100
0010
0001
1000
0000
,
1000
0010
0001
0010
1000
0010
0001
0010
,
1000
0010
0001
0010
1000
0010
0100
0000
,
0001
0010
0100
0010
0001
0010
0100
0010
,
0001
0010
0100
0010
0001
1000
0010
0000
,
1000
0010
0100
0010
1000
0010
0100
0010
,
1000
0100
0010
0001
0100
0010
0110
0000
,
1000
0000
0000
0100
0000
0000
1000
0000
0001
0000
0100
0000
0010
0000
1000
0000
,
0001
0000
0000
0010
0000
0000
0001
0000
0100
0000
0010
0000
1000
0000
0001
0000
,
0100
0000
0000
0010
0000
0000
0100
0000
0001
0000
1000
0000
0100
0000
0010
0000
,
0100
0000
0000
0001
0000
0000
0100
0000
0000
0000
0010
0000
0010
0000
0000
0000
,
0101
0000
0000
1100
0000
0000
0101
0000
0000
0000
0001
0000
0100
0000
0010
0000
,
1010
0000
0000
0011
0000
0000
1010
0000
0000
0000
0001
0000
1000
0000
0010
0000
,
0110
0000
0000
1001
0000
0000
0110
0000
0000
0000
0001
0000
0010
0000
0100
0000
,
1000
0000
0000
0001
0000
0000
1000
0000
0010
0100
0000
0100
0010
0000
0000
0000
,
1000
0100
1000
0000
0001
0000
0100
0001
0100
0000
0010
0000
1000
0010
1000
0000
,
0020
0000
0230
0000
0301
0100
1000
0100
,
0001
0010
0001
0000
1000
0000
0010
1000
0010
0000
0100
0000
0001
1000
0001
0000
,
1000
0010
0001
0010
1000
0001
1000
0001
,
1000
0010
1000
0000
0100
0000
0010
0001
0010
0000
0100
0000
1000
0001
1000
0000
,
0002
0000
2003
0000
3001
0010
1000
0010
,
0001
0100
0001
0000
0010
0000
0100
1000
0100
0000
0010
0000
0001
1000
0001
0000
,
0010
0000
0100
1000
0000
0001
0100
0000
0010
1000
0000
0100
0010
0000
0000
0000
,
0002
0000
0000
2003
0000
0000
3020
0000
0000
0230
0000
0000
0302
0000
1003
0000
,
1100
0000
0000
0000
0101
0000
0000
0000
0001
0000
1000
0100
0000
0100
1000
0000
,
0001
0000
0010
0000
0100
0000
1000
0000
0010
0000
0100
0000
0001
1000
0001
0000
,
0011
0000
0000
0000
1010
0000
0000
0000
1000
0000
0001
0100
0000
0100
0001
0000
,
1000
0000
0010
0000
0100
0000
0001
0000
0010
0000
0100
0000
1000
0001
1000
0000
,
1100
0000
0000
0000
0101
0000
0000
0000
0001
0000
1000
0010
0000
0010
1000
0000
,
0001
0000
0010
0000
1000
0000
0010
0000
0001
0000
1000
0000
0001
1000
0001
0000
,
0011
0000
0000
0000
1010
0000
0000
0000
1000
0000
0001
0010
0000
0010
0001
0000
,
1000
0010
0100
0001
1001
0000
1001
0000
,
1000
0020
1000
0000
0000
0000
0001
0000
,
0000
0000
0000
0000
0100
0000
0000
0000
0000
0000
1000
0000
0000
1030
0000
0000
,
1000
0100
1000
0000
0001
0100
0001
0000
,
1000
0010
1000
0000
0001
0010
0001
0000
,
1000
0000
0000
0010
0000
0000
0100
0000
0000
0001
0000
0000
1000
0000
0100
0000
,
0010
0000
0000
0001
0000
0000
0100
0000
0000
0010
0000
0000
1000
0001
1000
0000
,
0010
0000
0000
0100
0000
0000
0001
0000
0000
0010
0000
0000
0100
0000
1000
0000
,
0001
0000
0000
1000
0000
0000
0010
0000
0000
0100
0000
0000
0001
0010
0002
0000
,
1003
0000
0100
0000
0010
0000
0001
0000
1000
0000
0010
1000
0000
0010
1000
0000
,
0100
0000
0010
0000
0001
0000
0100
0000
0010
0000
0000
0000
1000
0001
1000
0000
,
0010
0000
0100
0000
0001
0000
1000
0000
0100
0000
0010
0001
0000
0010
0001
0000
,
0100
0010
1000
0001
0200
0000
0000
0000
,
0310
1000
0001
0000
0010
0001
1000
0000
,
0010
0000
1000
0000
0001
0000
0100
0000
0010
0000
1000
0000
0100
1000
0100
0000
,
0010
0001
0100
0000
0010
1000
0100
0000
,
1000
0100
0010
0001
1001
0000
1001
0000
,
0010
0000
1000
0000
0001
0000
0100
0000
0010
0000
1000
0100
0000
1000
0100
0000
,
0010
0000
0001
0000
0100
0000
0010
0000
1000
0000
0001
0000
0010
0001
0010
0000
,
0100
0000
1000
0000
0010
0000
1000
0000
0001
0000
0100
0010
0000
0100
0010
0000
,
1000
0000
0100
0000
0010
0000
0001
0000
0100
0000
0010
0000
1000
0001
1000
0000
,
0010
0000
1000
0000
0001
0000
0100
0000
0010
0000
1000
0100
0000
1000
0001
0000
,
0010
0000
0100
0000
0010
0000
0001
0000
0100
0000
0010
0000
1000
0001
1000
0000
,
0010
0100
0001
0000
0010
0100
1000
0000
,
1000
0000
0010
0000
0001
0000
0010
0000
1000
0000
0001
0000
1000
0001
2000
0002
,
0000
0000
0000
0000
,
3003
0000
0000
0000
;

//---------------dance-single - ----------------
#NOTES:
     dance-single:
     :
     Medium:
     7:
     0.437501,0.484133,0.201722,0.119199,0.123784,334.000000,312.000000,22.000000,13.000000,0.000000,0.000000,0.437501,0.484133,0.201722,0.119199,0.123784,334.000000,312.000000,22.000000,13.000000,0.000000,0.000000:
0000
0000
0000
0000
,
0000
0000
0000
0000
,
0000
0000
0000
0000
,
0000
0000
0000
0000
,
1000
0001
0100
0010
,
1000
0100
0001
0100
,
1000
0010
0100
0001
,
1000
0000
0000
1000
0000
0000
0001
0000
0000
0001
0000
0000
0100
0000
0100
0000
,
0001
0100
0001
0000
1000
0100
1000
0000
,
0010
0100
0010
0000
0001
1000
0001
0000
,
1000
0010
1000
0000
0001
0010
0001
0000
,
0100
0010
0100
0000
0001
1000
0001
0000
,
1000
0100
0010
0000
0001
0100
0010
0000
,
1000
0010
0100
0000
0001
0010
0100
0000
,
1000
0001
0100
0000
0001
1000
0100
0000
,
0001
1000
0001
1000
0010
0000
0010
0000
,
0001
0000
0000
0001
0000
0000
0001
0000
0000
0000
1000
0000
0100
0000
0000
0000
,
1000
0000
0000
1000
0000
0000
1000
0000
0000
0000
0001
0000
0100
0000
0000
0000
,
0010
0000
0000
0010
0000
0000
0010
0000
0000
0000
1000
0000
0100
0000
0000
0000
,
0010
0000
0000
0010
0000
0000
0010
0000
0000
0000
0001
0000
1001
0000
0000
0000
,
0001
0000
0000
0100
0000
0000
0001
0000
0000
0000
1000
0000
0010
0000
0000
0000
,
1000
0000
0000
0100
0000
0000
1000
0000
0000
0000
0001
0000
0010
0000
0000
0000
,
0100
0000
0000
0010
0000
0000
0100
0000
0000
0000
0001
0000
1000
0000
0000
0000
,
0001
0000
0000
0010
0000
0000
0100
0000
0000
1000
0000
0000
0001
0000
1000
0000
,
0001
0100
0010
0000
0100
0010
0000
0100
,
0020
0000
2030
0000
3001
1000
0001
0000
,
1000
0100
0010
0000
0100
0010
0000
0100
,
0020
0000
0032
0000
1003
0001
1000
0000
,
0010
0100
0001
0000
0100
0001
0000
0100
,
0002
0000
2003
0000
3001
1000
0001
0000
,
0010
0100
1000
0000
0100
1000
0000
0100
,
1000
0000
0000
0001
0000
0000
0100
0000
0000
0010
0000
0000
0220
0000
0000
0000
,
0000
0000
0000
0330
,
1100
0000
0101
0000
0010
1000
0001
0000
,
0010
0100
0010
0100
0010
0000
1001
0000
,
1010
0000
0011
0000
0010
0001
1000
0000
,
0010
0100
0010
0100
0010
0000
1001
0000
,
1100
0000
0000
0000
0101
0000
0000
0000
0100
0000
0000
0100
0000
0000
0100
0000
,
0000
0001
1000
0001
1000
0000
1001
0000
,
1010
0000
0000
0000
0011
0000
0000
0000
0010
0000
0000
0010
0000
0000
0010
0000
,
0000
1000
0001
1000
0001
0000
1001
0000
,
2000
0100
0000
0100
,
0000
0000
0000
0000
0100
0000
0000
0000
0000
0000
0100
0000
0000
3100
0000
0000
,
0010
1001
0100
1001
,
1000
0010
0100
0000
0001
0010
0100
0000
,
1000
0000
0000
1000
0000
0000
1000
0000
0000
0000
0001
0000
1000
0000
0000
0000
,
0010
0000
0000
0010
0000
0000
0010
0000
0000
0000
0100
0000
0010
0000
0000
0000
,
0001
0000
0000
0001
0000
0000
0001
0000
0000
0000
1000
0000
0001
0000
0000
0000
,
0100
0000
0000
0100
0000
0000
0100
0000
0000
0000
0010
0000
0200
0000
0000
0000
,
0301
0000
0000
0000
1000
0000
0001
0000
1000
0000
0000
1000
0000
0000
1000
0000
,
0000
0010
0100
0000
0100
0000
0001
0000
,
1000
0000
0000
0000
0001
0000
1000
0000
0001
0000
0000
0001
0000
0000
0001
0000
,
0000
1000
0010
0000
0200
0000
0000
0000
,
0301
0000
0000
0000
0010
0000
0100
0000
0010
0000
0000
0010
0000
0000
0010
0000
,
0000
1000
0001
0000
1000
0000
1000
0000
,
1001
0000
0000
0000
0110
0000
0000
0000
0001
0000
0000
0001
0000
0000
0001
0000
,
1000
0001
1000
0000
0010
0000
0110
0000
,
0001
0000
0010
0000
0001
0000
0000
0000
1000
0000
0000
1000
0000
0000
1000
0000
,
0000
0010
0100
0000
0001
0000
1001
0000
,
1000
0000
0010
0000
1000
0000
0000
0000
0001
0000
0000
0001
0000
0000
0001
0000
,
0000
0010
0100
0000
0010
0000
1001
0000
,
1000
0000
0100
0000
1000
0000
0000
0000
0001
0000
0000
0001
0000
0000
0001
0000
,
0000
1000
0010
0000
0100
0000
0110
0000
,
0001
1000
0001
0000
0100
0010
0100
0000
,
0001
1000
0001
1000
0010
0100
0020
0200
,
0000
0000
0000
0000
,
0330
0000
0000
0000
;

//---------------dance-double - ----------------
#NOTES:
     dance-double:
     :
     Hard:
     9:
     0.601236,0.744280,0.256737,0.091692,0.490551,459.000000,431.000000,28.000000,10.000000,0.000000,0.000000,0.601236,0.744280,0.256737,0.091692,0.490551,459.000000,431.000000,28.000000,10.000000,0.000000,0.000000:
00000000
00000000
00000000
00000000
,
00000000
00000000
00000000
00000000
,
00000000
00000000
00000000
00000000
,
00000000
00000000
00000000
00000000
,
10000000
00000000
00000000
10000000
00010000
00000000
00000000
00010000
01000000
00000000
00000000
01000000
00001000
00000000
00000000
00001000
,
00010000
00000000
00000000
00010000
00000010
00000000
00000000
00000010
00001000
00000000
00000000
00001000
00000001
00000000
00000100
00000000
,
00001000
00000000
00000000
00001000
00010000
00000000
00000000
00010000
00100000
00000000
00000000
00100000
10000000
00000000
00010000
10000000
,
00010000
00000000
00000000
01000000
00000000
00000000
00001000
00000000
00000000
00010000
00000000
00000000
00000100
00000000
00000010
00000000
,
00000001
00000000
00000001
00000100
00000000
00000000
00000100
00001000
00000000
00000000
00001000
00010000
00000000
00000000
00010000
01000000
,
00000000
00000000
01000000
10000000
00000000
00000000
10000000
00010000
00000000
00000000
10000000
00000000
00010000
00100000
01000000
00100000
,
00000000
00010000
10000000
01000000
00000000
00000000
01000000
00010000
00000000
00000000
00010000
00001000
00000000
00000000
00001000
00000100
,
00000000
00000000
00000100
00000001
00000000
00000000
00000001
00001000
00000000
00000000
00000001
00000000
00001000
00000001
00001000
00000010
,
00000000
00001000
00000001
00000000
00000000
00000001
00000010
00000000
00000000
00000010
00001000
00000000
00000000
00001000
01000000
00000000
,
00000000
01000000
00010000
00000000
00000000
00010000
10000000
00000000
00000000
10000000
01000000
00000000
00010000
00000000
00001000
00100000
,
00000000
00010000
10000000
00000000
00000000
10000000
00100000
00000000
00000000
00100000
00010000
00000000
00000000
00010000
00000100
00000000
,
00000000
00000100
00001000
00000000
00000000
00001000
00000001
00000000
00000000
00000001
00000100
00000000
00000010
00000000
00001000
00000000
,
00000001
00000000
00000001
00001000
00000100
00000000
00000010
00000000
,
00001000
00000000
00000000
00010000
00000000
00000000
00100000
00000000
00000000
00000000
10000000
00000000
00010000
00000000
10000000
00000000
,
00010000
00000000
10000000
01000000
00100000
00000000
00010000
00000000
,
10000000
00000000
00000000
01000000
00000000
00000000
00010000
00000000
00000000
00000000
00001000
00000000
00000100
00000000
00000000
00000000
,
00000001
00000000
00000000
00000010
00000000
00000000
00001000
00000000
00000000
00000000
00100000
00000000
01000000
00000000
00100000
00000000
,
00010000
10000000
01000000
00010000
00000000
00001000
00100000
00010000
,
10000000
00000000
00000000
00100000
00000000
00000000
00010000
00000000
00000000
00000000
00000010
00000000
00000100
00000000
00000010
00000000
,
00001000
00000001
00000010
00001000
00010000
00000000
00011000
00000000
,
00100000
00001000
00001000
00000100
00010000
00010000
01000000
00001000
,
00020000
00000000
00000000
00000000
02030000
00000000
00000000
00000000
13000000
00000000
01000000
00000000
00100000
00001000
00010000
00000000
,
00000010
00010000
00010000
01000000
00001000
00001000
00000100
00010000
,
00002000
00000000
00003200
00000000
00000301
00000010
00000100
00001000
,
00000001
00000010
00000001
00000000
00001000
00000000
00000100
00010000
00000100
00000000
00010000
00000000
00001000
00100000
00010000
00000000
,
20000000
00000000
00000000
00000000
30020000
00000000
00000000
00000000
00130000
00010000
00100000
00000000
01000000
10000000
01000000
00000000
,
10000000
00100000
10000000
00000000
00010000
00000000
01000000
00001000
01000000
00000000
00001000
00000000
00010000
00000010
00001000
00000000
,
00000001
00000100
00000000
00000100
00000010
00000000
00000010
00001000
00000001
00001000
00000001
00000000
00001000
00000100
00001000
00000100
,
00020000
00000000
00000000
00030000
,
01001000
00000000
00000000
00000000
01100000
00000000
00000000
00000000
00010000
00000000
00000000
10000000
00000000
00000000
01000000
00000000
,
00000000
00000000
00010000
00000000
00001000
00000000
00000010
00000000
00000001
00000000
00000000
00000000
00001000
00000001
00001000
00000001
,
00000100
00000000
00000000
00000000
00000110
00000000
00000000
00000000
00001000
00000000
00000000
00000001
00000000
00000000
00000100
00000000
,
00000000
00000000
00001000
00000000
00010000
00000000
00100000
00000000
10000000
00000000
00000000
00000000
00010000
10000000
00010000
10000000
,
01000000
00000000
10000000
00000000
00100000
00000000
00000000
00000000
00010000
00000000
00000000
00000100
00000010
00000000
00000001
00000000
,
00000000
00000000
00001000
00000000
00000010
00000000
00000100
00000000
00001000
00000000
00000000
00000000
00010000
00001000
00010000
00000000
,
00011000
01001000
00011000
00010100
,
00001000
00010000
00100000
01000000
00010000
00100000
01000000
10000000
,
00020000
01000000
00000000
01000000
,
00032000
00000000
00000000
00000000
00000010
00000000
00000000
00000000
00000000
00000000
00000010
00000000
00003000
00000010
00000000
00001000
,
00000001
00000010
00000100
00001000
,
00010000
00000000
00000000
00000000
00100000
00000000
00000000
00000000
01000000
00000000
10000000
00000000
00010000
10000000
00000000
10000000
,
00010000
00000000
00000000
01000000
00000000
00000000
00100000
00000000
00000000
10000000
00000000
00000000
01000000
00000000
00010000
00000000
,
00001000
00000000
00000000
00000100
00000000
00000000
00000001
00000000
00000000
00001000
00000000
00000000
00000001
00000000
00000010
00000001
,
00001000
00000000
00000000
00000100
00000000
00000000
00000010
00000000
00000000
00000001
00000000
00000000
00000100
00000000
00001000
00000000
,
00010000
00000000
00000000
01000000
00000000
00000000
10000000
00000000
00000000
00010000
00000000
00000000
10000000
01000000
00100000
00020000
,
00031000
00000000
00000000
00000000
00000110
00000000
00000000
00000000
00001000
00000000
00000000
00000001
00000000
00000000
00000100
00000000
,
00000000
00000000
00001000
00000000
00010000
00000000
00100000
00000000
10000000
00000000
00000000
00000000
00010000
10000000
00010000
10000000
,
01000000
00000000
00000000
00000000
01100000
00000000
00000000
00000000
00010000
00000000
00000000
10000000
00000000
00000000
01000000
00000000
,
00000000
00010000
00001000
00000010
00000001
00000000
00001001
00000000
,
00001000
00000000
00000001
00000000
00000100
00000000
00000000
00000000
00001000
00000000
00000000
01000000
00100000
00000000
10000000
00000000
,
00000000
00000000
00010000
00000000
00100000
00000000
01000000
00000000
00010000
00000000
00000000
00000000
00001000
00010000
00001000
00000000
,
00011000
00010100
00011000
01001000
,
00010000
00001000
00000010
00000100
00001000
00000010
00000100
00000001
,
00001000
00000000
00000100
00000000
00001100
00000000
00000000
00000000
00000011
00000000
00000000
00001001
00000000
00000000
00001010
00000000
,
00010000
00000000
00001000
00000000
01000000
00000000
00010000
00000000
00100000
00000000
00000000
00000000
01000000
10000000
01000000
00100000
,
00010000
00000000
01000000
00000000
01010000
00000000
00000000
00000000
10100000
00000000
00000000
10010000
00000000
00000000
00110000
00000000
,
00001000
00000000
00010000
00000000
00000100
00000000
00001000
00000000
00000010
00000000
00000000
00000000
00000100
00000001
00000100
00000010
,
00001000
00000000
00000001
00000000
00000101
00000000
00000000
00000000
00001100
00000000
00000000
00001000
00010000
00000000
00100000
00000000
,
00000000
00000000
10000000
00000000
01000000
00000000
00100000
00000000
00010000
00000000
10000000
00000000
00010000
00100000
00010000
00100000
,
00001000
00000000
00010000
00000000
00010100
00000000
00000000
00000000
00101000
00000000
00000000
00000000
00011000
00000000
00010000
00000100
,
00010000
00000000
00000010
00000000
00000100
00000000
00000001
00000000
00001000
00000010
00001000
00000010
00000100
00000001
00000100
00000001
;

//---------------dance-double - ----------------
#NOTES:
     dance-double:
     :
     Medium:
     7:
     0.476797,0.484133,0.311752,0.064184,0.105446,364.000000,330.000000,34.000000,7.000000,0.000000,0.000000,0.476797,0.484133,0.311752,0.064184,0.105446,364.000000,330.000000,34.000000,7.000000,0.000000,0.000000:
00000000
00000000
00000000
00000000
,
00000000
00000000
00000000
00000000
,
00000000
00000000
00000000
00000000
,
00000000
00000000
00000000
00000000
,
00100000
10000000
00010000
00000000
00100000
00000000
00001000
00000000
,
00010000
00000010
00001000
00000100
,
00000010
00000001
00001000
00000000
00000010
00000000
00010000
00001000
,
01000000
00000000
00000000
01000000
00000000
00000000
00100000
00000000
00000000
00100000
00000000
00000000
10000000
00000000
01000000
00000000
,
00010000
00001000
00010000
00000000
00000010
00000100
00000010
00000000
,
00001000
00000001
00000100
00000010
00010000
00000000
00011000
00000000
,
00001000
00010000
00001000
00000000
00100000
01000000
00100000
00000000
,
00010000
10000000
01000000
00100000
00001000
00000000
00011000
00000000
,
00000100
00000010
00000100
00000000
00000001
00000010
00001000
00000000
,
00010000
00000100
00001000
00000100
00010000
00000000
00011000
00000000
,
01000000
00100000
01000000
00000000
10000000
00100000
00010000
00000000
,
00001000
01000000
00100000
01000000
00001000
00010000
00000100
00000010
,
00000001
00000000
00000100
00000010
00000000
00010000
00001000
00010000
,
00000100
00000000
00000000
00010000
00000000
00000000
00001000
00000000
00000000
00000000
01000000
00000000
00100000
00000000
00000000
00000000
,
10000000
00000000
01000000
00100000
00000000
00001000
00010000
00001000
,
01000000
00000000
00000000
00001000
00000000
00000000
00010000
00000000
00000000
00000000
00000100
00000000
00000010
00000000
00000000
00000000
,
00000001
00000000
00000000
00001000
00000000
00000000
00000100
00000000
00000000
00000000
00000010
00000000
00000100
00000000
00010000
00000000
,
00001000
00100000
00010000
10000000
00000000
10000000
00100000
00000000
,
10000000
00000000
00000000
00010000
00000000
00000000
01000000
00000000
00000000
00000000
00100000
00000000
01000000
00000000
00001000
00000000
,
00010000
00000010
00001000
00000001
00000000
00000001
00000010
00000000
,
00001000
00010000
00000100
00010000
00001000
01000000
00001000
00010000
,
00100000
00000000
10000000
00000000
00010000
01000000
00100000
00000000
,
00010000
00001000
01000000
00001000
00010000
00000100
00010000
00001000
,
00000010
00000000
00000001
00000000
00001000
00000100
00000010
00000001
,
00000010
00000010
00000100
00000000
00010000
00000000
00011000
00000000
,
00100000
00000000
01100000
00000000
10000000
01000000
00100000
00010000
,
10000000
01000000
00010000
00000000
00001000
00000100
00000001
00000000
,
00000010
00000001
00000100
00000010
00001000
00000100
00010000
00000000
,
00022000
00000000
00000000
00033000
,
00101000
00000000
00000000
00000000
00010100
00000000
00000000
00000000
00001000
00000000
00000000
00100000
00000000
00000000
00010000
00000000
,
00000000
10000000
01000000
00100000
00001000
00000000
00011000
00000000
,
00010010
00000000
00000000
00000000
01001000
00000000
00000000
00000000
00010000
00000000
00000000
00000010
00000000
00000000
00001000
00000000
,
00000000
00000001
00000100
00000010
00010000
00000000
00011000
00000000
,
01001000
00000000
00000000
00000000
00010010
00000000
00000000
00000000
00001000
00000000
00000000
01000000
00000000
00000000
00010000
00000000
,
00000000
10000000
00100000
01000000
00001000
00000000
00011000
00000000
,
00010100
00000000
00000000
00000000
00101000
00000000
00000000
00000000
00010000
00000000
00000000
00000100
00000000
00000000
00001000
00000000
,
00000000
00000001
00000010
00001000
00010000
00000000
01100000
00000000
,
20000000
01000000
00000000
01000000
,
30020000
01000000
00000000
01000000
,
00032000
00000010
00000010
00000010
,
00003002
00000010
00000010
00000010
,
00001003
00000000
00000000
00001000
00000000
00000000
00000001
00000000
00000000
00000001
00000000
00000000
00000100
00000000
00000000
00000000
,
00000010
00000000
00000000
00000010
00000000
00000000
00010000
00000000
00000000
00010000
00000000
00000000
00001000
00000000
00000000
00000000
,
00100000
00000000
00000000
00100000
00000000
00000000
00010000
00000000
00000000
00010000
00000000
00000000
10000000
00000000
00000000
00000000
,
00010000
00100000
00000000
00001000
00000000
00010000
00000010
00000000
,
00010010
00000000
00000000
00000000
01001000
00000000
00000000
00000000
00010000
00000000
00000000
00000010
00000000
00000000
00001000
00000000
,
00000000
00000001
00000100
00000010
00010000
00000000
00011000
00000000
,
00101000
00000000
00000000
00000000
00010100
00000000
00000000
00000000
00001000
00000000
00000000
00100000
00000000
00000000
00010000
00000000
,
00000000
10000000
01000000
00100000
00001000
00000000
00011000
00000000
,
00010100
00000000
00000000
00000000
00101000
00000000
00000000
00000000
00010000
00000000
00000000
00000100
00000000
00000000
00001000
00000000
,
00000000
00000001
00000010
00000100
00010000
00000000
00011000
00000000
,
01001000
00000000
00000000
00000000
00010010
00000000
00000000
00000000
00001000
00000000
00000000
01000000
00000000
00000000
00010000
00000000
,
00000000
10000000
00100000
01000000
00001000
00000000
00011000
00000000
,
00000100
00000000
00000010
00000000
00000100
00000000
00000000
00000000
00000001
00000000
00000000
00001000
00000000
00000000
00000001
00000000
,
00000000
00000010
00001000
00010000
00100000
00000000
10010000
00000000
,
01000000
00000000
00100000
00000000
01000000
00000000
00000000
00000000
10000000
00000000
00000000
00010000
00000000
00000000
10000000
00000000
,
00000000
01000000
00010000
00001000
00000100
00000000
00001001
00000000
,
00000010
00000000
00000100
00000000
00000010
00000000
00000000
00000000
00000001
00000000
00000000
00001000
00000000
00000000
00000001
00000000
,
00000000
00000100
00001000
00010000
01000000
00000000
10010000
00000000
,
00100000
01000000
00100000
00000000
10100000
00000000
00010000
01000000
,
00001000
00010000
00000100
00000010
00000001
00000100
00000010
00002000
,
00000000
00000000
00000000
00000000
,
00003000
00000000
00000000
00000000
;

//---------------dance-double - ----------------
#NOTES:
     dance-double:
     :
     Easy:
     4:
     0.268526,0.302583,0.045846,0.119199,0.000000,205.000000,200.000000,5.000000,13.000000,0.000000,0.000000,0.268526,0.302583,0.045846,0.119199,0.000000,205.000000,200.000000,5.000000,13.000000,0.000000,0.000000:
00000000
00000000
00000000
00000000
,
00000000
00000000
00000000
00000000
,
00000000
00000000
00000000
00000000
,
00000000
00000000
00000000
00000000
,
00000001
00000000
00000001
00000000
,
00001000
00000000
00001000
00000000
,
00000010
00000000
00000010
00000000
,
00020000
00000000
00000000
00030000
,
00001000
00001000
01000000
01000000
,
00001000
00001000
00010000
00010000
,
00000010
00000010
00010000
00010000
,
00001000
00001000
00100000
00100000
,
01000000
01000000
10000000
10000000
,
00010000
00010000
00100000
00100000
,
00001000
00001000
00010000
00010000
,
00000100
00000100
00000020
00000000
,
00000031
00000100
00000001
00000000
,
00001000
00000100
00001000
00000000
,
00010000
00100000
00010000
00000000
,
10000000
00100000
10000000
00010000
,
10000000
01000000
10000000
00000000
,
00010000
01000000
00010000
00000000
,
00001000
00000010
00001000
00000000
,
00000001
00000010
00000001
00001000
,
00000010
00010000
00010000
01000000
,
00001000
00001000
00000100
00000010
,
00000100
00010000
00010000
00100000
,
00001000
00001000
00000010
00000100
,
00001000
00001000
01000000
00010000
,
00010000
00000010
00001000
00000001
,
00001000
00001000
00100000
00010000
,
00010000
00000010
00001000
00010000
,
20000000
00000000
00000000
30000000
,
00010000
00010000
10000000
10000000
,
01000000
00100000
00010000
00000000
,
00001000
00001000
00000001
00000001
,
00000100
00000010
00001000
00000000
,
00010000
00010000
10000000
10000000
,
00100000
01000000
00010000
00000000
,
00001000
00001000
00000001
00000001
,
00000010
00000100
00001000
00000001
,
00001001
00000000
00000000
00000000
,
00011000
00000000
00000000
00000000
,
10010000
00000000
00000000
00000000
,
00011000
00000000
00000000
00000000
,
02000000
00000000
03200000
00000000
,
20300000
00000000
30020000
00000000
,
00230000
00000000
00302000
00000000
,
00023000
00000000
00030020
00000000
,
00001030
00001000
00000001
00000001
,
00000100
00000010
00001000
00000000
,
00010000
00010000
10000000
10000000
,
01000000
00100000
00010000
00000000
,
00001000
00001000
00000001
00000001
,
00000010
00000100
00001000
00000000
,
00010000
00010000
10000000
10000000
,
00100000
01000000
00010000
00010000
,
00001000
00000010
00001000
00000001
,
00000100
00000010
00001000
00001000
,
00010000
00100000
00010000
10000000
,
01000000
00100000
00010000
00010000
,
00001000
00000100
00001000
00000001
,
00000010
00000100
00001000
00001000
,
00010000
01000000
00010000
10000000
,
00100000
01000000
00010000
10000000
,
20020000
00000000
00000000
00000000
,
30030000
00000000
00000000
00000000
;

//---------------dance-single - ----------------
#NOTES:
     dance-single:
     :
     Challenge:
     10:
     0.847494,0.877491,0.540982,0.210891,0.935256,647.000000,588.000000,59.000000,23.000000,0.000000,0.000000,0.847494,0.877491,0.540982,0.210891,0.935256,647.000000,588.000000,59.000000,23.000000,0.000000,0.000000:
0000
0000
0000
0000
,
0000
0000
0000
0000
,
0000
0000
0000
0000
,
0000
0000
0000
0000
,
0001
1000
0000
1000
0100
0000
0100
0010
0000
0010
0001
0000
1000
0000
0010
0100
,
0010
0100
0010
0000
1000
0000
1000
0001
0000
0001
1000
0000
0001
0000
0100
0010
,
1000
0001
0000
0001
1000
0000
1000
0010
0000
1000
0001
0000
1000
0000
0100
1000
,
1100
0000
0000
0011
0000
0000
0101
0000
0000
1001
0000
0000
1010
0000
0100
0000
,
0001
0100
0001
1000
0000
0100
1000
0001
0000
0100
0001
1000
0000
0100
1000
0001
,
0000
0010
0001
1000
0000
0010
1000
0001
0000
0010
0001
1000
0001
0010
0100
1000
,
0000
0100
1000
0001
0000
0001
0100
0010
0000
0010
0100
1000
0000
1000
0100
0001
,
0000
0001
0010
1000
0000
1000
0010
0100
0000
0100
1000
0010
0100
0001
0010
0100
,
0000
0010
0001
0010
0000
0100
1000
0100
0000
1000
0010
1000
0000
0001
0100
0001
,
0000
0100
0010
0100
0000
0001
1000
0001
0000
1000
0100
0010
0001
0100
0010
1000
,
0000
0100
1000
0010
0000
0010
0100
0001
0000
0001
0010
0100
0000
0100
1000
0001
,
0000
0001
0100
1000
0000
1000
0100
0001
1000
0100
0010
0001
1000
0100
0010
0001
,
1000
0000
0000
1100
0000
0000
0101
0000
0001
0000
0100
0000
1000
0000
0100
0000
,
0001
0000
0000
0101
0000
0000
1100
0000
1000
0000
0100
0000
0001
0000
0100
0000
,
1000
0000
0000
1010
0000
0000
0011
0000
0001
0000
0010
0000
1000
0000
0010
0000
,
0001
0000
0000
0011
0000
0000
1010
0000
1000
0000
0010
0000
1010
0000
0000
0000
,
1000
0000
0100
1000
0000
0001
1000
0000
0010
0000
1000
0000
0100
0000
0010
0000
,
0001
0000
0100
0001
0000
1000
0001
0000
0010
0000
0001
0000
0100
0000
0010
0000
,
1000
0000
0100
0010
0000
0001
0010
0000
0100
0000
1000
0000
0010
0000
0100
0000
,
0001
0000
0100
0010
0000
1000
0010
0000
0100
0001
0000
1000
0010
0000
1000
0000
,
0100
1000
0010
1000
0002
0000
0103
0001
0010
0001
2000
0000
3100
1000
0010
1000
,
0002
0000
0103
0000
2000
0000
3100
0000
0001
0010
0100
1000
0001
0100
0010
1000
,
0001
0010
0001
0100
0020
0000
1030
0100
1000
0010
0200
0000
0301
0010
0100
1000
,
0020
0000
1030
0000
0002
0000
0103
0000
0010
1000
0100
1000
0001
0010
0100
1000
,
0001
0100
0001
0010
0002
0000
1003
0100
1000
0010
2000
0000
3001
0100
0010
0100
,
0002
0000
0013
0000
2000
0000
3010
0000
0001
1000
0010
0100
0001
0010
0100
1000
,
0010
0100
0010
1000
0002
0000
0103
0010
0100
0001
2000
0000
3100
0010
0001
0100
,
0020
0000
1030
0100
0010
0001
0200
0000
0310
1000
0100
0010
0002
0000
0000
0000
,
2003
0000
0000
3200
0000
0000
0302
0000
0000
1000
1003
0000
0010
0000
0010
0000
,
0110
0000
0100
0000
0010
0000
0100
0000
0001
0000
0100
1000
0000
0010
1000
0000
,
0001
0000
0100
0000
1000
0000
0100
0000
0101
0000
0000
0000
0100
0001
0100
0010
,
1000
0000
0010
0000
0100
0000
0010
0000
0001
0000
0010
0100
0000
0001
1000
0000
,
0001
0000
0010
0000
1000
0000
0010
0000
0011
0000
0000
0000
0010
0001
0010
0100
,
1000
0000
0001
0000
0100
0000
0001
0000
1000
0000
0001
0100
0000
0010
0001
0000
,
0010
0000
1000
0000
0100
0000
0001
0000
0101
0000
0000
0000
0100
1000
0001
0100
,
0001
0000
1000
0000
0001
0000
0010
0000
0001
0000
1000
0100
0000
0010
1000
0000
,
0010
0001
1000
0010
1000
0000
1001
0000
,
0010
0120
0100
0000
1000
0000
0001
0000
,
0100
0000
0000
0000
0001
0000
0000
0000
1030
0000
1100
0000
0000
0101
0000
0100
,
0110
0010
1010
0000
1100
1000
1001
0000
,
0011
0000
0001
0000
0101
0000
0000
0000
0110
0000
0110
0000
0000
1001
0000
0001
,
1000
0000
1000
0100
0000
0100
0010
0000
0010
0001
0000
0001
0100
0001
1000
0000
,
0001
0000
0001
0100
0000
0100
0010
0000
0010
1000
0000
1000
0100
1000
0010
0100
,
0001
0000
0001
0010
0000
0010
1000
0000
1000
0010
0000
0010
0001
0100
0010
0000
,
1000
0000
1000
0010
0000
0010
0001
0000
0001
0010
0000
0010
1000
0100
0001
0100
,
1010
0000
0000
0000
1001
0000
0000
0000
0101
0000
0000
0010
0000
0000
1100
0000
,
0010
0000
0001
0000
1000
0000
0010
0000
0100
0000
0000
0000
0001
0100
0010
1000
,
1010
0000
0000
0000
0110
0000
0000
0000
0011
0000
0000
0100
0000
0000
1010
0000
,
0100
0001
1000
0100
0020
0000
0030
0000
,
0011
0000
0000
0000
1001
0000
0000
0000
1100
0000
1000
0010
0000
1000
0010
0000
,
0100
0000
0001
0000
1000
0000
0100
0000
0001
0000
0100
0000
1000
0010
0100
0010
,
1010
0000
0000
0000
1001
0000
0000
0000
0101
0000
0001
0010
0000
0001
0010
0000
,
0100
1000
0001
1000
1001
0010
1001
0000
,
0011
0000
0001
0000
0101
0000
0001
0000
1001
0000
1000
0100
0000
1000
0100
0000
,
0010
0000
0001
0000
0100
0000
0001
0000
0010
0000
0100
0000
1000
0010
0100
0010
,
1010
0000
1000
0000
1100
0000
1000
0000
1001
0000
0001
0100
0000
0001
0100
0000
,
0010
0000
1000
0000
0100
0000
1000
0000
0010
0000
0100
0000
0001
0010
0100
0010
,
0011
0000
0010
0000
0110
0000
0010
0000
1010
0000
0010
0001
0000
0100
0001
0000
,
1000
0000
0010
0000
0001
0000
0010
0000
1000
0000
0100
0000
0001
0100
1000
0010
,
1010
0000
0010
0000
0110
0000
0010
0000
0011
0000
0010
1000
0000
0100
1000
0000
,
0001
0000
0010
0000
1000
0000
0010
0000
0001
0100
0010
1000
0100
0010
0001
1000
,
0020
0000
0000
0000
,
0030
0000
0000
0000
;

//---------------dance-double - ----------------
#NOTES:
     dance-double:
     :
     Challenge:
     10:
     0.758422,0.804596,0.220060,0.073353,0.866488,579.000000,555.000000,24.000000,8.000000,0.000000,0.000000,0.758422,0.804596,0.220060,0.073353,0.866488,579.000000,555.000000,24.000000,8.000000,0.000000,0.000000:
// measure 0
00000000
00000000
00000000
00000000
,  // measure 1
00000000
00000000
00000000
00000000
,  // measure 2
00000000
00000000
00000000
00000000
,  // measure 3
00000000
00000000
00000000
00000000
,  // measure 4
00010000
00001000
00000000
00010000
00000100
00000000
00001000
00000010
00000000
00000100
00000001
00000000
00000010
00000000
00000001
00000100
,  // measure 5
00000001
00001000
00000001
00001000
00000100
00000000
00010000
00001000
00000000
00100000
00010000
00000000
10000000
00000000
01000000
00010000
,  // measure 6
00001000
00010000
00000000
00001000
01000000
00000000
00010000
00100000
00000000
01000000
10000000
00000000
00010000
00000000
10000000
01000000
,  // measure 7
00100000
00000000
00000000
00101000
00000000
00000000
00011000
00000000
00000000
00010100
00000000
00000000
00000110
00000000
00001001
00000000
,  // measure 8
00000001
00000010
00000100
00001000
00000000
00000001
00000100
00001000
00000000
00000100
00001000
00010000
00000000
00001000
00010000
01000000
,  // measure 9
00000000
00010000
01000000
10000000
00000000
00100000
10000000
00010000
00000000
10000000
00100000
01000000
00010000
00100000
01000000
10000000
,  // measure 10
00000000
00100000
01000000
00010000
00000000
10000000
01000000
00010000
00000000
01000000
00010000
00001000
00000000
00010000
00001000
00000100
,  // measure 11
00000000
00001000
00000100
00000001
00000000
00000010
00000001
00001000
00000000
00000001
00000010
00000100
00001000
00000010
00000100
00000001
,  // measure 12
00000000
00000100
00000010
00001000
00000000
00000001
00000010
00001000
00000000
00000010
00001000
00010000
00000000
00001000
00010000
00100000
,  // measure 13
00000000
00010000
00100000
10000000
00000000
01000000
10000000
00010000
00000000
10000000
01000000
00100000
00010000
01000000
00100000
10000000
,  // measure 14
00000000
01000000
00100000
00010000
00000000
10000000
00100000
00010000
00000000
00100000
00010000
00001000
00000000
00010000
00001000
00000010
,  // measure 15
00000000
00001000
00000010
00000001
00000000
00000100
00000001
00001000
00000010
00000100
00000001
00000010
00000100
00001000
00000010
00000100
,  // measure 16
00000001
00000000
00000100
00000010
00000000
00001000
00010000
01000000
,  // measure 17
00010000
00000000
00000000
00100000
00000000
00000000
10000000
00000000
00000000
00000000
00100000
00000000
00010000
00000000
00000000
00000000
,  // measure 18
10000000
00000000
00000000
01000000
00000000
00000000
00010000
00000000
00000000
00000000
00001000
00000000
00100000
00000000
00001000
00000000
,  // measure 19
00000010
00000001
00000000
00000100
00000000
00001000
00011000
00000000
,  // measure 20
00000010
00000000
00000000
00000001
00000000
00000000
00000100
00000000
00000000
00000000
00001000
00000000
00010000
00000000
00001000
00000000
,  // measure 21
00100000
10000000
00000000
00010000
00000000
01000000
10000000
00000000
,  // measure 22
00100000
00000000
00000000
10000000
00000000
00000000
01000000
00000000
00000000
00000000
00010000
00000000
00001000
00000000
00010000
00000000
,  // measure 23
00000010
00000001
00000000
00001000
00000100
00000000
00001001
00000000
,  // measure 24
00000010
00001000
00000100
00000000
00010000
00000000
00000010
00001000
00000100
00000000
00000001
00000000
00000100
00001000
00000010
00000000
,  // measure 25
00020000
00000000
00000000
00000000
00032000
00000000
00000000
00000000
00103000
01000000
00100000
00000000
00010000
10000000
00010000
00000000
,  // measure 26
00100000
00010000
01000000
00000000
00001000
00000000
00100000
00010000
01000000
00000000
10000000
00000000
01000000
00010000
00100000
00000000
,  // measure 27
00002000
00000000
00000000
00000000
00023000
00000000
00000000
00000000
00030010
00000100
00000001
00000010
00000100
00001000
00000010
00000100
,  // measure 28
00000001
00000010
00001000
00000000
00010000
00000000
00001000
00000100
00000001
00000000
00001000
00000000
00000010
00000100
00001000
00000000
,  // measure 29
00020000
00000000
00000000
00000000
00032000
00000000
00000000
00000000
00103000
01000000
10000000
00100000
01000000
00010000
00100000
01000000
,  // measure 30
10000000
00100000
00010000
00000000
00001000
00000000
00010000
01000000
10000000
00000000
00010000
00000000
00100000
01000000
00010000
00000000
,  // measure 31
00001000
00010000
00000000
00001000
00000100
00000000
00001000
00010000
00000000
01000000
00010000
00000000
00001000
00010000
00001000
00000000
,  // measure 32
00022000
00000000
00000000
00033000
,  // measure 33
00000010
00000000
00001000
00000000
00000001
00000000
00000100
00000000
00010000
00000000
00100000
00010000
00000000
10000000
00100000
00000000
,  // measure 34
00000000
00000000
00001000
00000000
00000100
00000000
00000010
00000000
00000001
00000000
00000000
00000000
00000010
00000100
00001000
00010000
,  // measure 35
00100000
00000000
00010000
00000000
10000000
00000000
01000000
00000000
00001000
00000000
00000010
00001000
00000000
00000001
00000010
00000000
,  // measure 36
00000000
00000000
00010000
00000000
01000000
00000000
00100000
00000000
10000000
00000000
00000000
00000000
01000000
00100000
00010000
00001000
,  // measure 37
00000100
00000000
00001000
00000000
00000001
00000000
00000010
00000000
00010000
00000000
01000000
00010000
00000000
10000000
01000000
00000000
,  // measure 38
00000000
00000000
00001000
00000000
00000010
00000000
00000100
00000000
00000001
00000000
00000000
00000000
00000100
00000010
00001000
00010000
,  // measure 39
01000000
00000000
00010000
00000000
10000000
00000000
00100000
00000000
00001000
00000000
00000100
00001000
00000000
00000001
00000100
00000000
,  // measure 40
00000000
00010000
00100000
01000000
11000000
00000000
10010000
00000000
,  // measure 41
00100000
00000000
10000000
00000000
01000000
00000000
00000000
01010000
00000000
00000000
00010000
00000000
00011000
00000000
00000000
00000000
,  // measure 42
00000010
00000000
00000001
00000000
00000100
00000000
00000000
00001100
00000000
00000000
00001000
00000000
00010000
00001000
00000000
00100000
,  // measure 43
00010000
00000000
10000000
00000000
00100000
00000000
00000000
00110000
00000000
00000000
00010000
00000000
00011000
00000000
00000000
00000000
,  // measure 44
00000100
00000000
00000001
00000000
00001000
00000000
00000100
00000010
00000000
00000010
00000100
00000000
00010000
00001000
00100000
00010000
,  // measure 45
10000000
00000000
10000000
01000000
00000000
01000000
00010000
00000000
00010000
00001000
00000000
00001000
00010000
00000000
00100000
00000000
,  // measure 46
00010000
00000000
00010000
00001000
00000000
00001000
00000010
00000000
00000010
00000001
00000000
00000100
00000010
00001000
00000100
00000010
,  // measure 47
00000001
00000000
00000001
00000100
00000000
00000100
00001000
00000000
00001000
00010000
00000000
00010000
00001000
00000000
00000010
00000000
,  // measure 48
00001000
00000000
00001000
00010000
00000000
00010000
00100000
00000000
00100000
10000000
00000000
00010000
01000000
00100000
10000000
01000000
,  // measure 49
00100000
00000000
00010000
00000000
10000000
00000000
01000000
00000000
00001000
00000000
00000010
00001000
00000000
00000001
00000010
00000000
,  // measure 50
00000000
00000000
00010000
00000000
01000000
00000000
00100000
00000000
10000000
00000000
00000000
00000000
00100000
01000000
00010000
00001000
,  // measure 51
00000010
00000000
00001000
00000000
00000001
00000000
00000100
00000000
00010000
00000000
00100000
00010000
00000000
10000000
00100000
00000000
,  // measure 52
00000000
00000000
00001000
00000000
00000100
00000000
00000010
00000000
00000001
00000000
00000000
00000000
00000100
00000010
00001000
00010000
,  // measure 53
01000000
00000000
00010000
00000000
10000000
00000000
00100000
00000000
00001000
00000000
00000100
00001000
00000000
00000001
00000100
00000000
,  // measure 54
00000000
00000000
00010000
00000000
00100000
00000000
01000000
00000000
10000000
00000000
00000000
00000000
01000000
00100000
00010000
00001000
,  // measure 55
00000100
00000000
00001000
00000000
00000001
00000000
00000010
00000000
00010000
00000000
01000000
00010000
00000000
10000000
01000000
00000000
,  // measure 56
00000000
00000000
00001000
00000000
00000010
00000000
00000100
00000000
00000001
00000100
00000001
00000000
00001000
00000100
00001000
00000000
,  // measure 57
00000101
00000000
00000001
00000000
00001001
00000000
00000001
00000000
00000011
00000000
00001000
00010000
00000000
00010000
00001000
00000000
,  // measure 58
00000100
00000000
00000001
00000000
00000010
00000000
00001000
00000000
00010000
00000000
00000000
00000000
00100000
10000000
00100000
10000000
,  // measure 59
01000000
00000000
10000000
00000000
10010000
00000000
10000000
00000000
10100000
00000000
00010000
00001000
00000000
00001000
00010000
00000000
,  // measure 60
01000000
00000000
10000000
00000000
00100000
00000000
00010000
00000000
00001000
00000000
00000000
00000000
00000100
00000001
00000100
00000001
,  // measure 61
00000010
00000000
00000001
00000000
00001001
00000000
00000001
00000000
00000101
00000000
00001000
00010000
00000000
00010000
00001000
00000000
,  // measure 62
00000010
00000000
00000001
00000000
00000100
00000000
00001000
00000000
00010000
00000000
00000000
00000000
01000000
10000000
01000000
10000000
,  // measure 63
00100000
00000000
10000000
00000000
10010000
00000000
10000000
00000000
11000000
00000000
00010000
00001000
00000000
00001000
00010000
00000000
,  // measure 64
00100000
00000000
10000000
00000000
01000000
00000000
00010000
00000000
00001000
00000100
00001000
00000100
00000001
00000100
00000001
00000010
,  // measure 65
00000100
00000000
00000000
00000000
;
