#TITLE:Music In The Rhythm;
#SUBTITLE:;
#ARTIST:nc ft. Electric Touch;
#TITLETRANSLIT:;
#SUBTITLETRANSLIT:;
#ARTISTTRANSLIT:nc ft. Electric Touch;
#GENRE:;
#CREDIT:;
#BANNER:Music In The Rhythm.png;
#BACKGROUND:Music In The Rhythm-bg.png;
#LYRICSPATH:;
#CDTITLE:;
#MUSIC:Music In The Rhythm.ogg;
#OFFSET:0.000000;
#SAMPLESTART:13.930000;
#SAMPLELENGTH:15.000000;
#SELECTABLE:YES;
#DISPLAYBPM:155.000000;
#BPMS:0.000000=155.171997
,4.000000=155.000000
,35.000000=154.996994
,65.500000=154.985001
,94.000000=155.000000
,125.000000=154.985001
,253.000000=155.171997
;
#STOPS:35.000000=0.387000,
65.500000=0.387000,
94.000000=0.387000,
125.000000=1.547000
;
#BGCHANGES:0.000=Music In The Rhythm.avi=1.000=1=0=0=StretchNoLoop==CrossFade==,
252.500=Music In The Rhythm-bg.png=1.000=0=0=1=====,
99999=-nosongbg-=1.000=0=0=0 // don't automatically add -songbackground-
;
#KEYSOUNDS:;
#ATTACKS:;

//---------------dance-single - ----------------
#NOTES:
     dance-single:
     :
     Beginner:
     1:
     0.181966,0.209601,0.000000,0.000000,0.000000,134.000000,134.000000,0.000000,0.000000,0.000000,0.000000,0.181966,0.209601,0.000000,0.000000,0.000000,134.000000,134.000000,0.000000,0.000000,0.000000,0.000000:
0000
0000
0000
0000
,
0000
0000
0000
0000
,
0000
0000
0000
0000
,
0000
0000
0000
0000
,
0000
0000
0000
0000
,
1000
0000
0100
0000
,
0001
0000
1000
0000
,
0001
0000
0100
0000
,
0010
0000
0000
0100
,
0000
0010
0000
1000
,
0000
0001
0000
0010
,
0000
0001
0000
0100
,
0000
0010
0000
1000
,
0000
0010
0000
0001
,
0000
0100
0000
1000
,
0000
0001
0000
0010
,
0000
0100
0100
0000
,
0001
0000
0010
0010
,
0010
0000
0100
0000
,
0001
0000
1000
1000
,
1000
0000
0010
0000
,
0100
0000
0001
0001
,
0001
0000
1000
0000
,
0010
0000
0001
0001
,
0000
0010
0010
0010
,
0000
0001
0000
1000
,
0000
0010
0010
0010
,
0000
1000
0000
0100
,
0000
0001
0001
0001
,
0000
0100
0000
0001
,
0000
1000
1000
1000
,
0000
0100
0100
0000
,
0000
1000
0000
0001
,
0000
0010
0010
0000
,
0000
0100
0000
0010
,
0000
0001
0001
0000
,
0000
0010
0000
1000
,
0000
0001
0001
0000
,
0000
0100
0000
0010
,
0000
0100
0100
0100
,
0000
1000
1000
1000
,
0000
0010
0010
0010
,
0000
0001
0001
0001
,
0000
1000
1000
1000
,
0000
0100
0100
0100
,
0000
0010
0010
0010
,
0000
1000
0000
0000
,
0000
0100
0000
0001
,
0000
1000
0000
0001
,
0000
0010
0000
0100
,
0000
1000
0000
0001
,
0000
0010
0010
0000
,
0000
0001
0001
0000
,
0000
1000
1000
0000
,
0000
0100
0000
0000
,
0000
0010
0010
0010
,
0000
0100
0000
0001
,
0000
1000
1000
1000
,
0000
0010
0000
0100
,
0000
0001
0001
0001
,
0000
0010
0000
1000
,
0000
0100
0100
0100
,
0000
1000
0000
0001
,
0001
0000
0000
0000
;

//---------------dance-single - ----------------
#NOTES:
     dance-single:
     :
     Easy:
     4:
     0.348995,0.360029,0.256654,0.161597,0.000000,257.000000,230.000000,27.000000,17.000000,0.000000,0.000000,0.348995,0.360029,0.256654,0.161597,0.000000,257.000000,230.000000,27.000000,17.000000,0.000000,0.000000:
0000
0000
0000
0000
,
0000
0000
0000
0000
,
0000
0000
0000
0000
,
0000
0000
0000
0000
,
0000
0000
0000
0000
,
1000
0010
0100
1000
,
0001
0001
1000
1000
,
0001
0010
0100
1000
,
0020
0000
0000
0130
,
1000
0010
0100
1000
,
1000
0001
0001
0010
,
0100
0001
0010
1000
,
1000
0001
0001
0010
,
0100
0010
0001
0100
,
0100
0010
0010
0001
,
0100
0001
0010
1000
,
0001
0010
0001
0001
,
0010
0100
0010
1001
,
0100
1001
0010
0100
,
0001
0100
1000
0110
,
0001
0110
1000
0010
,
0100
0001
0010
1100
,
0010
0101
0010
0100
,
1000
0100
0010
0100
,
0100
0010
1000
0001
,
0010
0001
1100
0001
,
1100
0010
0001
0100
,
0001
1000
0101
1000
,
0101
0010
0001
0100
,
1000
0010
1001
0100
,
1001
0010
0100
1000
,
0100
0001
1000
0010
,
0001
1010
0101
0010
,
1000
0100
1000
0001
,
0010
1001
0110
0001
,
1000
0010
0100
0001
,
0010
0011
1100
0010
,
0100
1000
0010
1000
,
0001
0110
1001
0010
,
0001
0100
0200
0001
,
0310
1000
2000
0010
,
3100
0010
0020
0100
,
0031
0100
0200
1000
,
0301
1000
2000
0010
,
3001
0100
0200
0010
,
0301
0010
0020
0001
,
0130
2000
0000
0002
,
3003
0010
0020
0100
,
0031
1000
2000
0100
,
3001
0100
0200
0010
,
0301
0010
0020
0100
,
0031
1000
2000
0010
,
3100
0010
0020
0001
,
0130
1000
2000
0010
,
3001
0100
0010
0100
,
1001
0010
0001
1000
,
0010
0100
1001
0010
,
1001
0100
0001
0010
,
0001
1000
0101
0010
,
1100
0010
0001
0100
,
1000
0001
0110
1000
,
0110
0001
1000
0010
,
0100
1000
0010
0100
,
0001
0001
0000
0000
0000
0000
0000
0000
;

//---------------dance-single - ----------------
#NOTES:
     dance-single:
     :
     Medium:
     6:
     0.444052,0.480038,0.342205,0.133080,0.000000,327.000000,291.000000,36.000000,14.000000,0.000000,0.000000,0.444052,0.480038,0.342205,0.133080,0.000000,327.000000,291.000000,36.000000,14.000000,0.000000,0.000000:
0000
0000
0000
0000
,
0000
0000
0000
0000
,
0000
0000
0000
0000
,
0000
0000
0000
0000
,
0000
0000
0000
0000
,
0001
1000
0100
0000
0010
0000
0001
0000
,
0100
1000
0010
0001
,
1000
0001
0100
0000
0010
0000
1000
0000
,
0200
0000
0000
0000
0000
0000
0310
0001
,
0010
0000
0100
0000
1000
0000
0001
0100
,
0001
0000
1000
0100
1000
0000
0010
0100
,
0001
0000
1000
0000
0100
0000
0010
1000
,
0100
0000
0010
0001
0100
0000
0001
0010
,
0001
0000
0100
0000
1000
0000
0100
0001
,
0010
0000
0100
1000
0001
0000
0100
0010
,
0100
1000
0100
0001
,
0010
0000
1001
0000
0100
0010
0100
0000
,
1000
0010
0110
0101
,
0110
0000
1010
0000
0100
0001
0010
0000
,
0001
0010
1100
0101
,
0011
0000
1100
0000
0001
0010
0100
0000
,
0010
0100
1010
0011
,
0110
0000
0101
0000
1000
0001
0010
0000
,
1000
0000
0010
0000
1001
0000
0100
0100
,
0100
0000
1000
0001
1000
0000
0001
0000
,
0100
0000
0010
1000
0010
0000
0001
0010
,
0001
0000
0100
1000
0001
0000
1000
0000
,
0100
0000
0010
0100
0010
0000
0001
1000
,
0010
0000
0100
0001
1000
0000
0100
0000
,
0010
0000
0001
1000
0001
0000
0100
0010
,
0100
0000
0001
1000
0010
0000
1000
0000
,
0010
0000
1000
0001
1000
0000
0100
0000
,
1000
0001
0000
0010
1000
0000
0010
0000
,
0100
0001
0000
0010
0001
0000
1000
0000
,
0100
0010
0000
0010
0100
0000
0001
0000
,
1001
0000
0100
0001
0010
0000
1000
0000
,
0001
0100
0000
0010
0001
0000
0010
0000
,
1000
0001
0000
0100
0010
0000
0001
0000
,
1000
0010
0000
1000
0001
0000
0100
0000
,
1001
0000
0100
1000
0020
0000
1030
0000
,
0001
0000
0100
0010
0002
0000
0103
0000
,
0010
0000
0001
1000
0200
0000
0310
0000
,
1000
0000
0010
0001
0020
0000
0130
0000
,
0001
0000
0100
1000
0002
0000
0103
0000
,
0001
0000
0010
0100
0020
0000
1030
0000
,
0001
0000
0100
1000
0002
0000
0103
0000
,
0010
0000
0100
0000
0001
1000
0100
0000
,
1001
0000
0010
0000
0101
0000
0010
0100
,
0002
0000
0013
0000
1100
0000
0001
1000
,
0020
0000
0130
0000
1001
0000
0100
0001
,
0200
0000
0310
0000
1100
0000
0010
1000
,
0002
0000
0013
0000
1001
0000
0100
0010
,
0200
0000
1300
0000
0110
0000
0010
0001
,
2000
0000
3010
0000
1100
0000
0010
1000
,
0100
1000
0010
0001
,
1000
0000
0100
0010
0010
0100
0010
0000
,
1000
0011
1100
1010
,
0101
0000
0010
0100
0100
0010
1000
0000
,
0001
1100
1001
0101
,
1001
0000
0001
0100
0100
0001
0010
0000
,
0001
0110
0101
0110
,
1100
0000
0010
1000
1000
0010
1000
0000
,
0010
0000
0001
0000
0100
0000
0010
0001
,
1000
0010
0000
0000
0000
0000
0000
0000
;

//---------------dance-single - ----------------
#NOTES:
     dance-single:
     :
     Hard:
     8:
     0.549973,0.510040,0.266160,0.142586,0.133080,405.000000,377.000000,28.000000,15.000000,0.000000,0.000000,0.549973,0.510040,0.266160,0.142586,0.133080,405.000000,377.000000,28.000000,15.000000,0.000000,0.000000:
0000
0000
0000
0000
,
0000
0000
0000
0000
,
0000
0000
0000
0000
,
0000
0000
0000
0000
,
0000
0000
0000
0000
,
1000
0100
0001
0000
0100
0000
1000
0000
,
0010
1000
0100
0000
0010
0001
0100
0000
,
0001
0100
1000
0000
0100
0000
0001
0100
,
0020
0000
0000
0000
0000
0000
0130
0010
,
0010
0100
0010
1000
0100
0000
1000
0001
,
0100
0000
0001
1000
0100
0000
0010
0100
,
0100
0010
0001
1000
0010
0000
0100
0001
,
0010
0000
0100
1000
0010
0000
1000
0100
,
0100
1000
0010
1000
0001
0000
0010
0100
,
1000
0000
0010
0100
0001
0000
0010
0001
,
0001
0010
0001
1000
0010
0000
1000
0100
,
0001
0100
1000
0001
0100
0001
0001
0100
,
0001
1000
0100
0000
0110
0100
1000
0000
,
0110
0100
0001
0000
0010
1000
1000
0100
,
1000
0001
0100
0000
0011
0100
1000
0000
,
1010
0100
0001
0000
1000
0100
0100
0010
,
0100
1000
0010
0000
0101
1000
0100
0000
,
0110
1000
0010
0000
0001
0010
0010
0100
,
1000
0010
0100
0000
1001
0000
0010
0100
,
0010
0000
0010
1000
1000
0010
1000
0001
,
0010
0000
0110
0001
0100
0000
0110
1000
,
0100
0000
0010
0001
0001
0010
0001
1000
,
0010
0000
1100
0010
0001
0000
0101
0010
,
1000
0000
0001
0010
0010
0100
0010
0001
,
0100
0000
1010
0001
0010
0000
0110
0001
,
0100
0000
1000
0100
0100
0010
0001
0100
,
0010
0000
0001
1000
0100
0000
0110
0000
,
0001
1000
0100
1000
0001
0000
0110
0000
,
0010
1001
0000
0100
1000
0000
0101
0000
,
0010
0100
0001
0100
0010
0000
1000
0001
,
1000
0000
0010
1000
0100
0000
0011
0000
,
1000
0010
0100
0010
1000
0000
0101
0000
,
0001
1100
0000
0010
0100
0000
1001
0000
,
0001
0100
1000
0100
0001
0000
0010
0000
,
1100
0000
0000
0000
0010
0000
0001
0000
0200
0000
0000
0001
0000
0301
0000
0000
,
1000
0000
0100
0000
0010
0000
0100
0000
2000
0000
0000
0010
0000
3010
0000
0000
,
0100
0000
0001
0000
1000
0000
0001
0000
0020
0000
0000
0100
0000
0130
0000
0000
,
1000
0000
0001
0000
0100
0000
1000
0000
0200
0000
0000
0010
0000
0310
0000
0000
,
1000
0000
0100
0000
0010
0000
0001
0000
2000
0000
0000
0010
0000
3010
0000
0000
,
1000
0000
0001
0000
0100
0000
0010
0000
0200
0000
0000
0001
0000
0301
0000
0000
,
1000
0000
0100
0000
0001
0000
0100
0000
2000
0000
0000
0010
0000
3010
0000
0000
,
0100
0001
0010
0001
0100
1000
0100
0001
,
0010
0000
0000
0000
0100
0000
0001
0000
0020
0000
0000
0001
0000
0031
0000
0000
,
1000
0000
0010
0000
0100
0000
0010
0000
2000
0000
0000
0100
0000
3100
0000
0000
,
0010
0000
0001
0000
1000
0000
0001
0000
0200
0000
0000
0010
0000
0310
0000
0000
,
1000
0000
0001
0000
0010
0000
1000
0000
0020
0000
0000
0100
0000
0130
0000
0000
,
1000
0000
0010
0000
0100
0000
0001
0000
2000
0000
0000
0100
0000
3100
0000
0000
,
1000
0000
0001
0000
0010
0000
0100
0000
0020
0000
0000
0001
0000
0031
0000
0000
,
1000
0000
0010
0000
0001
0000
0010
0000
2000
0000
0000
0100
0000
3100
0000
0000
,
0010
0001
0100
0001
0010
0100
1000
0010
,
0100
0000
0010
0100
0100
0010
0100
0001
,
0010
0000
1100
0001
0010
0000
0101
1000
,
0010
0000
0100
0010
0010
0100
0001
1000
,
0100
0000
0011
0001
0100
0000
1010
1000
,
0100
0000
1000
0010
0010
1000
0100
1000
,
0001
0000
0110
0010
1000
0000
0110
0010
,
0001
0000
0100
0001
0001
0100
0001
1000
,
0100
0000
1000
0010
0010
1000
0100
1000
,
0001
0100
0000
0000
0000
0000
0000
0000
;

//---------------dance-double - ----------------
#NOTES:
     dance-double:
     :
     Easy:
     4:
     0.343563,0.360029,0.256654,0.047529,0.000000,253.000000,226.000000,27.000000,5.000000,0.000000,0.000000,0.343563,0.360029,0.256654,0.047529,0.000000,253.000000,226.000000,27.000000,5.000000,0.000000,0.000000:
00000000
00000000
00000000
00000000
,
00000000
00000000
00000000
00000000
,
00000000
00000000
00000000
00000000
,
00000000
00000000
00000000
00000000
,
00000000
00000000
00000000
00000000
,
00000001
00000010
00000100
00001000
,
00010000
00010000
00001000
00001000
,
00010000
01000000
00100000
01000000
,
00020000
00000000
00000000
00130000
,
01000000
10000000
00100000
00010000
,
00010000
00001000
00001000
00000010
,
00000100
00001000
00000010
00000100
,
00000100
00000010
00000010
00001000
,
00010000
01000000
00100000
10000000
,
10000000
00010000
00010000
00100000
,
01000000
10000000
01000000
00010000
,
00001000
00000010
00000001
00001000
,
00000010
00000100
00000010
00001001
,
00000100
00000100
00000001
00000100
,
00001000
00010000
00100000
10010000
,
01000000
01000000
10000000
00100000
,
00010000
00001000
00000100
00000110
,
00000001
00001000
00000010
00000001
,
00001000
00000100
00010000
00001000
,
01000000
00100000
00010000
10000000
,
00100000
00010000
00001000
00000010
,
00001001
00000100
00000100
00010000
,
00001000
00000010
00000001
00001000
,
00000110
00001000
00010000
00100000
,
01000000
00010000
00100000
01000000
,
10010000
01000000
00100000
00010000
,
01000000
00001000
00010000
00100000
,
00010000
00001000
00000100
00000001
,
00000110
00000010
00001000
00000001
,
00000010
00001000
00010000
00100000
,
10010000
01000000
10000000
00100000
,
00010000
00001000
00000100
00000010
,
00001001
00000010
00000100
00000001
,
00001000
00000100
00000010
00000001
,
00000110
00001000
00001000
00010000
,
00010000
00100000
10010000
01000000
,
10010000
01000000
01000000
00010000
,
00010000
00001000
00011000
00100000
,
00011000
00000100
00000100
00000001
,
00000001
00001000
00000110
00000001
,
00000110
00001000
00001000
00010000
,
00010000
00022000
00000000
00000000
,
00033000
00100000
00100000
10000000
,
01000000
00010000
00011000
00000010
,
00011000
00000100
00000100
00000010
,
00001000
00000001
00000110
00001000
,
00000110
00000001
00000001
00000100
,
00001000
00010000
00011000
00000100
,
00011000
00100000
00100000
01000000
,
00010000
20020000
00000000
00000000
,
30030000
00100000
00010000
10000000
,
01000000
00010000
00001000
00000100
,
00001001
00000010
00000010
00010000
,
00001000
00000100
00000001
00000010
,
00000110
00001000
00010000
01000000
,
00100000
00010000
01000000
00100000
,
10010000
00100000
00010000
00001000
,
00000010
00000001
00000100
00001000
,
00010000
00010000
00000000
00000000
00000000
00000000
00000000
00000000
;

//---------------dance-double - ----------------
#NOTES:
     dance-double:
     :
     Medium:
     6:
     0.400598,0.390031,0.133080,0.009506,0.000000,295.000000,281.000000,14.000000,1.000000,0.000000,0.000000,0.400598,0.390031,0.133080,0.009506,0.000000,295.000000,281.000000,14.000000,1.000000,0.000000,0.000000:
00000000
00000000
00000000
00000000
,
00000000
00000000
00000000
00000000
,
00000000
00000000
00000000
00000000
,
00000000
00000000
00000000
00000000
,
00000000
00000000
00000000
00000000
,
00100000
10000000
01000000
00000000
00100000
00000000
01000000
00000000
,
00010000
00001000
00000010
00000001
,
00001000
00000001
00000100
00000000
00001000
00000000
00010000
00000000
,
00002000
00000000
00000000
00000000
00000000
00000000
00103000
00010000
,
00100000
01000000
10000000
00100000
,
00010000
00000000
00001000
00000000
00000100
00000000
00000010
00000100
,
00000001
00000010
00000100
00000010
,
00000001
00000000
00001000
00000000
00000010
00000000
00000100
00001000
,
00010000
01000000
10000000
01000000
,
00100000
00000000
00001000
00000000
00010000
00000000
00001000
00000100
,
00000001
00001000
00000100
00000010
,
00000001
00000000
00000100
00000000
00000010
00000100
00000100
00000010
,
00001000
00010000
01000000
00100000
,
10000000
00000000
01010000
00000000
10000000
01000000
01000000
00100000
,
01000000
10000000
00100000
00010000
,
00001000
00000000
00011000
00000000
00000100
00000010
00000010
00000100
,
00000010
00001000
00000001
00000010
,
00001000
00000000
00011000
00000000
00100000
10000000
10000000
00010000
,
00100000
01000000
11000000
00100000
,
00100000
00010000
00100000
10000000
,
11000000
00000000
00100000
00001000
00001000
00010000
00001000
00000000
,
00000010
00000001
00001000
00000010
,
00000101
00000000
00000010
00000100
00000100
00001000
00010000
00000000
,
00100000
10000000
01000000
00010000
,
00011000
00000000
00001000
00000100
00000100
00000010
00000100
00000000
,
00000001
00001000
00000001
00000010
,
00001100
00010000
00100000
01000000
,
10000000
00010000
00000000
00100000
10000000
00000000
00100000
00000000
,
01000000
00010000
00000000
00001000
00000100
00000000
00000001
00000000
,
00000100
00000010
00000000
00001000
00000100
00000000
00001000
00000000
,
00000001
00000100
00001000
00010000
,
00100000
10000000
00000000
01000000
10000000
00000000
00100000
00000000
,
01000000
10000000
00000000
01000000
00100000
00000000
10000000
00000000
,
00010000
00100000
00000000
00001000
00010000
00000000
00000010
00000000
,
00001001
00000000
00000100
00000001
00000000
00001000
00000000
00000010
,
00000000
00000100
00001000
00000001
00000000
00000010
00000000
00001000
,
00000000
00011000
00000000
00010000
00000000
01000000
00000000
00100000
,
00000000
00010000
10000000
00100000
00000000
10000000
00000000
01000000
,
00000000
00010000
00001000
00000010
00000000
00000001
00000000
00000100
,
00000000
00000001
00001000
00000010
00000000
00000100
00000000
00000001
,
00000000
00001100
00000000
00000010
00000000
00001000
00000000
00010000
,
00000000
00100000
01000000
00000000
10000000
00000000
01000000
00010000
,
10000000
00000000
01000000
00010000
00000000
00001000
00000000
00000100
,
00000000
00000010
00000100
00000001
00000000
00001000
00000000
00000100
,
00000000
00000010
00001000
00010000
00000000
00100000
00000000
01000000
,
00000000
00010000
10000000
01000000
00000000
10000000
00000000
01000000
,
00000000
00010000
00001000
00000100
00000000
00000001
00000000
00000010
,
00000000
00000001
00001000
00000010
00000000
00000100
00000000
00000001
,
00000000
00000010
00001000
00010000
00000000
00100000
00000000
01000000
,
00000000
00010000
00100000
00000000
01000000
00000000
10000000
00100000
,
01000000
00000000
00100000
10000000
10000000
01000000
00010000
00000000
,
00001000
00000100
00000010
00001000
,
00000101
00000000
00000010
00000100
00000100
00000010
00000100
00000000
,
00000001
00000010
00001000
00010000
,
00011000
00000000
01000000
00100000
00100000
00010000
01000000
00000000
,
00010000
10000000
00100000
00010000
,
00011000
00000000
00000010
00000001
00000001
00001000
00000010
00000000
,
00000100
00000000
00000001
00000000
00000010
00000000
00001000
00010000
,
00010000
00001000
00000000
00000000
00000000
00000000
00000000
00000000
;

//---------------dance-double - ----------------
#NOTES:
     dance-double:
     :
     Hard:
     7:
     0.511950,0.480038,0.114068,0.228137,0.000000,377.000000,365.000000,12.000000,24.000000,0.000000,0.000000,0.511950,0.480038,0.114068,0.228137,0.000000,377.000000,365.000000,12.000000,24.000000,0.000000,0.000000:
00000000
00000000
00000000
00000000
,
00000000
00000000
00000000
00000000
,
00000000
00000000
00000000
00000000
,
00000000
00000000
00000000
00000000
,
00000000
00000000
00000000
00000000
,
00000001
00000100
00001000
00000000
00000100
00000000
00000001
00000000
,
00000010
00001000
00010000
00000000
00100000
10000000
01000000
00000000
,
00100000
01000000
10000000
00000000
00100000
00000000
00010000
00001000
,
00020000
00000000
00000000
00000000
00000000
00000000
00031000
00000100
,
00000100
00000010
00000010
00001000
00001000
00000000
00000001
00000010
,
00000100
00000000
00001000
00000001
00000100
00000000
00001000
00100000
,
00100000
01000000
01000000
10000000
10000000
00000000
00010000
10000000
,
01000000
00000000
00010000
00001000
00000010
00000000
00000001
00000100
,
00000100
00000001
00000001
00001000
00001000
00000000
00000010
00000100
,
00000001
00000000
00000010
00001000
00010000
00000000
00100000
10000000
,
10000000
00010000
00010000
00100000
00100000
00000000
00001000
00100000
,
00010000
01000000
10000000
01000000
00100000
00010000
00010000
00001000
,
00010000
00010000
00000010
00000000
00001000
00001000
00000100
00000010
,
00000010
00000001
00000100
00000000
00000010
00001000
00001000
00000001
,
00000100
00000100
00000010
00000000
00000100
00000100
00001000
00010000
,
00100000
10000000
01000000
00000000
00100000
01000000
01000000
10000000
,
01000000
01000000
00010000
00000000
00001000
00001000
00010000
00001000
,
00001000
00000100
00000010
00000000
00001000
00000010
00000010
00000100
,
00000001
00000001
00000010
00000000
00001001
00000000
00000010
00010000
,
00001000
00000000
00000010
00001000
00001000
00010000
00100000
10000000
,
01000000
00000000
00100000
00100000
01000000
10000000
00100000
01000000
,
00010000
00000000
10000000
10000000
01000000
00010000
00010000
00001000
,
00000010
00000000
00000001
00001000
00000100
00010000
00000010
00001000
,
00000100
00000000
00000010
00001000
00001000
00010000
00100000
10000000
,
00010000
00000000
00100000
00100000
01000000
10000000
01000000
00100000
,
01000000
00000000
00010000
00001000
00001000
00010000
00001000
00000100
,
00000001
00001000
00000010
00000101
,
00000001
00000100
00001000
00000100
00000010
00000000
00011000
00000000
,
01000000
10010000
00000000
00100000
00010000
00000000
11000000
00000000
,
00100000
01000000
10000000
01000000
00100000
00000000
00010000
00000000
,
00011000
00000000
00000010
00000001
00000100
00000000
00001000
00000000
,
00010000
00000010
00001000
00000010
00010000
00000000
00011000
00000000
,
00100000
01010000
00000000
00100000
01000000
00000000
10010000
00000000
,
10000000
01000000
10000000
00100000
00010000
00000000
00001000
00000000
,
00011000
00000000
00000010
00000001
00000200
00000000
00000310
00000100
,
00000002
00000000
00000013
00000001
00002000
00000000
00003100
00010000
,
00002000
00000000
00103000
00010000
02000000
00000000
03100000
10000000
,
02000000
00000000
03010000
00001000
00020000
00000000
00130000
01000000
,
00002000
00000000
00013000
00000100
00000020
00000000
00000130
00001000
,
00000020
00000000
00000130
00000001
00002000
00000000
00003100
00000010
,
00002000
00000000
00013000
01000000
20000000
00000000
31000000
00100000
,
00001000
00022000
00000000
00000000
,
00033000
00000000
00000010
00001000
00000100
00010000
00000010
00001000
,
00000200
00000000
00001300
00000001
00000100
00001000
00010000
01000000
,
20000000
00000000
30100000
01000000
00100000
10000000
01000000
00100000
,
02000000
00000000
03100000
00001000
01000000
00010000
00001000
00000010
,
00000002
00000000
00001003
00000100
00000001
00001000
00000100
00000010
,
00000002
00000000
00000103
00001000
00100000
00010000
01000000
00010000
,
00200000
00000000
01300000
10000000
00010000
01000000
00100000
10000000
,
01000000
20020000
00000000
00000000
,
30030000
00000000
01000000
00010000
00010000
00001000
00010000
00010000
,
00000100
00000000
00001000
00001000
00000010
00000100
00000100
00000001
,
00000010
00000000
00000100
00001000
00001000
00000001
00000010
00000010
,
00000001
00000000
00000010
00000010
00001000
00010000
01000000
10000000
,
00100000
00000000
00010000
00100000
00100000
10000000
01000000
01000000
,
00010000
00000000
00001000
00001000
00010000
00001000
00001000
00000010
,
00000100
00000000
00001000
00000100
00000100
00000010
00000001
00000001
,
00000010
00000000
00001000
00001000
00010000
01000000
10000000
10000000
,
00100000
10000000
00000000
00000000
00000000
00000000
00000000
00000000
;

//---------------dance-single - ----------------
#NOTES:
     dance-single:
     :
     Challenge:
     9:
     0.643672,0.661359,0.228137,0.247148,0.209125,474.000000,450.000000,24.000000,26.000000,0.000000,0.000000,0.643672,0.661359,0.228137,0.247148,0.209125,474.000000,450.000000,24.000000,26.000000,0.000000,0.000000:
0000
0000
0000
0000
,
0000
0000
0000
0000
,
0000
0000
0000
0000
,
0000
0000
0000
0000
,
0000
0000
0000
0000
,
0001
0100
1000
0100
0001
1000
0001
0000
,
1000
0010
0001
0000
0001
0010
1000
0000
,
1000
0100
0001
0100
1000
0010
0100
0001
,
0020
0000
0000
0000
0000
0000
0130
1000
,
0100
0010
0001
0001
0100
0010
1000
0100
,
0001
0100
1000
0010
0001
0010
1000
0100
,
0010
0001
0100
0100
0001
1000
0100
1000
,
0010
1000
0100
0010
0001
0100
0001
0010
,
1100
0000
0101
0000
0110
0000
0010
1000
,
1100
0100
0010
0001
0101
0100
0010
1000
,
1001
0001
0011
0000
1001
0000
2000
3020
,
0230
0302
0023
2030
3001
0100
1000
0010
,
1000
0001
0100
0010
1000
1000
0100
0010
,
0001
0001
1000
1000
0001
0100
0010
0100
,
0001
0010
0100
1000
0010
0010
1000
0100
,
0010
0010
0100
0100
1000
0100
0010
0001
,
0100
0001
1000
0100
1000
1000
0010
0100
,
0001
0001
0010
0010
0100
0010
0001
0100
,
0010
0000
0001
0000
1000
0000
0100
0000
0020
0000
0000
0000
1030
0010
1000
0000
,
0001
0100
0001
0000
1000
0000
0100
0000
0010
0000
0100
0000
1000
0000
1000
0000
,
0001
0100
0010
0100
0020
0000
1030
0001
,
2000
0000
3100
0010
0001
0100
0001
1000
,
0100
1000
0010
0100
0002
0000
0013
0100
,
2000
0001
3001
1000
0010
0100
0001
0010
,
1000
0010
0001
0100
0010
1000
1000
0100
,
0010
0001
0001
1000
0100
0001
0100
1000
,
0010
0100
0001
1000
1010
0000
0101
0000
,
1000
0000
0010
0100
0000
0000
0010
0100
0000
0000
0001
0000
0010
0000
0100
0000
,
1000
0100
0001
0100
1000
0000
1001
0000
,
0001
0000
0100
0010
0000
0000
0100
0010
0000
0000
0000
0000
1000
0000
0010
1000
,
0000
1000
0100
0000
0010
0000
0001
0000
0101
0000
0000
0000
1001
0000
0000
0000
,
1000
0000
0001
0010
0000
0000
0001
0010
0000
0000
0000
0000
0100
0000
1000
0000
,
0001
1000
0010
1000
1100
0000
0001
1000
,
0100
0000
1000
0010
0000
0000
1000
0010
0000
0000
0000
0000
0100
0000
0010
0000
,
0100
0000
0000
0000
0001
0000
0100
0000
0010
0000
1000
0100
0000
0100
1000
0000
,
0010
0000
0100
0000
0001
0000
1000
0000
0001
0000
0010
0001
0000
0001
0010
0000
,
0100
0000
1000
0000
0010
0000
1000
0000
0001
0000
0100
0010
0000
0010
0100
0000
,
0001
0000
1000
0000
0100
0000
0001
0000
0100
0000
1000
0010
0000
0010
1000
0000
,
0001
0000
0100
0000
0010
0000
0010
0000
0100
0000
0001
0010
0000
0001
0010
0000
,
0100
0000
1000
0000
0001
0000
1000
0000
0010
0000
1000
0010
0000
1000
0010
0000
,
0100
0000
0001
0000
1000
0000
0100
0000
1000
0000
0001
0100
0000
0001
0100
0000
,
0010
0100
0001
0020
0000
1030
0001
0200
,
0000
0000
1300
0001
1000
0000
0000
0000
1100
0000
1000
0010
0000
0010
0100
0000
,
0001
0000
0100
0000
0101
0000
0000
0000
0101
0000
0001
0010
0000
0010
0100
0000
,
1000
0000
0001
0000
1001
0000
0000
0000
1001
0000
1000
0010
0000
0010
0100
0000
,
0001
0000
0010
0000
0110
0000
0000
0000
0110
0000
0100
1000
0000
1000
0001
0000
,
1000
0000
0010
0100
0010
0000
0000
0000
0110
0000
0010
1000
0000
1000
0100
0000
,
0001
0000
0100
0000
1000
0000
0000
0000
1001
0000
0001
0100
0000
0100
0010
0000
,
1000
0000
0010
0000
0001
0000
0000
0000
0011
0000
0010
1000
0000
1000
0001
0000
,
0010
0000
0001
0000
0010
0000
0010
0000
0100
0000
0100
0000
1000
0001
1000
0001
,
1000
0020
0130
0001
0100
0010
1000
1000
,
0100
0010
0002
0100
0100
0103
0020
0100
,
0100
0130
0010
1000
0100
0001
0100
1000
,
0001
0001
2000
0010
0010
3010
0200
0010
,
0010
0310
1000
0010
0001
0010
1000
0001
,
0010
0001
2000
0100
0100
3100
0020
0100
,
0100
0130
1000
0010
0001
0010
1000
0001
,
0100
0100
0002
0010
0010
0013
0200
2300
,
3020
0032
0003
0000
0000
0000
0000
0000
;

//---------------dance-double - ----------------
#NOTES:
     dance-double:
     :
     Challenge:
     9:
     0.638240,0.810064,0.085551,0.114068,0.442015,470.000000,461.000000,9.000000,12.000000,0.000000,0.000000,0.638240,0.810064,0.085551,0.114068,0.442015,470.000000,461.000000,9.000000,12.000000,0.000000,0.000000:
// measure 0
00000000
00000000
00000000
00000000
,  // measure 1
00000000
00000000
00000000
00000000
,  // measure 2
00000000
00000000
00000000
00000000
,  // measure 3
00000000
00000000
00000000
00000000
,  // measure 4
00000000
00000000
00000000
00000000
,  // measure 5
00010000
01000000
10000000
00010000
10000000
00100000
00010000
00000000
,  // measure 6
00001000
00000100
00000001
00001000
00000001
00000010
00001000
00000000
,  // measure 7
00010000
01000000
10000000
01000000
00010000
00001000
00100000
00010000
,  // measure 8
00002000
00000000
00000000
00000000
00000000
00000000
00003100
00000010
,  // measure 9
00000001
00000001
00001000
00001000
00010000
01000000
00100000
10000000
,  // measure 10
01000000
00010000
00001000
00100000
00010000
00000000
01000000
00100000
,  // measure 11
10000000
10000000
00010000
00010000
00001000
00000100
00000010
00000001
,  // measure 12
00000100
00001000
00010000
00000010
00001000
00000000
00000001
00000100
,  // measure 13
00001000
00010000
00000010
00001000
00010000
00001000
00000100
00000010
,  // measure 14
00001000
00010000
01000000
00001000
00010000
00100000
00010000
10000000
,  // measure 15
01000000
00010000
00001000
00100000
00010000
00001000
00000200
00000000
,  // measure 16
00000001
00000000
00000310
00000100
00010000
01000000
10000000
00100000
,  // measure 17
10000000
00010000
01000000
00100000
10000000
10000000
00010000
00010000
,  // measure 18
00001000
00000100
00000010
00000001
00001000
00000100
00010000
00001000
,  // measure 19
00000100
00010000
00001000
00000010
00010000
00001000
00100000
00010000
,  // measure 20
00001000
01000000
00010000
00001000
00010000
00100000
10000000
01000000
,  // measure 21
00010000
00001000
00100000
00010000
00001000
01000000
00010000
00001000
,  // measure 22
00000100
00000001
00000010
00000100
00010000
00001000
00000001
00000100
,  // measure 23
00001000
00000000
00010000
00000000
00100000
00000000
01000000
00000000
10000000
00000000
00000000
00000000
00010000
01000000
00010000
01000000
,  // measure 24
00001000
00010000
00001000
00010000
00000010
00000000
00001000
00000000
00000001
00000000
00000100
00000000
00010000
00000000
00001000
00000000
,  // measure 25
00000010
00000100
00010000
00100000
02000000
00000000
13000000
00010000
,  // measure 26
20000000
00000000
31000000
00100000
00010000
00001000
00010000
01000000
,  // measure 27
00100000
00010000
00001000
00000100
00000002
00000000
00000013
00000100
,  // measure 28
00002000
00000000
00003001
00000010
00010000
00001000
00000100
00000010
,  // measure 29
00001000
00010000
10000000
00100000
00010000
01000000
00010000
00100000
,  // measure 30
10000000
00010000
00001000
00000100
00000001
00000010
00000001
00000100
,  // measure 31
00001000
00010000
00200000
10300000
00010000
00000000
01000000
00000000
,  // measure 32
00001000
00011000
00000000
00000110
00000000
00000001
00001000
00000000
,  // measure 33
00000001
00000101
00000000
00010000
00000010
00000000
00000100
00000000
,  // measure 34
00001000
00000000
00011000
00000000
00000000
00000000
01100000
00000000
00000000
00000000
00000000
00000000
10000000
00000000
00100000
10000000
,  // measure 35
00000000
10000000
01000000
00000000
00010000
00000000
00001000
00000000
00100000
00000000
00000000
00000000
01000000
00000000
00000000
00000000
,  // measure 36
00010000
00011000
00000000
00000110
00000000
00000001
00001000
00000000
,  // measure 37
00000001
00000000
00000011
00000000
00000000
00000000
00010000
00000000
00000100
00000000
00000000
00000000
00000010
00000000
00001000
00010000
,  // measure 38
00000000
00010000
00100000
00000000
00000000
00000000
10010000
00000000
00000000
00000000
00000000
00000000
01000000
00000000
00100000
00000000
,  // measure 39
01000000
00000000
00000000
00000000
00010000
00000000
00001000
00100000
00001000
00010000
00000000
00000100
00000000
00000010
00000000
00000000
,  // measure 40
00000001
00000100
00000010
00001000
00000001
00000000
00000010
00000100
00000010
00000100
00000000
00010000
00000000
00001000
00000000
00000000
,  // measure 41
00100000
00010000
00100000
01000000
10000000
00000000
00100000
01000000
00100000
01000000
00000000
00001000
00000000
00010000
00000000
00000000
,  // measure 42
00000010
00001000
00000010
00000100
00000001
00000100
00000001
00000100
00000001
00000100
00000000
00000010
00000000
00001000
00000000
00000100
,  // measure 43
00010000
00000100
00010000
00001000
00100000
00010000
00100000
00010000
00100000
00010000
00000000
10000000
00000000
00100000
00000000
10000000
,  // measure 44
01000000
10000000
00010000
01000000
00010000
01000000
00010000
01000000
00010000
01000000
00000000
00001000
00000000
00010000
00000000
00000010
,  // measure 45
00001000
00000010
00000100
00000001
00000100
00000001
00000100
00000001
00000100
00000001
00000000
00001000
00000000
00000100
00000000
00010000
,  // measure 46
00001000
00100000
00010000
00100000
00020000
00000000
00000000
00000000
00000000
00000000
00000000
00000000
00000000
00000000
00000000
00000000
,  // measure 47
00030000
00000000
00000000
00000000
10000000
00000000
00100000
01000000
00100000
00000000
00000000
10000000
00000000
00010000
00000000
00000000
,  // measure 48
00100000
00001000
00010000
00000100
00001000
00000000
00000010
00000100
00000010
00000000
00000000
00001000
00000000
00000001
00000000
00000000
,  // measure 49
00000010
00000001
00001000
00000100
00000010
00000000
00001000
00010000
00001000
00000000
00000000
00100000
00000000
00010000
00000000
00000000
,  // measure 50
10000000
01000000
00100000
00010000
10000000
00000000
01000000
00100000
01000000
00000000
00000000
10000000
00000000
00010000
00000000
00000000
,  // measure 51
01000000
00001000
00010000
00000010
00001000
00000000
00000100
00000010
00000100
00000000
00000000
00001000
00000000
00000001
00000000
00000000
,  // measure 52
00000100
00000001
00001000
00000010
00000100
00000000
00001000
00010000
00001000
00000000
00000000
01000000
00000000
00010000
00000000
00000000
,  // measure 53
10000000
00100000
01000000
00010000
10000000
00000000
00100000
01000000
00100000
00000000
00000000
00010000
00000000
00001000
00000000
00000000
,  // measure 54
00000010
00000001
00000010
00000001
00000200
00000000
00000000
00000000
00000000
00000000
00000000
00000000
00000000
00000000
00000000
00000000
,  // measure 55
00000300
00000000
00001000
00000100
00000001
00000010
00000001
00001000
,  // measure 56
00000100
00000010
00000001
00000001
00001000
00001000
00010000
01000000
,  // measure 57
00100000
10000000
00010000
01000000
00001000
00010000
01000000
00001000
,  // measure 58
00010000
00100000
00001000
00010000
00000010
00001000
00010000
00000100
,  // measure 59
00001000
00010000
00001000
00000010
00000001
00000100
00001000
00010000
,  // measure 60
00000010
00001000
00010000
00000100
00001000
00010000
01000000
10000000
,  // measure 61
00100000
01000000
00001000
00010000
10000000
01000000
00010000
00001000
,  // measure 62
00000010
00000100
00000002
00000000
00000023
00000000
00000230
00001000
,  // measure 63
00001000
00001300
00000000
00000000
00000000
00000000
00000000
00000000
;
