#TITLE:Memory of Sunrise;
#SUBTITLE:;
#ARTIST:nora2r;
#TITLETRANSLIT:;
#SUBTITLETRANSLIT:;
#ARTISTTRANSLIT:;
#GENRE:;
#CREDIT:;
#BANNER:Memory of Sunrise.png;
#BACKGROUND:Memory of Sunrise-bg.png;
#LYRICSPATH:;
#CDTITLE:;
#MUSIC:Memory of Sunrise.ogg;
#OFFSET:-0.060000;
#SAMPLESTART:33.727001;
#SAMPLELENGTH:14.999990;
#SELECTABLE:YES;
#DISPLAYBPM:*;
#BPMS:0.000000=180.000000
,96.000000=90.000000
,97.000000=180.000000
,159.000000=90.000000
,175.000000=180.000000
,203.000000=90.000000
,204.000000=180.000000
,211.000000=90.000000
,212.000000=180.000000
,218.000000=90.000000
,219.000000=180.000000
;
#STOPS:64.000000=1.000000,
143.500000=0.333000,
204.000000=0.333000,
263.000000=0.333000,
263.500000=0.167000,
264.000000=0.167000
;
#BGCHANGES:-0.500=Memory Of Sunrise.avi=1.000=1=0=0=StretchNoLoop==CrossFade==,
99999=-nosongbg-=1.000=0=0=0 // don't automatically add -songbackground-
;
#KEYSOUNDS:;
#ATTACKS:;

//---------------dance-single - ----------------
#NOTES:
     dance-single:
     :
     Hard:
     10:
     0.646103,0.832092,0.602001,0.370462,0.351167,586.000000,508.000000,78.000000,48.000000,0.000000,0.000000,0.646103,0.832092,0.602001,0.370462,0.351167,586.000000,508.000000,78.000000,48.000000,0.000000,0.000000:
// measure 0
0000
0000
0000
0000
,  // measure 1
0000
0000
0000
0000
,  // measure 2
0000
0000
0000
0000
,  // measure 3
0000
0000
0000
0000
,  // measure 4
0000
0000
0000
0000
,  // measure 5
1001
0100
0001
1000
,  // measure 6
0100
1000
0001
0010
,  // measure 7
0100
0010
0001
1000
,  // measure 8
0010
0100
1010
0101
,  // measure 9
1001
0000
1000
0100
1000
0000
0001
0000
,  // measure 10
0100
0001
0100
0001
0010
0000
0100
0000
,  // measure 11
1100
0000
1000
0001
1000
0000
0001
0000
,  // measure 12
0110
0010
1000
0100
1100
0000
0010
0000
,  // measure 13
0011
0000
0001
0100
0001
0010
0001
1000
,  // measure 14
0100
1000
0010
0100
0010
0001
0010
1000
,  // measure 15
0001
0010
0001
1000
0010
1000
0010
0100
0001
1000
0100
0010
0001
1000
0010
0000
,  // measure 16
0220
0330
0000
0000
1001
0000
0000
0000
0201
0000
0000
0301
0000
0000
0010
0000
,  // measure 17
1200
0000
0000
1300
0000
0000
0010
0000
0201
0000
0000
0310
0000
0000
1000
0001
,  // measure 18
2000
0000
0000
0000
3001
0000
0000
0000
1200
0000
0000
1300
0000
0000
0010
0000
,  // measure 19
0201
0000
0000
0301
0000
0000
0010
0000
1200
0000
0000
0310
0000
0000
0001
0100
,  // measure 20
0001
0100
0002
0000
1003
0000
0000
0000
1020
0000
0000
1030
0000
0000
0100
0000
,  // measure 21
0021
0000
0000
0031
0000
0000
0100
0000
1020
0000
0000
0130
0000
0000
0001
0010
,  // measure 22
0200
0000
0000
0000
0310
0000
0000
0000
0021
0000
0000
0031
0000
0000
0100
0000
,  // measure 23
1010
0000
1000
0000
0100
0000
0000
0000
1100
0000
0000
0110
0000
0000
0011
0000
,  // measure 24
0010
0001
1001
0000
0100
0001
0011
0000
,  // measure 25
1000
0000
0000
0100
0000
0000
0001
0000
0000
0100
0000
0000
1100
0000
0000
0000
,  // measure 26
0001
0000
1000
0000
0100
1000
1010
0000
,  // measure 27
0001
0000
0000
0100
0000
0000
1000
0000
0000
0000
0100
0010
0100
0010
0100
0000
,  // measure 28
0001
0000
1000
0000
0010
1000
1100
0000
,  // measure 29
0001
0000
0000
0010
0000
0000
1000
0000
0000
0010
0000
0000
0011
0000
0000
0000
,  // measure 30
0001
1000
0100
0001
0100
1000
0001
0100
,  // measure 31
0001
0000
0000
0010
0000
0000
0001
0000
0000
0000
0000
0000
1000
0000
0000
0000
0100
0000
0000
0000
1000
0000
0000
0000
0200
0000
0000
0000
0000
0000
0000
0000
0000
0000
0000
0000
0310
0000
0000
0000
0000
0000
0000
0000
0000
0000
0000
0000
,  // measure 32
0011
0000
0102
0000
1003
0100
0001
0100
,  // measure 33
1000
0000
0000
0010
1000
0000
0100
0000
1000
0000
0001
0000
0010
0000
0001
0000
,  // measure 34
1000
0000
2010
0000
3001
0100
1000
0100
,  // measure 35
0001
0000
0010
0001
0010
0000
0100
0000
1000
0000
0010
0000
0100
0000
0001
0000
,  // measure 36
1100
0000
0010
0011
0000
0001
0101
0000
,  // measure 37
1000
1010
0000
0010
0110
0000
1000
0010
,  // measure 38
0100
0000
0001
0000
1000
0100
1000
0100
0010
0001
0010
0001
2000
0000
0000
0000
,  // measure 39
0000
0000
0000
0000
0000
0000
0000
0000
3001
0000
0000
0000
1100
0000
0000
1001
,  // measure 40
0000
0000
0101
0000
0000
0000
0000
0000
0000
0000
0000
0000
0101
0000
0000
0011
,  // measure 41
0000
0000
0110
1100
0000
0000
0000
0000
1000
0010
1000
0001
0011
0000
0000
1001
,  // measure 42
0000
0000
1010
0000
0000
0000
0000
0000
0000
0000
0000
0000
0110
0000
0000
0101
,  // measure 43
0000
0000
1100
0000
0000
0000
0000
1001
0000
0000
0110
0000
0102
0000
0000
0000
,  // measure 44
2003
3200
0310
0012
,  // measure 45
2003
3020
1030
2100
,  // measure 46
3020
0230
0310
2010
,  // measure 47
3002
0023
0130
0101
,  // measure 48
0100
1100
1000
1010
,  // measure 49
0010
0000
0011
0000
0010
0000
1000
0010
,  // measure 50
0001
0010
1000
0001
1000
0100
2000
0000
,  // measure 51
3001
0000
0001
0010
0100
0001
0100
1000
,  // measure 52
0010
0000
0100
0000
1000
0000
0100
0000
0002
0000
0000
0000
2003
3200
0320
0032
,  // measure 53
1003
0100
0010
1000
0001
0100
1000
0010
,  // measure 54
0001
0000
0010
0000
0200
0000
0000
0000
0302
0023
0230
2300
3001
0000
0100
0000
,  // measure 55
1000
0001
0010
0100
1000
0100
0010
1000
,  // measure 56
0100
0001
1000
0010
0100
0001
0101
0000
,  // measure 57
0100
0000
1100
0000
0010
0000
1001
0010
,  // measure 58
0001
0100
0010
1000
0100
0010
0011
0000
,  // measure 59
0001
0000
0000
1000
0000
0000
1000
0000
0000
0010
0000
0100
,  // measure 60
0010
0000
0000
0010
0000
0000
1000
0100
0010
0001
0000
0000
,  // measure 61
0001
0000
0000
0010
0000
0000
0010
0000
0000
0100
1000
0010
,  // measure 62
1000
0000
1000
0001
0000
0000
0100
0001
0010
0001
0000
0000
,  // measure 63
0100
0001
1000
0100
0000
1100
0000
0010
0001
0010
0000
0011
,  // measure 64
0000
0001
1000
0001
0000
0100
0001
1000
0100
0020
0000
0000
,  // measure 65
0000
0000
0000
0000
0030
0000
1001
0011
,  // measure 66
1100
0000
1000
0000
0001
0000
0100
0001
0000
0100
0001
0000
1000
0000
0100
0000
,  // measure 67
0010
0000
0100
0000
1000
0000
0001
0010
0001
0000
0100
0000
0001
0000
0020
0000
,  // measure 68
0100
0000
0130
0000
1000
0000
0100
1000
0000
0100
1000
0000
0001
0000
0100
0000
,  // measure 69
0010
0000
0100
0000
0001
0100
0001
0100
0001
0000
1000
0100
1000
0000
0100
0000
,  // measure 70
0010
0000
0001
0000
1000
0000
0010
1000
0000
0010
1000
0000
0100
0000
0010
0000
,  // measure 71
0001
0010
0100
0001
0100
1000
0010
0100
,  // measure 72
1000
0000
0100
0000
0010
0000
1000
0001
1000
0000
0100
0000
0010
0100
0010
0000
,  // measure 73
0001
0100
0000
0101
0000
0001
0100
0010
,  // measure 74
1000
0000
0001
0000
1000
0000
0100
1000
0000
0001
0100
0000
0001
0000
0010
0000
,  // measure 75
0100
0000
0100
0000
1000
0000
0100
0000
0001
0000
0100
0000
1000
0001
1000
0000
,  // measure 76
0010
0000
0100
0000
0001
0000
0100
0001
0000
1000
0100
0000
1000
0000
0010
0000
,  // measure 77
0100
0100
0001
0100
1000
0100
0001
0010
,  // measure 78
1000
0000
0010
0000
0001
0000
1000
0010
0000
0100
0001
0000
1000
0000
0100
0000
,  // measure 79
0010
0000
1000
0000
0010
0000
0001
0000
0100
0000
0010
1000
0010
0000
0100
0000
,  // measure 80
0001
0000
1000
0000
0000
0000
1010
0000
0000
0101
0000
0000
0011
0000
0000
1100
,  // measure 81
0000
1001
0220
0000
0000
0000
0000
0000
,  // measure 82
0330
2001
0000
0000
,  // measure 83
0000
0000
0000
0000
,  // measure 84
0000
0002
0000
0000
,  // measure 85
0000
0000
0000
0000
,  // measure 86
0000
3003
0000
0000
;

//---------------dance-double - ----------------
#NOTES:
     dance-double:
     :
     Hard:
     10:
     0.676975,0.832092,0.463077,0.231539,0.443782,614.000000,554.000000,60.000000,30.000000,0.000000,0.000000,0.676975,0.832092,0.463077,0.231539,0.443782,614.000000,554.000000,60.000000,30.000000,0.000000,0.000000:
00000000
00000000
00000000
00000000
,
00000000
00000000
00000000
00000000
,
00000000
00000000
00000000
00000000
,
00000000
00000000
00000000
00000000
,
00000000
00000000
00000000
00000000
,
00011000
00010000
01000000
10000000
,
00100000
01000000
00010000
00001000
,
00000010
00000100
00000001
00000010
,
00001000
00010000
00010100
01001000
,
00011000
00000000
00010000
00001000
00000100
00000000
00000001
00000000
,
00001000
00000100
00001000
00000100
00010000
00000000
00100000
00000000
,
10100000
00000000
10000000
01000000
00010000
00000000
00001000
00000000
,
00010000
00100000
00010000
00001000
00000010
00000000
00000100
00000000
,
00001001
00000000
00000001
00000100
00000010
00001000
00010000
01000000
,
00100000
10000000
01000000
00100000
01000000
00010000
00001000
00000100
,
00000001
00000010
00000001
00001000
00000010
00001000
00000010
00010000
00001000
00010000
00001000
01000000
00010000
10000000
01000000
00100000
,
00020000
00030000
00000000
00000000
10010000
00000000
00000000
00000000
12000000
00000000
00000000
13000000
00000000
00000000
00100000
00000000
,
02010000
00000000
00000000
03010000
00000000
00000000
00100000
00000000
01002000
00000000
00000000
00013000
00000000
00000000
00000100
00000000
,
00001100
00000000
00000000
00000000
00001001
00000000
00000000
00000000
00000201
00000000
00000000
00000301
00000000
00000000
00000010
00000000
,
00001200
00000000
00000000
00001300
00000000
00000000
00000010
00000000
00020100
00000000
00000000
00031000
00000000
00000000
00100000
00000000
,
00010000
01000000
00100000
10000000
00010000
00000000
00000000
00000000
10200000
00000000
00000000
10300000
00000000
00000000
01000000
00000000
,
00210000
00000000
00000000
00310000
00000000
00000000
01000000
00000000
00102000
00000000
00000000
00013000
00000000
00000000
00001000
00000010
,
00000200
00000000
00000000
00000000
00001300
00000000
00000000
00000000
00000021
00000000
00000000
00000031
00000000
00000000
00000100
00000000
,
00001010
00000000
00001000
00000000
00000100
00000000
00000000
00000000
00010100
00000000
00000000
00011000
00000000
00000000
00101000
00000000
,
00100000
00000000
00010000
00000000
10010000
00000000
00000000
10000000
01000000
00000000
00010000
00000000
00001000
00000000
00000100
00000000
,
00000001
00000000
00000000
00000000
00000010
00000000
00000001
00000000
00001000
00000100
00001000
00000000
00000001
00000000
00000100
00000000
,
00000010
00000000
00000000
00000000
00001001
00000000
00000000
00000001
00000100
00000000
00001000
00000000
00010000
00000000
01000000
00000000
,
10000000
00000000
00000000
00000000
00100000
00000000
01000000
00000000
00000000
00000000
00001000
00010000
00001000
00010000
00001000
00000000
,
00000010
00000000
00000000
00000000
00001001
00000000
00000000
00000001
00000100
00000000
00001000
00000000
00010000
00000000
01000000
00000000
,
10000000
00000000
00100000
01000000
00010000
00000000
10000000
00000000
01000000
00000000
00010000
00000000
00000000
00000000
00000100
00000000
,
00000000
00000000
00000010
00000100
00001000
00000000
00000001
00000000
00000100
00000000
00001000
00000000
00000000
00000000
01000000
00000000
,
00100000
10000000
00010000
10000000
01000000
00100000
00020000
00000000
00000000
01030000
00000000
00000000
,
01010000
00000000
10200000
00000000
10300000
01000000
00010000
00001000
,
00000100
00000001
00000010
00001000
00010000
00000100
00000010
00000001
,
00001000
00000000
00000021
00000000
00000031
00000100
00001000
00010000
,
00100000
00000000
10000000
01000000
10000000
00000000
00010000
00000000
00000000
00000000
00100000
00001000
00100000
00000000
00010000
00000000
,
11000000
00000000
00100000
00110000
00000000
00001000
00011000
00000000
,
00000010
00000110
00000000
00000100
00000101
00000000
00000001
00000010
,
00000100
00000000
00000000
00000000
00000000
00000000
00001000
00000000
00000000
00000000
00000000
00000000
00000100
00000000
00000000
00010000
00000000
00000000
00000100
00000000
00000000
00010000
00000000
00000000
00001000
00000000
00000000
00100000
00000000
00000000
00001000
00000000
00000000
00100000
00000000
00000000
00010000
00000000
00000000
00000000
01000000
00000000
00000000
00000000
00010000
00000000
00000000
00000000
,
10000000
00000000
00000000
00000000
01000000
00000000
00000000
00000000
00100000
00000000
00000000
00000000
00020000
00000000
00000000
00000000
00000000
00000000
00000000
00000000
00000000
00000000
00000000
00000000
10030000
00000000
00000000
00000000
00000000
00000000
00000000
00000000
00000000
00000000
00000000
00000000
11000000
00000000
00000000
00000000
00000000
00000000
00000000
00000000
00000000
01010000
00000000
00000000
,
00000000
00000000
00011000
00000000
00000000
00000000
00000000
00000000
00000000
00000000
00000000
00000000
00000101
00000000
00000000
00001100
,
00000000
00000000
00010000
00011000
00000000
00000000
00000000
00000000
00100000
10000000
00010000
10000000
10100000
00000000
00000000
00110000
,
00000000
00000000
00011000
00000000
00000000
00000000
00000000
00000000
00000000
00000000
00000000
00000000
00000011
00000000
00000000
00001010
,
00000000
00000000
00011000
00000000
00000000
00000000
00000000
01100000
00000000
00000000
10100000
00000000
10000000
00000000
00000000
00000000
,
01000000
00100000
00010000
00001000
,
00000100
00000010
00000001
00000001
,
00000100
00000010
00001000
00010000
,
01000000
00000000
00100000
00000000
10000000
00000000
10000000
01000000
,
00010000
00000000
00001000
00000100
00000001
00000000
00000001
00000010
,
00001000
00000000
00010000
00100000
10000000
00000000
10000000
01000000
,
00100000
00010000
00001000
00000100
00000010
00000001
00002000
00000000
,
00003001
00000000
00000100
00000010
00001000
00010000
00000100
00001000
,
00010000
00000000
00100000
00000000
10000000
00000000
01000000
00000000
00200000
00000000
00000000
00000000
02300000
03020000
00032000
00003200
,
00001300
00010000
00100000
10000000
00010000
01000000
00100000
00010000
,
10000000
00000000
01000000
00000000
00020000
00000000
00000000
00000000
00230000
00320000
00032000
00003200
00000310
00000000
00000001
00000000
,
00000100
00001000
00000001
00000010
00001000
00010000
00001000
00000100
,
00000010
00001000
00010000
00000100
00001000
00010000
00100000
00010000
,
00001000
00000100
00000010
00001000
00010000
01000000
10000000
00100000
,
01000000
00010000
10000000
01000000
00010000
00001000
00000100
00000000
,
00000001
00000000
00000000
00000010
00000000
00000000
00000100
00000000
00000000
00010000
00000000
00001000
,
00010000
00000000
00000000
00010000
00000000
00000000
00000100
00001000
00010000
00100000
00000000
00000000
,
00100000
00000000
00000000
00010000
00000000
00000000
00010000
00000000
00000000
10000000
01000000
00010000
,
00001000
00000000
00001000
01000000
00000000
00000000
00100000
00010000
00001000
00000100
00000000
00000000
,
00000001
00000010
00000100
00000010
00000000
00001000
00000000
00010000
00001000
00000010
00000000
00001000
,
00000000
00100000
00010000
00001000
00000000
00010000
00100000
01000000
10000000
02000000
00000000
00000000
,
00000000
00000000
00000000
00000000
03000000
00000000
10010000
00110000
,
11000000
00000000
10000000
00000000
00010000
00000000
01000000
00100000
00000000
01000000
00100000
00000000
10000000
00000000
01000000
00100000
,
01000000
00000000
00010000
00000000
00001000
00000000
00000010
00000000
00001000
00000000
00010000
00000000
00000100
00001000
00000100
00000000
,
00000010
00000000
00000001
00000000
00001000
00000000
00000100
00000010
00000000
00000100
00000010
00000000
00000001
00000000
00000100
00000010
,
00000100
00000000
00001000
00000000
00010000
00001000
00010000
00001000
00010000
00000000
00100000
00000000
10000000
00000000
00010000
00000000
,
10000000
00000000
00100000
01000000
00010000
00000000
00100000
01000000
00000000
00100000
01000000
00000000
10000000
00000000
00100000
01000000
,
00100000
00000000
00010000
00000000
00000000
00000000
00011000
00000000
00000000
00000000
00000100
00000010
00000100
00000010
00000001
00000000
,
00000100
00000000
00001000
00000000
00010000
00000000
00000100
00000010
00000100
00000000
00010000
00000000
00001000
00100000
00001000
00000000
,
00010000
00000000
01000000
00000000
00000000
00000000
11000000
00000000
00000000
00000000
10000000
00000000
00100000
01000000
00100000
00000000
,
01000000
00000000
00010000
00000000
00001000
00000000
00000010
00000100
00000000
00000010
00000100
00000000
00000001
00000000
00000010
00000100
,
00000010
00000000
00001000
00000000
00000000
00000000
00011000
00000000
00000000
00000000
01000000
00100000
01000000
00100000
10000000
00000000
,
01000000
00000000
00010000
00000000
00001000
00000000
01000000
00100000
01000000
00000000
00001000
00000000
00010000
00000010
00010000
00000000
,
00001000
00000000
00000100
00000000
00000001
00000010
00000001
00000000
00000100
00000000
00001000
00010000
00001000
00000000
00000100
00000000
,
00000010
00000000
00001000
00000100
00010000
00000000
00001000
01000000
00010000
00000000
10000000
00000000
01000000
00100000
01000000
00000000
,
00010000
00000000
00001000
00000000
00100000
00000000
00010000
00000000
00001000
00000000
00000100
00000010
00000100
00000010
00000001
00000000
,
00001000
00000000
00000100
00000000
00000000
00000000
00010100
00000000
00000000
00101000
00000000
00000000
01010000
00000000
00000000
10100000
,
00000000
00000000
10010000
00000000
00000000
00000000
10000000
01000000
10000000
01000000
00100000
00010000
00100000
00010000
10000000
00100000
,
01000000
00001000
00010000
00000000
00022000
00000000
00000000
00000000
00000000
00000000
00000000
00000000
00000000
00000000
00000000
00000000
,
00000000
00000000
00000000
00000000
,
00000000
00000000
00000000
00000000
,
00000000
00000000
00000000
00000000
,
00000000
00033000
00000000
00000000
;

//---------------dance-single - ----------------
#NOTES:
     dance-single:
     :
     Medium:
     8:
     0.527026,0.599106,0.231539,0.385898,0.146641,478.000000,448.000000,30.000000,50.000000,0.000000,0.000000,0.527026,0.599106,0.231539,0.385898,0.146641,478.000000,448.000000,30.000000,50.000000,0.000000,0.000000:
0000
0000
0000
0000
,
0000
0000
0000
0000
,
0000
0000
0000
0000
,
0000
0000
0000
0000
,
0000
0000
0000
0000
,
0110
0000
0002
0000
0000
1000
0000
0000
,
0103
0010
1000
0100
,
0010
0000
0002
0000
0000
1000
0000
0000
,
0013
0100
1000
0100
,
1001
1000
0100
0100
,
0010
0010
0001
0001
,
0100
0010
0100
0000
0001
1000
0001
0000
,
1010
1000
0100
0000
0011
0001
0100
0000
,
0110
0010
1000
0001
1000
0010
0100
0001
,
0010
0100
1000
0001
0100
0010
1000
0100
,
0010
0001
1000
0010
0100
0001
1000
0100
,
0220
0330
0000
0000
1001
0000
0000
0000
0010
0000
0000
0001
0000
0000
0001
0000
,
0100
0000
0000
1000
0000
0000
1000
0000
0100
0000
0000
0010
0000
0000
1000
0000
,
1010
0000
0000
0000
1001
0000
0000
0000
0010
0000
0000
1000
0000
0000
1000
0000
,
0100
0000
0000
0001
0000
0000
0001
0000
0100
0000
0000
0010
0000
0000
0001
0000
,
0020
0000
0000
0000
0130
0000
0000
0000
1001
0000
0000
1000
0000
0000
0010
0000
,
0110
0000
0000
0100
0000
0000
0001
0000
0011
0000
0000
0100
0000
0000
1000
0001
,
1000
0000
0000
0000
0110
0000
0000
0000
1001
0000
0000
0001
0000
0000
0010
0000
,
0100
0000
1000
0000
0010
0000
0100
0000
0001
0000
0000
0001
0000
0000
0001
0000
,
0020
0030
0001
0000
0100
0010
1000
0200
,
0000
0300
0001
0200
0000
0310
0001
1000
,
0100
0000
1000
0000
0001
0100
1000
0200
,
0000
0301
0010
0200
0000
0320
0000
0030
,
0001
0000
1000
0000
0100
0010
0001
0200
,
0000
0310
0100
0001
1000
0100
0000
0110
,
0000
0001
1000
0001
0010
0100
0000
1000
,
0001
1000
0001
1000
0001
1000
0002
0000
0000
0013
0000
0000
,
0100
0000
1000
0100
0010
0001
1000
0020
,
0000
0130
0001
0020
0000
1030
0010
0001
,
1001
0000
0100
0000
0001
0100
0010
2000
,
0000
3000
0001
0020
0000
0130
1000
0010
,
1001
0000
0001
0010
0100
2000
0000
3010
,
0100
0001
1000
0100
0000
0110
0000
1000
,
0001
1000
0010
0100
0001
0010
0200
0000
,
0000
0000
0000
0000
0000
0000
0000
0000
1300
0000
0000
0000
0002
0000
0003
2000
,
0000
0000
3200
0000
0300
0000
0000
0000
0000
0000
0000
0000
2000
0000
0000
3002
,
0000
0000
0103
0020
0030
0000
0000
0000
1000
0100
0010
0001
2000
0000
0000
3002
,
0000
0000
0203
0000
0300
0000
0000
0000
0000
0000
0000
0000
0020
0000
0000
0230
,
0000
0000
0302
0000
0003
0000
0000
2000
0000
0000
3020
0000
1030
0000
0000
0000
,
2000
3100
0200
0310
,
0020
0031
0002
1003
,
2000
3010
0020
0130
,
0200
0000
0301
0000
0002
0000
1003
0100
,
1000
0000
0100
0001
0100
0000
0001
0010
,
0001
0000
0010
1000
0010
0000
1000
1000
,
0100
0100
0010
0010
0001
0001
2000
0000
,
3001
0000
0010
0001
0100
0010
1000
0001
,
0010
0100
1000
0100
0001
0100
2000
0000
,
3001
0010
0100
1000
0010
0001
0010
1000
,
0001
0100
0010
1000
0200
0000
0310
0001
,
0100
0000
1000
0100
0000
0001
0000
0100
,
0010
0001
0010
0100
0000
1010
0000
0010
,
0100
1000
0100
0010
0000
0101
0000
0010
,
0100
0001
0100
0010
1000
0100
0010
0000
,
0010
0000
0000
0001
0000
0000
0001
0000
0000
0100
0000
0100
,
0010
0000
0000
1000
0000
0000
1000
0001
1000
0001
0000
0000
,
0001
0000
0000
1000
0000
0000
1000
0000
0000
0100
0010
0100
,
0010
0000
0010
0001
0000
0000
2000
0000
0000
3010
0000
0000
,
0020
0000
0000
0130
0000
0100
0000
0100
0000
0001
0000
0001
,
0000
0001
0000
0010
0000
0010
0000
0010
0000
0220
0000
0000
,
0000
0000
0000
0000
0330
0000
1001
1010
,
0101
0000
1000
0010
0100
0000
0001
0010
,
0100
0000
1000
0100
0010
0001
1000
0010
,
0100
0000
0001
1000
0010
1000
0001
1000
,
0010
0100
0001
0000
0011
0000
1010
0000
,
0110
0000
0001
0010
0100
0000
1000
0010
,
0100
0000
0001
0100
0010
1000
0001
0010
,
0100
0000
1000
0010
0100
0001
0010
0100
,
1000
0010
0100
0000
0101
0000
1010
0000
,
1001
0000
0010
0001
1000
0001
0010
0001
,
1000
0100
0010
0001
0100
0010
1000
0001
,
0010
0000
0100
1000
0001
1000
0100
1000
,
0001
0010
1000
0010
0001
0100
1000
0100
,
0001
0000
1000
0100
0010
0001
0100
0010
,
1000
0000
0001
0100
0010
1000
0100
0010
,
0001
0000
1000
0000
0000
0000
0010
0000
0000
0010
0000
0000
0100
0000
0000
0100
,
0000
0001
0000
0010
0000
0100
1000
0010
,
0100
0001
2000
0000
0000
0000
0000
0000
,
0000
0000
0000
0000
,
0000
0002
0000
0000
,
0000
0000
0000
0000
,
0000
3003
0000
0000
;

//---------------dance-single - ----------------
#NOTES:
     dance-single:
     :
     Easy:
     4:
     0.297693,0.399404,0.339590,0.154359,0.000000,270.000000,226.000000,44.000000,20.000000,0.000000,0.000000,0.297693,0.399404,0.339590,0.154359,0.000000,270.000000,226.000000,44.000000,20.000000,0.000000,0.000000:
0000
0000
0000
0000
,
0000
0000
0000
0000
,
0000
0000
0000
0000
,
0000
0000
0000
0000
,
0000
0000
0000
0000
,
0002
0000
0000
0000
,
0000
0000
0000
0003
,
2000
0000
0000
0000
,
0000
0000
0000
3000
,
0010
0100
0010
0100
,
0001
1000
0001
1000
,
0100
0010
0100
0010
,
0001
1000
0001
1000
,
0100
0010
0001
0100
,
0010
1000
0100
0010
,
2002
0000
0000
3003
,
1001
0000
0011
0000
,
1010
0000
0110
0000
,
1001
0000
1010
0000
,
0011
0000
0110
0000
,
1001
0000
1100
0000
,
0101
0000
0110
0000
,
1001
0000
0011
0000
,
0110
0000
1001
0110
,
1001
0100
0100
0010
,
0000
1000
0100
0010
,
0001
0100
0100
0010
,
0000
2000
3000
1001
,
0100
0100
0010
0000
,
0001
0100
0010
1000
,
0001
1000
0100
0010
,
0002
0000
0000
0003
,
1000
0001
0100
1000
,
0000
0001
0010
1000
,
0000
1000
0100
0001
,
0000
1000
0010
0001
,
0101
0000
0000
1001
0000
0000
1010
0000
,
0000
0110
0000
0000
1001
0000
0010
0000
,
0100
0001
1000
0200
,
0000
0000
0300
0220
,
0000
0330
0000
2002
,
0000
3003
0000
0022
,
0000
0033
0000
2200
,
0000
0000
3300
0001
,
0010
0001
0010
0100
,
1000
0100
1000
0001
,
0100
0001
0100
0010
,
1000
0010
1000
1001
,
0000
0101
0000
1100
,
0000
0110
0000
1000
,
0100
0010
0001
1001
,
0000
0001
0010
0100
,
1000
0010
0100
0001
,
1000
0100
0010
0001
,
0100
0010
1000
0001
,
0010
1000
0010
0001
,
1000
0010
0001
0010
,
1000
0001
0100
1000
,
0100
0001
0010
0100
,
0000
1000
0000
0001
,
0000
0100
0000
0010
,
0000
1000
0000
0001
,
0001
0001
0000
1010
,
0000
0101
0000
1100
,
0000
0110
0000
2002
,
0000
0000
0000
0000
0000
3003
0010
0010
,
0010
0001
0100
0001
,
0100
0010
1000
0010
,
1000
0100
0001
0100
,
1000
0010
0100
0001
,
0000
1000
0100
1000
,
0100
0010
0001
0010
,
0001
0100
1000
0100
,
0001
0010
0100
1000
,
0000
1001
0001
0010
,
0100
1000
0010
0100
,
0001
1001
1000
0010
,
0100
0001
0010
0100
,
1000
1001
0010
0001
,
0100
1001
0010
1000
,
0100
0020
0000
0000
,
0000
0000
0030
0001
,
0100
2002
0000
0000
,
0000
0000
0000
0000
,
0000
0000
0000
0000
,
0000
0000
0000
0000
,
0000
3003
0000
0000
;

//---------------dance-single - ----------------
#NOTES:
     dance-single:
     :
     Beginner:
     2:
     0.148846,0.222181,0.030872,0.054026,0.000000,135.000000,131.000000,4.000000,7.000000,0.000000,0.000000,0.148846,0.222181,0.030872,0.054026,0.000000,135.000000,131.000000,4.000000,7.000000,0.000000,0.000000:
0000
0000
0000
0000
,
0000
0000
0000
0000
,
0000
0000
0000
0000
,
0000
0000
0000
0000
,
0000
0000
0000
0000
,
0001
0000
0000
0000
,
0000
0000
0000
0000
,
1000
0000
0000
0000
,
0000
0000
0000
0000
,
0010
0000
0000
0000
,
0010
0000
0000
0000
,
0100
0000
0100
0000
,
0100
0000
0100
0000
,
0001
0001
0001
0000
,
1000
1000
1000
0000
,
0020
0000
0000
0030
,
0000
0000
0000
0000
,
0000
0000
0000
0000
,
0110
0000
0000
0000
,
0000
0000
0000
0000
,
0001
1000
0000
0000
,
0000
0000
0000
0000
,
0110
0000
0000
0000
,
0001
0000
0000
0000
,
1000
0010
0000
0010
,
0000
0100
0100
0000
,
0000
0001
0000
0001
,
0000
2000
0000
3000
,
0000
0010
0010
0000
,
0000
0100
0000
0100
,
0000
0001
0000
0001
,
0000
0000
0000
0000
,
1000
0010
0000
0010
,
0000
0100
0100
0000
,
0000
0001
0000
0001
,
0000
2000
0000
3000
,
0010
0000
0000
0000
,
0100
0000
0000
0000
,
0001
0000
0000
1000
,
0000
0000
0000
0001
,
0000
0000
0000
1000
,
0000
0000
0000
0001
,
0000
0000
0000
1000
,
0000
0000
0000
0010
,
0000
0010
0000
0010
,
0000
0010
0000
0100
,
0000
0100
0000
0100
,
0000
0100
0000
0001
,
0000
1000
0000
0001
,
0000
1000
0000
0020
,
0000
0000
0000
0030
,
0000
1000
1000
1000
,
0000
1000
0000
1000
,
0001
0001
0001
0000
,
0001
0000
0001
0010
,
0010
0010
0000
0010
,
0000
0010
0000
0100
,
0000
0100
0000
2002
,
0000
0000
3003
0010
,
0000
0000
0001
0001
,
0000
1000
0000
0010
,
0000
0000
1000
1000
,
0000
0001
0000
0100
,
0000
0010
0000
0100
,
0000
0010
0000
0200
,
0000
0000
0000
0300
,
0000
0001
0000
1000
,
0000
0010
0010
0010
,
0000
1000
0000
0001
,
0000
0100
0100
0100
,
0100
0100
0000
0010
,
0000
1000
0000
0010
,
0000
0100
0000
0100
,
0000
0001
0001
0001
,
0000
1000
0000
0001
,
0000
0010
0010
0010
,
0000
0001
0000
1000
,
0000
0100
0100
0100
,
0100
0100
0000
0010
,
0000
0001
0000
0010
,
0000
0100
0000
0000
,
0000
0000
0000
0000
,
0000
1001
0000
0000
;

//---------------dance-double - ----------------
#NOTES:
     dance-double:
     :
     Medium:
     9:
     0.517103,0.599106,0.185231,0.393616,0.115769,469.000000,445.000000,24.000000,51.000000,0.000000,0.000000,0.517103,0.599106,0.185231,0.393616,0.115769,469.000000,445.000000,24.000000,51.000000,0.000000,0.000000:
00000000
00000000
00000000
00000000
,
00000000
00000000
00000000
00000000
,
00000000
00000000
00000000
00000000
,
00000000
00000000
00000000
00000000
,
00000000
00000000
00000000
00000000
,
00011000
00000000
00200000
00000000
00000000
10000000
00300000
00000000
,
00010000
00100000
00001000
00010000
,
00000100
00000000
00000020
00000000
00000000
00000001
00000030
00000000
,
00001000
00000010
00010000
00001000
,
00011000
00010000
00100000
00100000
,
10000000
10000000
01000000
01000000
,
00010000
00001000
00010000
00000000
00000010
00000100
00000010
00000000
,
00001000
00000001
00001000
00000000
00000001
00000100
00001000
00000000
,
00011000
00010000
01000000
10000000
00010000
00100000
01000000
10000000
,
00100000
01000000
00010000
00100000
00001000
00010000
00000010
00001000
,
00000001
00000100
00001000
00010000
00001000
00000010
00000001
00000100
,
00000220
00000330
00000000
00000000
00001001
00000000
00000000
00000000
00000010
00000000
00000000
00000001
00000000
00000000
00000001
00000000
,
00000100
00000000
00000000
00001000
00000000
00000000
00001000
00000000
00010000
00000000
00000000
00100000
00000000
00000000
10000000
00000000
,
10100000
00000000
00000000
00000000
10010000
00000000
00000000
00000000
00100000
00000000
00000000
10000000
00000000
00000000
10000000
00000000
,
01000000
00000000
00000000
00010000
00000000
00000000
00010000
00000000
00001000
00000000
00000000
00000010
00000000
00000000
00000001
00000000
,
00000020
00000000
00000000
00000000
00000130
00000000
00000000
00000000
00001001
00000000
00000000
00001000
00000000
00000000
00000010
00000000
,
00010010
00000000
00000000
00010000
00000000
00000000
00001000
00000000
00101000
00000000
00000000
01000000
00000000
00000000
10000000
00010000
,
10000000
00000000
00000000
00000000
01100000
00000000
00000000
00000000
10010000
00000000
00000000
10000000
00000000
00000000
00100000
00000000
,
01000000
00000000
00010000
00000000
00100000
00000000
00001000
00000000
00010000
00000000
00000000
00000010
00000000
00000000
00000100
00000000
,
00000020
00000030
00001000
00000000
00000001
00000100
00001000
00020000
,
00000000
00030000
00000010
00002000
00000000
00013000
01000000
00100000
,
10000000
00000000
00010000
00000000
00100000
00010000
01000000
00200000
,
00000000
00310000
00001000
00000020
00000000
00000030
00000001
00000000
,
00001000
00000000
00000100
00000000
00010000
00001000
00100000
02000000
,
00000000
13000000
00100000
00010000
00100000
10000000
00000000
01000000
,
00000000
00010000
00001000
00000100
00001000
00010000
00000000
00000010
,
00000100
00000001
00000100
00000001
00001000
00000100
00002000
00000000
00000000
00003001
00000000
00000000
,
00001001
00000000
00001000
00000000
00000001
00000010
00001000
00020000
,
00000000
00030000
00000100
00002000
00000000
00013000
00100000
01000000
,
10000000
00000000
00010000
00000000
01000000
00010000
00100000
02000000
,
00000000
03010000
00001000
00000200
00000000
00001300
00000100
00000010
,
00001001
00000000
00000001
00000010
00001000
00020000
00000000
00130000
,
00010000
00001000
00000010
00001000
00000000
00010000
00000000
01000000
,
10000000
00100000
00010000
00001000
00000000
00010000
02000000
00000000
,
00000000
00000000
00000000
00000000
03000000
00000000
00000000
00000000
10010000
00000000
00000000
00000000
20000000
00000000
00000000
32000000
,
00000000
00000000
03020000
00000000
00030000
00000000
00000000
00000000
00000000
00000000
00000000
00000000
00002000
00000000
00000000
00023000
,
00000000
00030000
00000020
00000200
00000330
00000000
00000000
00000000
00000000
00000000
00000000
00000000
00000002
00000000
00000000
00000203
,
00000000
00000000
00002300
00000000
00003000
00000000
00000000
00000000
00000000
00000000
00000000
00000000
00020000
00000000
00000000
00032000
,
00000000
00000000
02003000
00000000
03000000
00000000
00000000
01010000
00000000
00000000
10100000
00000000
10000000
00000000
00000000
00000000
,
20000000
31000000
02000000
03100000
,
00200000
00310000
00020000
00031000
,
00002000
00003100
00000200
00000310
,
00000020
00000031
00000002
00001003
,
00010000
10000000
00010000
00001000
,
00000001
00000000
00001000
00000000
00010000
00000000
10000000
01000000
,
00100000
00010000
00001000
00000100
00000010
00000001
00002000
00000000
,
00003001
00000000
00000010
00000001
00000100
00001000
00010000
01000000
,
10000000
00100000
10000000
00010000
00100000
01000000
20000000
00000000
,
30010000
00100000
10000000
00010000
01000000
10000000
01000000
00100000
,
00010000
00001000
00000100
00001000
00000002
00000000
00000013
00000001
,
00000100
00001000
00000100
00000010
00001000
00010000
01000000
10000000
,
01000000
00010000
00100000
00001000
00010000
02000000
03000000
10000000
,
01000000
00010000
00001000
00000100
00000001
00000020
00000030
00000001
,
00000100
00001000
00010000
01000000
10000000
00100000
10000000
00000000
,
10000000
00000000
00000000
01000000
00000000
00000000
01000000
00000000
00000000
00010000
00000000
00010000
,
00001000
00000000
00000000
00000100
00000000
00000000
00000001
00000010
00000100
00001000
00000000
00000000
,
00001000
00000000
00000000
00000001
00000000
00000000
00000001
00000000
00000000
00000010
00000100
00000010
,
00000100
00000000
00000100
00010000
00000000
00000000
00001000
00000000
00000000
00012000
00000000
00000000
,
01003000
00021000
00030100
00012000
,
00103000
00021000
00030010
00022000
,
00000000
00000000
00000000
00000000
00033000
00000000
00011000
00100000
,
10000000
00000000
00010000
00100000
01000000
00000000
10000000
00100000
,
01000000
00000000
00010000
10000000
01000000
00010000
00001000
00000100
,
00000001
00000000
00001000
00000010
00000100
00000000
00000001
00000010
,
00000100
00000000
00001000
00000001
00000010
00001000
00010000
00100000
,
10000000
00000000
00010000
01000000
00100000
00000000
10000000
01000000
,
00100000
00000000
00010000
10000000
00100000
00010000
00001000
00000010
,
00000001
00000000
00001000
00000010
00000100
00000001
00000010
00001000
,
00010000
00000100
00001000
00010000
00100000
00010000
10000000
00100000
,
10000000
01000000
00010000
00000000
00001000
00000100
00010000
00001000
,
00000100
00010000
00001000
00100000
00010000
00001000
00100000
00010000
,
00001000
00010000
00100000
01000000
00010000
10000000
00100000
00010000
,
00001000
00000100
00010000
00001000
00000010
00000001
00000010
00001000
,
00000001
00000100
00000010
00000000
00001000
00000100
00001000
00000001
,
00000010
00001000
00010000
00000100
00001000
00010000
00100000
00001000
,
00010000
00000000
01000000
00000000
00000000
00000000
10000000
00000000
00000000
10000000
00000000
00000000
00010000
00000000
00000000
00010000
,
00000000
01000000
00000000
01001000
00000000
00010000
00001000
00000100
,
00000001
00000010
00000200
00000000
00000000
00000000
00000000
00000000
,
00000000
00000000
00000000
00000000
,
00000000
00000000
00000000
00000000
,
00000000
00000000
00000000
00000000
,
00000000
00000300
00000000
00000000
;

//---------------dance-double - ----------------
#NOTES:
     dance-double:
     :
     Easy:
     4:
     0.293282,0.399404,0.301000,0.154359,0.000000,266.000000,227.000000,39.000000,20.000000,0.000000,0.000000,0.293282,0.399404,0.301000,0.154359,0.000000,266.000000,227.000000,39.000000,20.000000,0.000000,0.000000:
00000000
00000000
00000000
00000000
,
00000000
00000000
00000000
00000000
,
00000000
00000000
00000000
00000000
,
00000000
00000000
00000000
00000000
,
00000000
00000000
00000000
00000000
,
00002000
00000000
00000000
00000000
,
00000000
00000000
00000000
00003000
,
00020000
00000000
00000000
00000000
,
00000000
00000000
00000000
00030000
,
00000010
00000100
00000010
00000100
,
00000001
00001000
00000001
00001000
,
00000100
00010000
00000100
00010000
,
00001000
01000000
00001000
01000000
,
00100000
10000000
01000000
00100000
,
00010000
01000000
00100000
00010000
,
00022000
00000000
00000000
00033000
,
00011000
00000000
00010010
00000000
,
01001000
00000000
00011000
00000000
,
00110000
00000000
00011000
00000000
,
00101000
00000000
00010100
00000000
,
00011000
00000000
00001010
00000000
,
00000101
00000000
00001001
00000000
,
00010010
00000000
01001000
00000000
,
01010000
00000000
10010000
01100000
,
10010000
01000000
01000000
00100000
,
00000000
10000000
01000000
00100000
,
00010000
00000100
00000100
00000010
,
00000000
00002000
00003000
00001001
,
00000100
00000100
00000010
00000000
,
00000001
00000100
00000010
00001000
,
00010000
01000000
00100000
10000000
,
00020000
00000000
00000000
00030000
,
00001000
00000001
00000100
00001000
,
00000000
00010000
00100000
10000000
,
00000000
10000000
01000000
00010000
,
00000000
00001000
00000010
00000001
,
00000101
00000000
00000000
00001100
00000000
00000000
00011000
00000000
,
00000000
01010000
00000000
00000000
11000000
00000000
00010000
00000000
,
01000000
00001000
00010000
00000020
,
00000000
00000000
00000030
00002002
,
00000000
00003003
00000000
00000220
,
00000000
00000330
00000000
00022000
,
00000000
00000000
00033000
02200000
,
00000000
00000000
03300000
10000000
,
00100000
10000000
00100000
01000000
,
00010000
01000000
00010000
00100000
,
00001000
00100000
00001000
00010000
,
00000100
00001000
00000001
00001001
,
00000000
00000101
00000000
00001100
,
00000000
00011000
00000000
00010000
,
00100000
10000000
00010000
10010000
,
00010000
00100000
01000000
10000000
,
00100000
01000000
00001000
00010000
,
00000100
00000010
00000001
00000100
,
00000010
00010000
00001000
00100000
,
00010000
10000000
00010000
01000000
,
00010000
00100000
00001000
00010000
,
00000100
00001000
00000010
00001000
,
00000001
00000100
00001000
00010000
,
00000000
00100000
00000000
10000000
,
00000000
01000000
00000000
00010000
,
00000000
00001000
00000000
00000100
,
00000100
00000100
00000000
00000001
,
00000000
00001000
00000000
00010000
,
00000000
10000000
00000000
20020000
,
00000000
00000000
00000000
00000000
00000000
30030000
00100000
00100000
,
00100000
00010000
01000000
00010000
,
01000000
00100000
10000000
00100000
,
10000000
01000000
00010000
00001000
,
00000100
00000010
00000100
00000001
,
00000000
00001000
00000100
00001000
,
00000100
00000010
00000001
00000010
,
00000001
00000100
00001000
00010000
,
01000000
00100000
01000000
10000000
,
00000000
10010000
10000000
00100000
,
01000000
00010000
00100000
01000000
,
00010000
00011000
00001000
00000100
,
00000010
00001000
00000100
00000010
,
00000001
00001001
00000010
00000001
,
00000100
00001000
00010000
00100000
,
10000000
02000000
00000000
00000000
,
00000000
00000000
03000000
00010000
,
00001000
00022000
00000000
00000000
,
00000000
00000000
00000000
00000000
,
00000000
00000000
00000000
00000000
,
00000000
00000000
00000000
00000000
,
00000000
00033000
00000000
00000000
;
