#TITLE:MEGALOMAN[i]A;
#SUBTITLE:;
#ARTIST:TITANZ;
#TITLETRANSLIT:;
#SUBTITLETRANSLIT:;
#ARTISTTRANSLIT:;
#GENRE:;
#CREDIT:;
#BANNER:MEGALOMAN[i]A.png;
#BACKGROUND:MEGALOMAN[i]A-bg.png;
#LYRICSPATH:;
#CDTITLE:;
#MUSIC:MEGALOMAN[i]A.ogg;
#OFFSET:0.883000;
#SAMPLESTART:29.117001;
#SAMPLELENGTH:15.000000;
#SELECTABLE:YES;
#BPMS:0.000000=400.000000
,8.000000=100.000000
,40.000000=200.000000
,72.000000=400.000000
,199.000000=200.000000
,214.000000=400.000000
,238.000000=100.000000
,240.000000=200.000000
,272.000000=100.000000
,280.000000=200.000000
,296.000000=100.000000
,315.500000=420.000000
;
#STOPS:159.000000=0.150000,
213.500000=0.300000,
307.750000=0.150000,
342.000000=0.286000
;
#BGCHANGES:;
#KEYSOUNDS:;
#ATTACKS:;
#DISPLAYBPM:*;

//---------------dance-single - ----------------
#NOTES:
     dance-single:
     :
     Hard:
     10:
     0.839793,1.180508,0.585835,0.202012,0.292917,582.000000,524.000000,58.000000,20.000000,0.000000,0.000000,0.839793,1.180508,0.585835,0.202012,0.292917,582.000000,524.000000,58.000000,20.000000,0.000000,0.000000:
0000
0000
0000
0000
,
0000
0000
0000
0000
,
1200
0000
0300
0010
0001
0000
0100
0000
0010
0000
1000
0000
0001
1000
0100
0000
,
0011
0000
0000
0000
0100
0000
0000
0000
1010
0000
0000
0000
0100
0000
0000
0000
1001
0000
0000
0000
0000
0001
0010
0100
1000
0000
0000
0000
0000
0000
0000
0000
,
1001
0000
0000
0000
0000
0000
0000
0000
0100
0000
0000
0000
0010
0000
0000
0000
1000
0000
0100
0000
0010
0000
0001
0100
0010
0000
0000
0000
1000
0000
0000
0000
,
0201
0000
0000
0000
0000
0000
0000
0000
0000
0000
0000
0000
0320
0000
0000
0000
0000
0000
0000
0000
0030
0000
1000
0001
0100
0000
0000
0000
0010
0000
0000
0000
,
2001
0000
0001
0200
3000
1000
0320
0000
,
0001
0000
0000
0000
0200
0000
0000
0000
0030
0000
0000
0000
1000
0000
0000
0000
0320
0000
0000
0000
0030
0000
0001
1000
0001
0000
0000
0000
0100
0000
0000
0000
,
1010
0000
0100
0001
0020
0000
0000
0000
0031
0100
0010
1000
0001
0000
0100
0000
,
0020
0000
1000
0000
0030
0000
0000
0000
0200
0000
0001
0000
0300
0000
0000
0000
0020
0000
1000
0000
0000
0000
0130
0001
0100
0000
0000
0000
0010
0000
0000
0000
,
1000
0010
0100
0001
0010
1000
0010
0011
,
0000
0101
0000
1010
0000
1000
1000
0001
,
0010
0010
0001
0100
1000
0000
0100
0101
,
0000
0110
0000
1010
0000
0100
0100
0100
,
0001
0010
0100
0010
1000
0010
0001
0100
,
0000
1000
0100
0100
0001
0010
0010
0001
,
1000
0000
0100
0000
0001
0000
0100
0000
1000
0010
1000
0000
0100
0000
0010
0000
,
0001
0000
0100
0000
0010
0000
1000
0000
0001
0010
0001
0000
1000
0000
0100
0000
,
0010
0000
0001
0000
0100
0000
0010
1000
,
0010
1000
0010
0000
0100
0000
0001
0000
,
0010
0000
0001
0010
0001
0000
1000
0010
,
1000
0000
0001
0010
0001
0000
0100
0000
,
0010
0000
1000
0000
0100
0000
0010
0001
,
0010
0001
0010
0000
0100
0000
1000
0000
,
0010
0000
1000
0010
1000
0000
0001
0010
,
0001
0000
1000
0010
1000
0000
0100
0000
,
0010
0001
0100
1000
,
0100
0001
0010
1000
,
0010
0000
0001
1000
0100
0000
1000
0001
,
0100
0000
0001
1000
0100
0000
1000
0000
,
0010
1000
0100
0001
,
0100
1000
0010
0001
,
0010
1000
0100
0010
,
0001
0100
0001
0100
0010
0100
0010
1000
,
0010
1000
0020
0000
0030
0000
0101
0000
,
0110
0000
1001
0000
,
0010
0001
0020
0000
0030
0000
1100
0000
,
0110
0000
1001
0000
,
0010
0100
0020
0000
0030
0000
1010
0000
,
0011
0000
1001
0000
,
1100
1001
0000
0011
,
0000
0000
0110
0000
0000
0000
1000
0001
,
1000
0000
0100
0000
0010
0001
0100
0000
,
0010
0000
1010
0000
0000
0000
0100
0001
,
0100
0001
0010
0000
0100
1000
0001
0000
,
0010
0000
1100
0000
0000
0000
0001
1000
,
0001
0000
0100
0000
0010
1000
0100
0000
,
0010
0011
0000
1100
,
1010
0000
0011
0101
,
0000
1001
0000
1000
,
0100
0000
0001
0100
1000
0010
0100
0000
,
1010
0000
0110
0110
0001
1000
0010
0000
,
0100
0000
1000
0100
0001
0010
0100
0000
,
0011
0000
0110
0110
1000
0000
0010
0000
,
0001
0000
0010
1000
,
0100
0010
0001
0100
,
0010
0000
1000
0010
1000
0000
0001
0010
,
0001
1000
0001
0010
,
1000
0000
0010
0001
,
0100
0020
0000
0030
,
1000
0100
1000
0100
0001
0100
0001
0100
,
1000
0010
0001
0010
1000
0100
0001
0000
,
0100
1000
0100
1000
0001
0100
0001
0100
,
0010
1000
0100
0001
0100
1000
0010
0000
,
0100
0001
1010
0000
0100
1000
0011
0000
,
0110
0000
1001
0000
0010
0100
1001
0000
,
1100
1000
0001
0000
0101
0001
1000
0000
,
1100
0000
0101
0000
0010
0100
1001
0000
,
0020
0000
0001
0001
0000
0000
1000
1000
0000
0000
0100
0100
0000
0000
0001
0031
,
0000
0000
1001
0000
0000
0000
1000
0100
0010
0001
0000
0100
0000
0020
0000
0030
,
1000
0000
1000
0000
1000
0000
0001
0100
,
1000
0000
1000
0100
0000
0001
0010
0001
,
0101
1100
1010
0011
,
1000
0000
0100
0000
0010
0000
0001
0000
0100
0000
0010
1000
0001
0100
0010
0000
,
0220
0000
0000
0330
,
0001
0010
0100
0000
1000
0010
0000
0100
0000
0001
0000
1000
0000
0001
0100
1000
,
0000
0100
0010
0000
1000
0001
0000
0010
0000
0100
0000
1000
0000
0001
0010
0001
,
1000
0000
0010
0100
0000
0001
0000
0010
0000
0100
0000
1000
0001
1000
0000
1000
,
0100
0000
0000
0000
0010
0000
0001
0000
0000
0000
0100
0000
0010
0000
0000
0000
0010
0000
0000
0000
0010
0000
0000
0000
0010
0100
0010
0100
0001
0000
0000
0000
,
1000
0010
1000
0000
0001
0000
1000
0100
,
1000
0010
0100
0001
,
1000
0100
0010
0000
0001
0100
0010
0000
,
1000
0100
1000
0100
0010
0000
0001
0000
,
0100
0010
0100
0000
1000
0000
0100
0010
,
0100
0001
0010
0100
,
1000
0010
1001
1000
,
0001
0010
0001
0000
1000
0000
0001
0100
,
0001
0010
0100
1000
,
0001
0100
0010
0000
1000
0100
0010
0000
,
0001
0100
0001
0100
0010
0000
1000
0000
,
0100
0010
0100
0000
0001
0000
0100
0010
,
0100
1000
0010
0100
,
0001
1000
0010
0000
1000
0001
0010
0100
,
1000
0001
0100
0010
0100
0000
0000
0000
;

//---------------dance-single - ----------------
#NOTES:
     dance-single:
     :
     Challenge:
     11:
     0.973987,1.511050,0.707042,0.303018,0.520181,675.000000,605.000000,70.000000,30.000000,0.000000,0.000000,0.973987,1.511050,0.707042,0.303018,0.520181,675.000000,605.000000,70.000000,30.000000,0.000000,0.000000:
0000
0000
0000
0000
,
0000
0000
0000
0000
,
0101
0000
0000
0010
1000
0000
0100
0010
0001
0000
1000
0010
0001
0010
1000
0000
,
1100
0000
0000
0000
0010
0000
0001
0000
1000
0000
0000
0000
0010
0000
1000
0000
0100
0000
0000
0000
0000
0010
0001
0100
0010
0000
0000
0000
0000
0000
0000
0000
,
1001
0000
0000
0000
0000
0000
0000
0000
0000
0000
0000
0000
0010
0000
0000
0000
0000
0000
0100
0000
0000
0001
0000
0000
0010
0000
0000
0100
0000
0000
1000
0000
0100
0000
0001
0000
0100
0000
0000
0000
0000
0000
0000
0000
0000
0000
0000
0000
,
0021
0000
0000
0000
0000
0000
0000
0000
0000
0000
0000
0000
0230
0000
0000
0000
0000
0000
0000
0000
0300
1000
0010
0100
0001
0000
0000
0000
0010
0000
0000
0000
,
0011
0000
0100
1000
0010
0000
0100
0001
0010
1000
0010
0001
0100
0000
0000
0000
,
1001
0000
0000
0000
0000
0000
0000
0000
0000
0000
0000
0000
0000
0000
0000
0000
0000
0000
0000
0000
0000
0000
0000
0000
0200
0000
0000
0000
0000
0000
0000
0000
0000
0000
0000
0000
0000
0000
0000
0000
0000
0000
0000
0000
0000
0000
0000
0000
0000
0000
0000
0000
0000
0000
0000
0000
0000
0000
0000
0000
0000
0000
0000
0000
0000
0000
0000
0000
0000
0000
0000
0000
0310
0000
0000
0000
0000
0000
0001
0000
0000
0000
0000
0000
0010
0000
0000
0000
0000
0000
0001
0000
0000
0000
0000
0000
0010
0000
0000
0000
0000
0000
0000
0000
0000
0000
0000
0000
0000
0000
0000
0000
0000
0000
0000
0000
0000
0000
0000
0000
0100
0000
0000
0000
0000
0000
0000
0000
1000
0000
0000
0000
0000
0000
0000
0000
0010
0000
0000
0000
0000
0000
0000
0000
0200
0000
0000
0000
0000
0000
0000
0000
0000
0000
0000
0000
0000
0000
0000
0000
0000
0000
0000
0000
0000
0000
0000
0000
0000
0000
0000
0000
0000
0000
0000
0000
0000
0000
0000
0000
0000
0000
0000
0000
0000
0000
0000
0000
0000
0000
0000
0000
,
0301
0000
0000
0000
0000
0000
0010
0000
1000
0000
0010
0000
0002
0000
0000
0000
0000
0000
0000
0000
0000
0000
0000
0000
0103
0000
0000
0010
0000
0000
1000
0000
0100
0000
0001
0000
0200
0000
0000
0000
0000
0000
0000
0000
0000
0000
0000
0000
,
0310
0000
0000
0002
0000
0000
0000
0000
0000
0003
0000
0000
0010
0000
0000
2000
0000
0000
0000
0000
0000
3000
0000
0000
0010
0000
0000
0001
0000
0000
1000
0000
0001
0000
0100
0000
1000
0000
0000
0000
0000
0000
0100
0000
0000
0000
0000
0000
,
0001
1000
0010
0100
1000
0001
0010
1000
,
0000
1100
0000
0101
0000
0011
0110
0001
,
1000
0001
0010
0100
0001
1000
0010
0001
,
0000
0101
0000
1100
0000
1010
0110
1000
,
0001
0000
1000
0010
0001
0000
1000
0100
0001
0000
0010
0000
0100
0000
1001
0000
,
0000
0000
0010
0000
0101
0000
1000
0100
0010
0000
0100
0000
1000
0000
0101
0000
,
0101
0000
0010
1000
0100
0000
0010
0000
0001
0100
0010
0000
0110
0000
1001
0000
,
1000
0000
0010
0000
0010
0000
0100
0010
0100
0001
0010
0100
0010
0000
0110
0000
,
1001
0000
0001
0100
0010
0000
1000
0100
,
0010
0001
0100
1000
,
0100
0001
0100
0010
0100
0001
0100
0001
,
0010
0000
0100
1000
0010
0000
0100
0000
,
0001
0000
1000
0010
0100
0000
0001
0010
,
0100
0000
1000
0100
0001
0000
0001
0100
,
1000
0000
0010
0100
0001
0000
0010
0100
,
1000
0100
1000
0010
0100
0001
1000
0000
,
0001
0000
1000
0100
0010
0000
0001
0100
,
0010
1000
0100
0001
,
0100
1000
0100
0010
0100
1000
0100
1000
,
0010
0000
0100
0001
0010
0000
0100
0000
,
1000
0000
0001
0010
0100
0000
1000
0010
,
0100
0000
0001
0100
1000
0000
1000
0100
,
0001
0000
0010
0100
1000
0000
0010
0100
,
0001
0100
0001
0010
0100
1000
0001
0000
,
1000
0100
0002
0000
0103
0000
0010
0000
,
0011
0000
1001
0000
,
0001
0100
1000
0000
0200
0000
0310
0000
,
1010
0000
1001
0000
,
0010
1000
0200
0000
0301
0100
1000
0000
,
0010
0100
1001
0000
,
0101
1001
0000
1010
,
0000
0000
0110
0000
0000
0000
0001
0010
,
0001
0010
0001
0000
1000
0010
0100
0000
,
1000
0000
0100
0000
0001
0000
0010
0001
,
0100
1000
0100
0000
0010
1000
0100
0000
,
0010
0000
0011
0000
0001
0000
1000
0010
,
1000
0010
1000
0000
0001
0010
0100
0000
,
0001
0100
1000
1010
,
1001
0000
0000
0000
0101
0000
0010
1000
,
0100
0010
0001
0100
0010
1000
0001
0010
,
2000
0000
3010
0001
0100
0010
0100
1000
,
0100
0000
0001
0010
0100
0000
0110
0000
1010
0000
0001
0000
1000
0000
0010
0000
,
0002
0000
0013
1000
0100
0010
0100
0001
,
0100
1000
0101
0101
0010
0000
1000
0000
,
0001
0001
0010
0010
,
1000
1000
0001
0001
,
0100
0100
1000
1000
,
0100
0001
1000
0010
,
0001
0100
0001
0010
,
1000
0000
0000
0000
0010
0000
0000
0000
0001
0200
0000
0320
0000
1030
0100
0010
,
0001
0000
1000
0000
0010
0100
0010
0000
1000
0010
1000
0000
0001
0010
0001
0000
,
1001
1000
1010
0010
0110
0100
0101
0000
,
0010
0000
0010
0000
1000
0000
1000
0000
0100
0000
0100
0000
0001
0000
0001
0100
,
0010
0000
0010
0000
0001
0000
0001
0000
0100
0000
0100
0000
0010
0000
0010
1000
,
0100
1000
0000
0000
0100
0001
0000
0000
1000
0010
0000
0000
0001
0010
0000
0000
,
0100
1000
0000
0000
0100
0001
0000
0000
1000
0010
0000
0000
0001
0010
0000
0000
,
0100
1000
0100
0001
0100
0010
0001
0100
,
0010
1000
0100
0001
0100
1000
1001
0000
,
0110
0000
1000
0200
0000
0300
0001
0020
0000
0030
1000
0200
0000
0000
0310
1001
,
0000
0000
0100
0000
0000
0000
0010
1000
0100
0001
0000
0110
0000
1100
0000
0000
,
0001
0000
0001
0000
0001
0000
1000
0100
,
0011
0000
0100
0000
0100
0000
0010
1000
,
0101
0000
1010
0000
0110
0000
0001
0100
,
0110
0000
0000
0000
0001
0000
0001
0000
1000
0010
0100
0001
1000
0100
0010
0001
,
0200
0000
0000
0010
0000
1000
0002
0000
0300
0000
0000
1000
0000
0020
0033
0000
,
0010
0001
0200
0000
1000
1000
0000
0320
0000
1000
0000
0001
0000
0100
0000
1030
,
0000
0001
0200
0000
1300
0200
0000
0302
0000
0023
0000
0230
0000
1300
0100
1001
,
1000
0000
0010
0100
0000
0101
0000
0011
0000
1010
0000
1100
0000
0101
0000
0001
,
0020
0000
0000
0000
1030
0000
0020
0000
0000
0000
0031
0000
0101
0000
0000
0000
0110
0000
0000
0000
1010
0000
0000
0000
1000
0100
0010
0001
1000
0000
0000
0000
,
0100
1000
0001
1000
0010
0000
1000
0000
,
0100
0010
0110
0000
,
1001
0000
1010
0000
,
0001
0100
0010
0100
0001
1000
0100
0010
,
0001
0100
0010
0000
1000
0000
0100
0001
,
0100
1000
0010
0100
0010
0000
0000
0000
,
1010
0000
0101
0010
,
0100
0001
1000
0001
0010
0000
0001
0000
,
0100
0010
0110
0000
,
1001
0000
0011
0000
,
1000
0100
0010
0100
1000
0001
0100
0010
,
1000
0100
0010
0000
0001
0000
0100
1000
,
0100
0001
0010
0100
0010
0000
0001
0000
,
0100
0000
0010
0000
1000
0100
1000
0001
,
0100
0001
1000
0100
0001
0000
0000
0000
;

//---------------dance-single - ----------------
#NOTES:
     dance-single:
     :
     Medium:
     9:
     0.617580,0.991627,0.313119,0.090905,0.050503,428.000000,397.000000,31.000000,9.000000,0.000000,0.000000,0.617580,0.991627,0.313119,0.090905,0.050503,428.000000,397.000000,31.000000,9.000000,0.000000,0.000000:
0000
0000
0000
0000
,
0000
0000
0000
0000
,
1001
0000
0100
0000
0001
0010
0100
0000
,
1000
0000
0010
0000
0000
0000
0100
0000
0001
0000
1000
0100
0010
0000
0000
0000
,
1001
0000
0000
0000
0100
0000
0000
0000
0010
0000
1000
0001
0100
0000
0010
0000
,
0110
0000
0000
0000
0000
0000
1001
0000
0000
0000
0100
0010
0100
0000
0000
0000
,
0002
0000
1000
0100
0000
1000
0013
0000
,
0001
0000
0010
0000
0000
0000
0100
0000
1000
0000
0001
0100
0010
0000
1000
0000
,
1010
0000
0010
0000
0100
0000
0000
0000
0011
0000
0001
1000
0010
0000
0100
0000
,
0001
0000
0010
0000
0000
0000
0000
0000
0001
0000
1000
0000
0000
0000
0000
0000
0001
0000
0100
0000
0000
0000
0001
1000
0001
0000
0000
0000
0100
0000
0000
0000
,
0001
1000
0010
0000
0100
0001
0010
1000
,
0000
0010
0000
0001
0000
0100
0100
0001
,
1000
0001
0010
0100
1000
0000
0010
0100
,
0000
0001
0000
0010
0000
0100
0001
0100
,
1000
0001
0100
0000
1000
0100
0001
0010
,
0000
0001
0001
0100
0001
1000
0010
0100
,
0001
1000
0100
0000
0001
0100
1000
0010
,
0000
0100
0100
0010
0100
0100
0001
1000
,
0010
1000
0100
0010
,
0001
0100
0000
0110
,
0000
1010
0000
1001
,
0000
0100
0100
0001
,
0010
0001
0100
0010
,
1000
0100
0000
0110
,
0000
0011
0000
1001
,
0000
0001
0100
1000
,
0100
0001
0010
0000
,
0100
1000
0010
0001
,
0000
0011
0000
1010
,
0000
0001
0001
1000
,
0000
0100
0010
0000
,
0001
0100
0000
1000
,
0100
0001
0010
0001
,
0100
1000
0100
0001
,
0020
0000
0030
0100
,
0010
0000
1001
0000
,
0020
0000
0030
0100
,
0010
0000
1001
0000
,
0020
0000
0030
0100
,
0010
0000
1001
0000
,
0010
0010
0000
0100
,
0000
0100
0000
0001
,
0010
1000
0010
0001
,
0000
1001
0000
1000
,
0010
0001
0010
1000
,
0000
1001
0000
1000
,
0100
0001
0100
1000
,
0000
1001
0000
0010
,
0010
0000
0100
0100
,
0000
1001
0000
0010
,
0001
0100
1000
0100
,
0001
0000
0010
0001
1000
0010
0100
0000
,
0110
0000
1000
0100
0001
0010
1000
0000
,
0110
0000
0001
0001
1000
0000
0000
0000
,
0100
0000
0001
0100
,
1000
0010
0001
0010
,
1000
0100
0010
0001
,
0100
0010
1000
0100
,
0001
0100
1000
0010
,
0100
0002
0000
0003
,
1000
0000
0100
0000
0001
0100
1000
0010
,
0100
0001
1000
1000
0001
0001
0100
0000
,
0001
0000
0100
0000
1000
0100
0001
0000
,
0010
0001
0100
0010
1000
0001
0010
0000
,
0001
0100
0001
0100
0001
0100
0001
0100
,
0010
1000
0010
1000
0010
1000
0010
1000
,
0001
0010
0011
0000
1000
0010
1010
0000
,
0110
0101
1010
0110
,
1000
0001
0000
0001
0000
0001
0000
0001
,
0110
1000
0000
1000
0100
0010
0001
0100
,
0010
0000
0010
0000
0010
0000
1000
0100
,
0001
0000
0001
0100
1000
0010
0100
0001
,
0010
0000
0010
0000
0010
0000
0001
0100
,
1000
0000
1000
0100
0001
0010
0100
1000
,
2002
0000
0000
3003
,
0010
1000
0100
0001
,
0010
1000
0100
0020
,
0000
0000
0000
0000
0000
0200
0000
0000
,
0000
0330
0000
1000
0100
0010
0001
0000
,
1000
0100
0001
0100
,
1000
0010
0100
0001
,
0010
1000
0010
0001
,
0100
1000
0100
0001
,
0010
0100
1000
0010
,
0001
0010
1000
0100
,
0001
0100
1000
0001
,
0100
1000
0100
0001
,
0010
0100
1000
0010
,
0001
0010
1000
0100
,
0001
0100
1000
0010
,
0100
0001
0010
1000
,
0010
0001
0100
1000
,
0100
0001
0010
0100
,
1000
0010
0100
0000
;

//---------------dance-single - ----------------
#NOTES:
     dance-single:
     :
     Easy:
     6:
     0.414125,0.755525,0.222213,0.111107,0.000000,287.000000,265.000000,22.000000,11.000000,0.000000,0.000000,0.414125,0.755525,0.222213,0.111107,0.000000,287.000000,265.000000,22.000000,11.000000,0.000000,0.000000:
0000
0000
0000
0000
,
0000
0000
0000
0000
,
1000
0001
0100
0100
,
0001
1000
0100
0100
,
1000
0000
0001
0000
1000
1000
0001
0000
,
0010
0000
0000
0010
0000
0000
0100
0000
,
2001
0000
0000
0001
0000
0000
3001
0000
,
0100
0000
0000
0100
0000
0000
0100
0000
,
0010
1000
0001
0010
,
0100
0100
0010
0010
,
1001
0000
1000
0100
,
0010
0001
0100
0010
,
1000
0001
0010
1000
,
0010
0001
0100
0010
,
1000
1010
0001
0011
,
1000
1100
0001
0101
,
0010
1001
0100
1001
,
0101
0110
1010
0110
,
0001
0000
0010
0000
,
0100
1000
0100
0000
,
1000
0000
0010
0000
,
0100
0001
0100
0001
,
0100
0000
0010
0000
,
1000
0000
0100
0000
,
0001
0100
0001
0000
,
1000
0000
0010
0000
,
0001
0100
0001
0000
,
1000
0100
1000
0000
,
0010
0000
0010
0000
,
0100
0010
0100
0010
,
1000
0000
0001
0000
,
0010
0001
0010
0000
,
0001
0000
1000
0000
,
0100
0000
0001
0000
,
0200
0000
0300
0010
,
0100
0000
0001
0000
,
0200
0000
0300
0010
,
0100
0000
1000
0000
,
0200
0000
0300
0010
,
0100
0000
0001
0000
,
0000
1000
0000
1000
,
0000
1000
0000
0001
,
0000
0100
0010
0100
,
0000
1001
0000
1000
,
0000
0100
0010
0100
,
0000
1001
0000
0001
,
0000
0100
0010
0100
,
0000
1001
0000
1100
,
0000
0000
0011
0000
,
0000
1001
0000
0100
,
0010
1000
0100
0010
,
0001
0000
0100
0100
0010
0010
0100
0000
,
0001
1000
0010
0100
,
0001
1001
1000
0000
,
0001
0000
0100
0001
,
0100
0001
1000
0000
,
0010
0000
1000
0100
,
1000
0100
0010
0000
,
0000
0001
0000
0100
,
0010
0200
0000
0300
,
0001
0001
0001
0001
,
0100
0100
0100
0100
,
0010
0010
0010
0010
,
1000
1000
1000
1000
,
0001
0100
1000
0010
,
0001
0100
1000
0010
,
0001
0100
1000
0010
,
0001
1001
0000
1001
,
0200
0000
0000
0000
,
0000
0000
0000
0300
,
0010
0000
1000
0000
0100
0000
0001
0100
,
1000
0000
0010
0000
0010
0000
1000
0100
,
0001
0100
1000
0010
,
0100
0001
0010
0100
,
0220
0000
0000
0330
,
2000
0000
0000
0000
,
0002
0000
0000
3000
,
0200
0000
0000
0000
,
0003
0000
0000
0010
0010
0010
0310
0000
,
0000
1000
0000
0001
,
0100
0010
0000
1000
,
0100
0010
0000
0100
,
0000
0010
0000
0001
,
0000
0010
0000
0001
,
0100
1000
0000
0001
,
0010
1000
0000
0001
,
0000
1000
0100
0010
,
0000
0001
0100
0010
,
0000
0100
0000
0010
,
0000
1000
0000
0010
,
0000
1000
0100
0001
,
0000
1000
0010
0001
,
0100
0000
0010
0000
,
0100
0000
0100
0000
;

//---------------dance-single - ----------------
#NOTES:
     dance-single:
     :
     Beginner:
     4:
     0.111107,0.284079,0.000000,0.131308,0.000000,77.000000,77.000000,0.000000,13.000000,0.000000,0.000000,0.111107,0.284079,0.000000,0.131308,0.000000,77.000000,77.000000,0.000000,13.000000,0.000000,0.000000:
0000
0000
0000
0000
,
0000
0000
0000
0000
,
0001
0000
0000
0000
,
0000
0000
0000
0000
,
1000
0000
0000
0000
,
0000
0000
0000
0000
,
0100
0010
0100
0010
,
0100
0000
0000
0000
,
0001
0000
0000
0000
,
1000
0001
1000
0001
,
0100
0000
0000
0000
,
0100
0000
0000
0000
,
0010
0000
0000
0000
,
0010
0000
0000
0000
,
2000
0000
0000
0000
,
3000
0000
0000
0000
,
0002
0000
0000
0000
,
0003
0000
0000
0000
,
1000
0000
0000
0000
,
0001
0000
0000
0000
,
0100
0000
0000
0000
,
0100
0000
0000
0000
,
0001
0000
0000
0000
,
1000
0000
0000
0000
,
0100
0000
0000
0000
,
0100
0000
0000
0000
,
1000
0000
0000
0000
,
0010
0000
0000
0000
,
0100
0000
0000
0000
,
0010
0000
0000
0000
,
1000
0000
0000
0000
,
0001
0000
0000
0000
,
0010
0000
0000
0000
,
0001
0000
0000
0000
,
2000
0000
0000
0000
,
0000
0000
3000
0000
,
0002
0000
0000
0000
,
0000
0000
0003
0000
,
2000
0000
0000
0000
,
0000
0000
3000
0000
,
0000
0000
0000
0000
,
0000
0000
0000
0002
,
0000
0000
0000
0000
,
0000
0003
0000
2000
,
0000
0000
0000
0000
,
0000
3000
0000
0002
,
0000
0000
0000
0000
,
0000
0003
0000
0100
,
0000
0000
0100
0000
,
0000
0010
0000
1000
,
0000
0001
0000
0100
,
0000
0010
0010
0010
,
0000
1000
0000
0100
,
0000
0010
0001
0000
,
0000
0000
0000
0000
,
0000
0000
1000
0000
,
0000
0000
0000
0000
,
0000
0000
0001
0000
,
0000
0000
0000
0000
,
0000
0000
1000
0000
,
0020
0000
0000
0000
,
0000
0000
0000
0000
,
2030
0000
0000
0000
,
0000
0000
0000
0000
,
3002
0000
0000
0000
,
0000
0000
0000
0000
,
0203
0000
0000
0000
,
0000
0000
0300
0000
,
0010
0000
0000
0000
,
0000
0000
0000
0000
,
1000
0000
1000
0000
,
0001
0000
0001
0000
,
0100
0000
0100
0000
,
0010
0000
0010
0000
,
2000
0000
0000
0000
,
0000
0000
0000
0000
,
0000
0000
0000
0000
,
0000
0000
0000
0000
,
0000
0000
3000
0000
,
0001
0000
0000
0000
,
0000
0000
0000
0000
,
0000
0000
0000
0000
,
0000
0000
0000
1000
,
0000
0000
0000
0000
,
0000
0000
0000
0000
,
0000
0000
0000
0100
,
0000
0000
0000
0000
,
0000
0000
0000
0000
,
0000
0000
0000
0000
,
0000
0000
0000
1000
,
0000
0000
0000
0000
,
0000
0000
0000
0001
,
0000
0000
0000
0001
,
0000
0000
0000
0100
;

//---------------dance-double - ----------------
#NOTES:
     dance-double:
     :
     Hard:
     10:
     0.822478,1.133288,0.505030,0.202012,0.287867,570.000000,520.000000,50.000000,20.000000,0.000000,0.000000,0.822478,1.133288,0.505030,0.202012,0.287867,570.000000,520.000000,50.000000,20.000000,0.000000,0.000000:
00000000
00000000
00000000
00000000
,
00000000
00000000
00000000
00000000
,
00011000
00000000
00000000
00100000
00010000
00000000
01000000
00000000
00100000
00000000
10000000
00000000
01000000
00010000
00001000
00000000
,
00011000
00000000
00000000
00000000
00000200
00000000
00000000
00000000
00000000
00000000
00000000
00000000
00000310
00000000
00000000
00000000
00000001
00000000
00000000
00000000
00000000
00001000
00000100
00000010
00000001
00000000
00000000
00000000
00000000
00000000
00000000
00000000
,
00001001
00000000
00000000
00000000
00000000
00000000
00000000
00000000
00000010
00000000
00000000
00000000
00001000
00000000
00000000
00000000
00010000
00000000
00000000
00000000
01000000
00000000
00100000
10000000
00010000
00000000
00000000
00000000
10000000
00000000
00000000
00000000
,
01020000
00000000
00000000
00000000
00000000
00000000
00000000
00000000
00000000
00000000
00000000
00000000
00230000
00000000
00000000
00000000
00000000
00000000
00000000
00000000
00300000
00000000
00001000
00010000
00001000
00000000
00000000
00000000
00000100
00000000
00000000
00000000
,
00000002
00000000
00001000
00000200
00000003
00000010
00002300
00000000
,
00010000
00000000
00000000
00000000
02003000
00000000
00000000
00000000
00000000
00000000
00000000
00000000
00100000
00000000
00000000
00000000
03020000
00000000
00000000
00000000
00030000
00000000
10000000
00010000
10000000
00000000
00000000
00000000
01000000
00000000
00000000
00000000
,
00010000
00000000
00001000
00000100
00000002
00000000
00000000
00000000
00001003
00000100
00000010
00000001
00001000
00000000
00000100
00000000
,
00020000
00000000
00000100
00000000
00030000
00000000
00000000
00000000
00002000
00000000
00100000
00000000
00003000
00000000
00000000
00000000
00020000
00000000
00001000
00000000
00030000
00000000
00000100
00000010
00000100
00000000
00000000
00000000
00000010
00000000
00000000
00000000
,
00001001
00000100
00000010
00000001
00000100
00001000
00010000
01010000
,
00000000
11000000
00000000
10100000
00000000
00010000
00010000
00001000
,
00100000
00100000
00010000
01000000
10000000
01000000
00000000
01010000
,
00000000
00011000
00000000
00001010
00000000
00010000
00010000
00010000
,
01000000
10000000
00100000
01000000
00100000
00010000
00001000
00000010
,
00000000
00000001
00000100
00000100
00000010
00001000
00001000
00000001
,
00000100
00000000
00001000
00000000
00010000
00000000
01000000
00000000
10000000
00100000
10000000
00000000
01000000
00000000
00100000
00000000
,
00010000
00000000
00001000
00000000
00000010
00000000
00000100
00000000
00000001
00000010
00000001
00000000
00001000
00000000
00000100
00000000
,
00000010
00000000
00000001
00000000
00000100
00000000
00000010
00001000
,
00000010
00001000
00000010
00000000
00010000
00000000
00001000
00000000
,
00100000
00000000
00010000
00100000
00010000
00000000
10000000
00100000
,
10000000
00000000
00010000
00100000
00010000
00000000
01000000
00000000
,
00100000
00000000
10000000
00000000
01000000
00000000
00100000
00010000
,
00100000
00010000
00100000
00000000
01000000
00000000
10000000
00000000
,
00100000
00000000
10000000
00100000
10000000
00000000
00010000
00100000
,
00010000
00000000
10000000
00100000
10000000
00000000
01000000
00000000
,
00010000
00001000
00000100
00000001
,
00000010
00000001
00000100
00001000
,
00010000
00100000
10000000
01000000
,
00010000
00000000
00001000
00010000
00001000
00100000
00010000
00000000
,
00001000
00000100
00000010
00000001
,
00000100
00000010
00001000
00010000
,
01000000
00100000
10000000
01000000
,
00010000
00000000
00001000
00010000
00001000
00010000
00000010
00001000
,
00000010
00001000
00000020
00000000
00000030
00000000
00000101
00000000
,
00000110
00000000
00011000
00000000
,
00100000
00010000
00200000
00000000
00300000
00000000
01010000
00000000
,
01100000
00000000
00011000
00000000
,
00010000
00001000
00020000
00000000
00030000
00000000
00010010
00000000
,
00101000
00000000
00110000
00000000
,
11000000
10010000
00000000
00101000
,
00000000
00000000
00010100
00000000
00000000
00000000
00000001
00001000
,
00000001
00000000
00000100
00000000
00001000
00010000
00001000
00000000
,
00010000
00000000
00110000
00000000
00000000
00000000
10000000
00010000
,
10000000
00000000
01000000
00000000
00010000
00001000
00010000
00000000
,
00001000
00000000
00001010
00000000
00000000
00000000
00000001
00001000
,
00000001
00000000
00000010
00000000
00001000
00010000
00001000
00000000
,
00100000
01100000
00000000
11000000
,
10100000
00000000
00110000
01010000
,
00000000
10010000
00000000
10000000
,
01000000
00000000
00010000
00001000
00000010
00000001
00000100
00000000
,
00000011
00000000
00000110
00000110
00000001
00001000
00000001
00000000
,
00000100
00000000
00001000
00010000
00100000
10000000
01000000
00000000
,
10100000
00000000
01100000
01100000
10000000
00000000
00100000
00000000
,
00010000
00001000
01000000
00010000
,
00001000
00000010
00001000
00000001
,
00000010
00001000
00010000
00000100
,
00001000
00010000
00100000
00010000
,
10000000
01000000
00010000
00000100
,
00000010
00000002
00000000
00000003
,
00001000
00000100
00000010
00000001
00000100
00001000
00010000
00100000
,
00001000
00010000
01000000
00100000
10000000
01000000
00100000
00010000
,
00001000
00000100
00010000
00001000
01000000
00010000
00001000
00000010
,
00000100
00001000
00000100
00000001
00000010
00000100
00001000
00000000
,
00010000
01000000
10100000
00000000
01000000
00000000
00110000
00000000
,
00001000
00000100
00000011
00000000
00000100
00000000
00001010
00000000
,
00011000
00010000
01000000
00000000
00011000
00001000
00000100
00000000
,
00011000
00000000
01010000
00000000
00100000
01000000
10010000
00000000
,
00020000
00000000
00100000
00100000
00000000
00000000
10000000
10000000
00000000
00000000
01000000
01000000
00000000
00000000
00001000
00031000
,
00000000
00000000
00011000
00000000
00000000
00000000
00001000
00000100
00000010
00000001
00000000
00000100
00000000
00000020
00000000
00000030
,
00001000
00000000
00001000
00000000
00001000
00000000
00000001
00000100
,
00001000
00000000
00010000
01000000
10000000
00100000
10000000
00000000
,
00010000
00000000
00010000
00000000
00010000
00000000
10000000
01000000
,
00010000
00000000
00000000
00000000
00001000
00000000
00000100
00000000
00000001
00000000
00000010
00000001
00001000
00000010
00010000
00000000
,
00022000
00000000
00000000
00033000
,
00100000
10000000
01000000
00000000
00010000
00000100
00000000
00000010
00000000
00000001
00000100
00001000
00000000
00000001
00000010
00001000
,
00000000
00000001
00000100
00000000
00001000
01000000
00000000
00100000
00000000
10000000
01000000
00010000
00000000
10000000
00100000
00010000
,
10000000
00000000
00100000
01000000
00000000
00001000
00000000
00010000
00000000
00100000
00000000
00010000
00001000
00000100
00000000
00000001
,
00000010
00000000
00000000
00000000
00000100
00000000
00001000
00000000
00000000
00000000
00000010
00000000
00010000
00000000
00000000
00000000
00010000
00000000
00000000
00000000
00010000
00000000
00000000
00000000
00001000
00010000
00001000
00010000
00001000
00000000
00000000
00000000
,
00100000
00010000
00100000
00000000
00001000
00000000
01000000
00010000
,
01000000
00100000
10000000
01000000
,
00010000
00001000
00010000
00000000
00000010
00001000
00000010
00000000
,
00000100
00000001
00000100
00000001
00001000
00000000
00000001
00000000
,
00000100
00000010
00000100
00000000
00001000
00000000
00010000
00001000
,
00010000
00100000
10000000
01000000
,
00010000
00001000
00011000
00010000
,
00000010
00001000
00000010
00000000
00010000
00000000
00000100
00001000
,
00000100
00000010
00000001
00000100
,
00001000
00010000
00001000
00000000
00100000
00010000
00100000
00000000
,
01000000
10000000
01000000
10000000
00010000
00000000
10000000
00000000
,
01000000
00100000
01000000
00000000
00010000
00000000
00001000
00010000
,
00001000
00000010
00000001
00000100
,
00001000
00000000
00010000
00000000
00100000
10000000
00010000
00100000
,
00001000
00010000
00001000
01000000
00010000
00000000
00000000
00000000
;

//---------------dance-double - ----------------
#NOTES:
     dance-double:
     :
     Medium:
     9:
     0.604593,0.849966,0.262616,0.080805,0.025252,419.000000,393.000000,26.000000,8.000000,0.000000,0.000000,0.604593,0.849966,0.262616,0.080805,0.025252,419.000000,393.000000,26.000000,8.000000,0.000000,0.000000:
00000000
00000000
00000000
00000000
,
00000000
00000000
00000000
00000000
,
00001010
00000000
00000100
00000000
00000001
00000010
00001000
00000000
,
00010000
00000000
00100000
00000000
00000000
00000000
10000000
00000000
01000000
00000000
10000000
00010000
00100000
00000000
00000000
00000000
,
00110000
00000000
00000000
00000000
01000000
00000000
00000000
00000000
10000000
00000000
00100000
00010000
00001000
00000000
00000000
00000000
,
00011000
00000000
00000000
00000000
00000000
00000000
00001010
00000000
00000000
00000000
00000001
00000100
00000001
00000000
00000000
00000000
,
00001000
00000000
00000001
00000100
00000000
00000010
00001000
00000000
,
00010000
00000000
01000000
00000000
00000000
00000000
00100000
00000000
10000000
00000000
01000000
00100000
00010000
00000000
00001000
00000000
,
00001010
00000000
00000000
00000000
00000100
00000000
00000000
00000000
00000011
00000000
00000001
00001000
00000010
00000000
00000100
00000000
,
00001000
00000000
00010000
00000000
00100000
00000000
10000000
01000000
,
00010000
00001000
00000100
00000000
00010000
00001000
00000010
00000100
,
00000000
00000001
00000000
00001000
00000000
00000100
00000100
00000010
,
00001000
00010000
01000000
00000000
00001000
00010000
00100000
01000000
,
00000000
10000000
00000000
00010000
00000000
00100000
00100000
00100000
,
00001000
00010000
00001000
00000010
00001000
00010000
00000100
00001000
,
00000000
00000001
00000100
00001000
00000000
00010000
01000000
10000000
,
00010000
00100000
00010000
01000000
10000000
01000000
00010000
00100000
,
00001000
00010000
00000010
00000100
00000001
00000010
00001000
00000010
,
00000001
00000100
00000010
00001000
,
00000100
00000010
00000000
00001010
,
00000000
00011000
00000000
00110000
,
00000000
10000000
10000000
01000000
,
00010000
00001000
00100000
00010000
,
01000000
00100000
00010000
00001000
,
00000000
00001010
00000000
00000011
,
00000000
00000001
00001000
00000001
,
00000100
00001000
00010000
00000000
,
01000000
10000000
00100000
00010000
,
00000000
00011000
00000000
01010000
,
00000000
01000000
10000000
00010000
,
00000000
10000000
01000000
00000000
,
00010000
00001000
00000000
00000100
,
00000001
00000010
00001000
00000010
,
00000001
00001000
00000100
00010000
,
00000020
00000000
00000030
00000100
,
00001000
00000000
00011000
00000000
,
00200000
00000000
00300000
01000000
,
00010000
00000000
00011000
00000000
,
00000020
00000000
00000030
00000100
,
00001000
00000000
00011000
00000000
,
00100000
00100000
00000000
01000000
,
00000000
01000000
00000000
10000000
,
00100000
00010000
00001000
00000100
,
00000001
00001000
00000000
00000001
,
00000010
00001000
00010000
01000000
,
10000000
00010000
00000000
10000000
,
00100000
00010000
00001000
00000100
,
00000001
00001000
00000000
00000001
,
00000001
00000000
00000100
00000100
,
00000000
00011000
00000000
00100000
,
10000000
01000000
00010000
00001000
,
00000010
00000000
00000100
00001000
00000001
00000010
00001000
00000000
,
00011000
00000000
01000000
00010000
10000000
00100000
00010000
00000000
,
00011000
00000000
00000010
00000010
00000001
00000000
00000000
00000000
,
00000100
00000000
00001000
00000100
,
00000001
00000010
00001000
00010000
,
01000000
10000000
00100000
01000000
,
00010000
10000000
01000000
00010000
,
00001000
00000100
00000001
00000010
,
00000100
00002000
00000000
00003000
,
00000001
00000000
00000100
00000000
00001000
00000100
00000001
00000010
,
00000100
00010000
00001000
00100000
00010000
01000000
00100000
00000000
,
10000000
00000000
01000000
00000000
00010000
01000000
10000000
00100000
,
01000000
00001000
00010000
00000010
00001000
00000100
00000010
00000000
,
00000001
00000100
00000001
00000100
00001000
00010000
00001000
00010000
,
01000000
10000000
01000000
10000000
00100000
10000000
00100000
00010000
,
00001000
00001010
00010000
00110000
,
00011000
00001100
00011000
01010000
,
00001000
00100000
00000000
00100000
00000000
00100000
00000000
00100000
,
00010000
00000010
00000000
00000010
00000000
00000010
00000001
00000000
,
00000010
00000000
00000010
00000000
00000010
00000000
00000001
00000100
,
00001000
00000000
00010000
01000000
10000000
00100000
01000000
00010000
,
00100000
00010000
01000000
00100000
,
10000000
01000000
00100000
00010000
00001000
00000100
00000010
00000001
,
00002002
00000000
00000000
00003003
,
00000010
00000001
00000100
00001000
,
00010000
01000000
10000000
00200000
,
00000000
00000000
00000000
00000000
00000000
02000000
00000000
00000000
,
00000000
03300000
00000000
00010000
01000000
00100000
10000000
00000000
,
00010000
01000000
10000000
01000000
,
00010000
00100000
00001000
00010000
,
01000000
00010000
00001000
00000100
,
00000001
00001000
00000001
00000010
,
00001000
00010000
00001000
01000000
,
00100000
10000000
01000000
00010000
,
00001000
00000100
00000001
00001000
,
00000100
00000001
00000100
00001000
,
00000010
00010000
00001000
00000100
,
00001000
00010000
01000000
10000000
,
00010000
10000000
00100000
00010000
,
00001000
00010000
00000100
00000010
,
00000001
00000100
00001000
00010000
,
01000000
10000000
00100000
01000000
,
00010000
00100000
00001000
00000000
;

//---------------dance-double - ----------------
#NOTES:
     dance-double:
     :
     Easy:
     7:
     0.404024,0.566644,0.121207,0.111107,0.000000,280.000000,268.000000,12.000000,11.000000,0.000000,0.000000,0.404024,0.566644,0.121207,0.111107,0.000000,280.000000,268.000000,12.000000,11.000000,0.000000,0.000000:
00000000
00000000
00000000
00000000
,
00000000
00000000
00000000
00000000
,
10000000
00010000
00100000
00100000
,
00001000
00010000
00000100
00000100
,
00000010
00000000
00000001
00000000
00001000
00001000
00000001
00000000
,
00000010
00000000
00000000
00001000
00000000
00000000
00010000
00000000
,
00001000
00000000
00000000
00010000
00000000
00000000
00100000
00000000
,
10000000
01000000
00100000
00010000
,
00001000
00000100
00000010
00000001
,
00001000
00001000
00010000
00010000
,
00011000
00000000
00010000
00100000
,
01000000
10000000
00100000
01000000
,
00010000
00001000
00000010
00000001
,
00000010
00001000
00000100
00000010
,
00000001
00000100
00000010
00001000
,
00000100
00000010
00000001
00000100
,
00001000
00010000
01000000
10000000
,
00100000
01000000
00010000
10000000
,
00100000
00000000
00010000
00000000
,
00001000
00000100
00001000
00000000
,
00010000
00000000
00000010
00000000
,
00000100
00000001
00000100
00000000
,
00001000
00000000
00010000
00000000
,
01000000
10000000
01000000
00000000
,
00010000
00000000
00001000
00000000
,
00100000
00010000
00100000
00000000
,
00010000
00000000
00001000
00000000
,
00000010
00001000
00000010
00000000
,
00000100
00000000
00000001
00000000
,
00000010
00000001
00000010
00000000
,
00001000
00000000
00010000
00000000
,
01000000
10000000
01000000
00000000
,
00010000
00000000
00001000
00000000
,
00000100
00000001
00000100
00000001
,
00002000
00000000
00003000
00000001
,
00000010
00000100
00001000
00000000
,
00020000
00000000
00030000
10000000
,
00100000
01000000
00010000
00000000
,
00002000
00000000
00003000
00000001
,
00000100
00001000
00010000
00000000
,
00000000
00001000
00000000
00001000
,
00000000
00001000
00000000
00010000
,
00000000
01000000
00100000
01000000
,
00000000
10010000
00000000
00001000
,
00000000
00000100
00000010
00000100
,
00000000
00001001
00000000
00010000
,
00000000
01000000
00100000
01000000
,
00000000
10010000
00000000
11000000
,
00000000
00000000
00110000
00000000
,
00000000
00011000
00000000
00000100
,
00000010
00001000
00000100
00000010
,
00001000
00000000
00010000
00010000
00001000
00001000
00010000
00000000
,
01000000
10000000
00100000
01000000
,
00010000
10010000
10000000
00000000
,
00010000
00000000
01000000
00010000
,
01000000
00010000
00001000
00000000
,
00000010
00000000
00001000
00000100
,
00001000
00000100
00000010
00000000
,
00000001
00000000
00000100
00000010
,
00000100
00000000
00002002
00003003
,
00000010
00000010
00000010
00000010
,
00001000
00001000
00001000
00001000
,
00010000
00010000
00010000
00010000
,
01000000
01000000
01000000
01000000
,
00100000
10000000
01000000
00010000
,
00001000
00000100
00000001
00000010
,
00000001
00000100
00001000
00010000
,
01000000
10010000
00000000
10010000
,
02000000
00000000
00000000
00000000
,
00000000
00000000
00000000
03000000
,
00100000
00000000
10000000
00000000
01000000
00000000
00010000
00001000
,
00000100
00000000
00000010
00000000
00000010
00000000
00001000
00000001
,
00000100
00001000
00010000
01000000
,
10000000
00100000
00010000
00001000
,
00022000
00000000
00000000
00033000
,
00000020
00000000
00000000
00000000
,
00002000
00000000
00000000
00000030
,
00000200
00000000
00000000
00000000
,
00003000
00000000
00000000
00010000
00010000
00010000
00010300
00000000
,
00000000
00001000
00000000
00010000
,
01000000
00100000
00000000
00010000
,
10000000
01000000
00010000
00000000
,
00001000
00000000
00000010
00000000
,
00001000
00000100
00000000
00000001
,
00000010
00000000
00000100
00000000
,
00001000
00000000
00010000
00000000
,
00100000
10000000
00000000
01000000
,
00010000
00000000
00001000
00000000
,
00100000
00000000
00010000
00000000
,
00001000
00000000
00000100
00000000
,
00000010
00000001
00000000
00000100
,
00001000
00000000
00010000
00000000
,
00100000
00000000
10000000
00000000
,
01000000
00010000
01000000
00000000
;

//---------------dance-double - ----------------
#NOTES:
     dance-double:
     :
     Challenge:
     11:
     0.900397,1.463830,0.494930,0.303018,0.378773,624.000000,575.000000,49.000000,30.000000,0.000000,0.000000,0.900397,1.463830,0.494930,0.303018,0.378773,624.000000,575.000000,49.000000,30.000000,0.000000,0.000000:
// measure 0
00000000
00000000
00000000
00000000
,  // measure 1
00000000
00000000
00000000
00000000
,  // measure 2
01010000
00000000
00000000
00100000
10000000
00000000
01000000
00100000
00010000
00001000
00000100
00000000
00001000
00000001
00000010
00001000
,  // measure 3
00000010
00000000
00000000
00000002
00000000
00000000
00000000
00000000
00000000
00000103
00000000
00000000
00000020
00000000
00000000
00000030
00001000
00000001
00001000
00000000
00000000
00000000
00000000
00000000
,  // measure 4
00001010
00000000
00000000
00000100
00000000
00000000
00000001
00000000
00000000
00000000
00000000
00000000
00000010
00000000
00000000
00001000
00010000
00100000
20000000
00000000
00000000
00000000
00000000
00000000
,  // measure 5
30020000
00000000
00000000
00000000
00000000
00000000
00000000
00000000
00000000
00032000
00000000
00000000
00000000
00000000
00000000
00003000
00000010
00000100
00000010
00000000
00000000
00000000
00000000
00000000
,  // measure 6
00000101
00002000
00000000
00013000
00200000
00310000
10000000
00000000
,  // measure 7
01000000
00000000
00000000
00200000
00000000
00000000
00000000
00000000
00000000
00310000
00000000
00000000
00001000
00000000
00000000
00000100
00000001
00000100
00002000
00000000
00000000
00000000
00000000
00000000
,  // measure 8
00013000
00000000
00000000
00000000
00000000
00000000
00100000
00000000
10000000
00000000
00100000
00000000
00020000
00000000
00000000
00000000
00000000
00000000
00000000
00000000
00000000
00000000
00000000
00000000
01030000
00000000
00000000
00100000
00000000
00000000
10000000
00000000
00000000
01000000
00000000
00000000
00020000
00000000
00000000
00000000
00000000
00000000
00000000
00000000
00000000
00000000
00000000
00000000
,  // measure 9
00031000
00000100
00000001
00000000
00001000
00000100
00000010
00000000
00001000
00010000
00100000
10000000
01000000
00000000
00010000
00000000
,  // measure 10
00001000
00010000
01000000
00001000
00010000
00100000
00001000
00010000
,  // measure 11
00000000
00010100
00000000
00000110
00000000
00000011
00000100
00001000
,  // measure 12
00000001
00000010
00001000
00010000
00100000
10000000
01000000
00100000
,  // measure 13
00000000
00110000
00000000
10010000
00000000
11000000
01000000
00010000
,  // measure 14
00001000
00010000
00110000
00100000
10000000
11000000
00010000
00001000
,  // measure 15
00000000
00010000
00011000
00000100
00000010
00000011
00000011
00000100
,  // measure 16
00001000
00000010
00000110
00000100
00000001
00000011
00001010
00001000
,  // measure 17
00010000
00000000
01000000
00000000
10000000
00000000
01000000
00100000
00010000
01000000
00100000
00010000
00001000
00000000
00011000
00000000
,  // measure 18
00010000
00000000
00001000
00000100
00000010
00000000
00001000
00000100
,  // measure 19
00000001
00000100
00001000
00010000
,  // measure 20
00100000
01000000
00100000
01000000
10000000
00100000
01000000
00000000
,  // measure 21
01000000
00000000
10000000
01000000
00010000
00000000
00100000
00000000
,  // measure 22
00001000
00000000
00010000
01000000
00100000
00000000
00010000
01000000
,  // measure 23
10000000
01000000
00010000
00001000
,  // measure 24
00000010
00000100
00000010
00000100
00000001
00000010
00000100
00000000
,  // measure 25
00000100
00000000
00000001
00000100
00001000
00000000
00000010
00000000
,  // measure 26
00010000
00000000
00001000
00000010
00000100
00000000
00001000
00000010
,  // measure 27
00000001
00000010
00001000
00010000
,  // measure 28
01000000
00100000
01000000
00100000
10000000
01000000
00100000
00000000
,  // measure 29
00100000
00000000
10000000
00100000
00010000
00000000
01000000
00000000
,  // measure 30
00001000
00000000
00010000
00100000
01000000
00000000
00010000
00100000
,  // measure 31
10000000
00100000
00010000
00001000
,  // measure 32
00000100
00000010
00000001
00000000
00000100
00000010
00001000
00000000
,  // measure 33
00000100
00010000
00001000
00000000
01000000
00010000
00100000
00000000
,  // measure 34
01000000
00010000
00002000
00000000
00003010
00000000
00000100
00000000
,  // measure 35
00001100
00000000
00011000
00000000
,  // measure 36
00000100
00001000
00020000
00000000
00130000
00000000
01000000
00000000
,  // measure 37
01010000
00000000
00011000
00000000
,  // measure 38
01000000
00010000
00002000
00000000
00003010
00000000
00000100
00000000
,  // measure 39
00001100
00000000
00011000
00000000
,  // measure 40
00110000
10010000
00000000
10100000
,  // measure 41
00000000
00000000
01001000
00000000
00000000
00000000
00010000
00001000
,  // measure 42
00010000
00001000
00000010
00000000
00001000
00000010
00000001
00000000
,  // measure 43
00001000
00000000
00000100
00000000
00000010
00000000
00001000
00010000
,  // measure 44
00001000
00010000
00100000
00000000
00010000
00100000
10000000
00000000
,  // measure 45
00010000
00000000
01000000
00000000
00100000
00000000
00010000
00001000
,  // measure 46
00010000
00001000
00000100
00000000
00000001
00000100
00001000
00000000
,  // measure 47
00010000
00100000
10000000
11000000
,  // measure 48
01010000
00000000
00000000
00000000
00011000
00000000
00000010
00000100
,  // measure 49
00000001
00000010
00000100
00010000
00001000
00100000
00020000
00000000
,  // measure 50
00001000
00000000
00130000
10000000
00010000
01000000
10000000
00100000
,  // measure 51
00010000
00001000
00100000
00010000
00000100
00000001
00002000
00000000
,  // measure 52
00010000
00000000
00003010
00000001
00001000
00000100
00000001
00000010
,  // measure 53
00001000
00010000
00011000
00011000
00100000
00000000
10000000
00000000
,  // measure 54
01000000
00010000
00000010
00001000
,  // measure 55
00010000
00000100
00001000
00010000
,  // measure 56
00100000
10000000
00010000
01000000
,  // measure 57
10000000
00100000
00010000
00001000
,  // measure 58
00000001
00000100
00001000
00000010
,  // measure 59
00000100
00000000
00000000
00000000
00000001
00000000
00000000
00000000
00001000
00000200
00000000
00000320
00000000
00000031
00000100
00000010
,  // measure 60
00001000
00000000
00000001
00000000
00000010
00000100
00000010
00000000
00001000
00000010
00001000
00000000
00010000
00001000
00010000
00000000
,  // measure 61
00001000
00010000
01000000
10000000
00100000
01000000
00001000
00100000
,  // measure 62
00010000
00000000
00010000
00000000
10000000
00000000
10000000
00000000
01000000
00000000
01000000
00000000
00010000
00000000
00010000
00001000
,  // measure 63
00000100
00000000
00000100
00000000
00000001
00000000
00000001
00000000
00000010
00000000
00000010
00000000
00001000
00000000
00001000
00010000
,  // measure 64
00000010
00000100
00001000
00000100
00000001
00001000
00000100
00000010
,  // measure 65
00010000
00001000
00000100
00010000
00100000
10000000
00010000
01000000
,  // measure 66
10000000
01000000
00010000
00001000
00000100
00000001
00000100
00000010
,  // measure 67
00000001
00000100
00001000
00010000
01000000
10000000
10010000
00000000
,  // measure 68
01100000
00000000
10000000
02000000
00000000
03000000
00100000
00020000
00000000
00030000
00001000
00000200
00000000
00000300
00000010
00000002
,  // measure 69
00000000
00000003
00000100
00000000
00000000
00000000
00000010
00001000
00010000
01000000
00000000
01100000
00000000
10010000
00000000
00000000
,  // measure 70
00010000
00000000
00010000
00000000
00010000
00000000
10000000
01000000
,  // measure 71
00010000
00000100
00001010
00000101
,  // measure 72
00001000
00000000
00001000
00000000
00001000
00000000
00000001
00000010
,  // measure 73
00001000
00000000
00010000
00000000
00100000
00000000
10000000
00000000
00010000
00100000
00001000
00010000
00100000
00010000
00001000
00000010
,  // measure 74
00002000
00000000
00000000
00010000
00000000
00103000
00020000
00000000
00000000
00000000
00000000
10000000
00000000
00200000
00330000
00000000
,  // measure 75
00001000
00000100
00000002
00000000
00000010
00000010
00000000
00002003
00000000
00000100
00000000
00000001
00000000
00000010
00000000
00013000
,  // measure 76
00000000
01000000
00100000
00000000
10000000
01000000
00000000
00020000
00000000
00001000
00000000
00100000
00000000
00030010
00001000
00000001
,  // measure 77
00000010
00000000
00001000
00010000
00000000
00011000
00000000
00101000
00000000
00110000
00000000
10010000
00000000
10100000
00000000
00010000
,  // measure 78
00002000
00000000
00000000
00000000
00003010
00000000
00002000
00000000
00000000
00000000
00013000
00000000
00011000
00000000
00000000
00000000
00001100
00000000
00000000
00000000
00000101
00000000
00000000
00000000
00000001
00000010
00000100
00001000
00000001
00000000
00000000
00000000
,  // measure 79
00000100
00000001
00001000
00000001
00000010
00000000
00001000
00000000
,  // measure 80
00010000
00100000
10000000
01000000
,  // measure 81
00010000
01000000
10000000
00100000
,  // measure 82
01000000
00010000
10000000
01000000
00010000
00001000
00010000
00000000
,  // measure 83
00000100
00000000
00000010
00000000
00000001
00000000
00000100
00000010
,  // measure 84
00001000
00000100
00000010
00000001
00000100
00000000
00000000
00000000
,  // measure 85
00001100
00000000
00011000
00010000
,  // measure 86
01000000
10000000
00010000
10000000
00100000
00000000
00010000
00000000
,  // measure 87
00001000
00000010
00000001
00000100
,  // measure 88
00001000
00000100
00000001
00000010
,  // measure 89
00000100
00001000
00000001
00000100
00001000
00010000
00001000
00000000
,  // measure 90
01000000
00000000
00100000
00000000
10000000
00000000
01000000
00100000
,  // measure 91
00010000
01000000
00100000
10000000
01000000
00000000
10000000
00000000
,  // measure 92
01000000
00000000
00010000
00000000
00001000
00000010
00000001
00000100
,  // measure 93
00000010
00001000
00000001
00000100
00001000
00000000
00000000
00000000
;
