#VERSION:0.83;
#TITLE:Livin On a Prayer;
#SUBTITLE:;
#ARTIST:Bon Jovi;
#TITLETRANSLIT:;
#SUBTITLETRANSLIT:;
#ARTISTTRANSLIT:;
#GENRE:;
#ORIGIN:;
#CREDIT:;
#BANNER:Livin' On a Prayer.png;
#BACKGROUND:Livin' On a Prayer-bg.png;
#PREVIEWVID:;
#JACKET:Livin' On a Prayer-jacket.png;
#CDIMAGE:;
#DISCIMAGE:;
#LYRICSPATH:;
#CDTITLE:;
#MUSIC:Livin' On a Prayer.ogg;
#OFFSET:-1.000000;
#SAMPLESTART:32.299999;
#SAMPLELENGTH:12.000000;
#SELECTABLE:YES;
#BPMS:0.000=122.320,
56.000=123.800,
63.000=122.000,
72.000=124.000,
96.000=123.000,
101.000=115.000,
103.250=125.000,
104.000=122.320,
109.000=130.000,
111.000=123.000,
125.000=124.000,
131.000=125.000,
133.000=124.500,
140.000=121.600,
148.000=123.320,
152.000=124.000,
155.000=122.000,
160.000=124.000,
164.500=121.000,
165.500=122.500,
170.000=125.000,
179.000=124.780;
#STOPS:;
#DELAYS:;
#WARPS:;
#TIMESIGNATURES:0.000=4=4;
#TICKCOUNTS:0.000=4;
#COMBOS:0.000=1;
#SPEEDS:0.000=1.000=0.000=0;
#SCROLLS:0.000=1.000;
#FAKES:;
#LABELS:0.000=Song Start;
#BGCHANGES:-0.500=Livin' On a Prayer.avi=1.000=1=0=0=StretchNoLoop==CrossFade==,
99999=-nosongbg-=1.000=0=0=0 // don't automatically add -songbackground-
;
#KEYSOUNDS:;
#ATTACKS:
;

//---------------dance-single - ----------------
#NOTEDATA:;
#CHARTNAME:;
#STEPSTYPE:dance-single;
#DESCRIPTION:;
#CHARTSTYLE:;
#DIFFICULTY:Hard;
#METER:7;
#RADARVALUES:0.388727,0.479219,0.242289,0.083869,0.065232,292.000000,266.000000,26.000000,9.000000,0.000000,0.000000,0.000000,0.000000,0.000000,0.388727,0.479219,0.242289,0.083869,0.065232,292.000000,266.000000,26.000000,9.000000,0.000000,0.000000,0.000000,0.000000,0.000000;
#CREDIT:;
#NOTES:
0000
0000
0000
0000
,
0000
0000
0000
0000
,
0000
0000
0000
0000
,
0000
0000
0000
0000
,
2000
0100
0001
0010
,
3002
0010
1000
0100
,
0013
0001
0100
1000
0100
0001
0010
0001
,
0100
1000
0100
0001
0100
1000
0100
0010
,
1000
0000
0100
0010
0001
0000
0100
0010
,
1000
0000
0110
0000
1001
0000
0001
1000
,
0100
0001
0100
1000
0100
0001
0100
1000
,
0100
0010
0001
0000
0001
0010
0001
1000
,
0001
0100
0000
0010
0000
1000
0000
1000
,
0001
0000
0101
0000
0010
0000
1010
1000
,
0100
0010
0001
0100
0000
0100
0001
0010
,
0100
0000
0000
1000
0000
0000
0010
0000
0100
0000
0000
0000
1001
0000
0000
0000
,
0001
0100
0010
0100
1000
0100
0010
0100
,
0001
0000
0010
0100
2000
0000
3010
0000
,
1000
0100
0010
0001
0000
0000
0001
0100
,
0001
0001
1000
0001
0100
0010
1000
0000
,
1000
0100
1000
0002
0000
0000
0003
0100
,
0001
0010
0100
1000
0100
0000
1100
0000
,
0010
0001
0100
0020
0000
0030
0000
0110
,
0000
0010
1000
0100
0001
0100
1000
0000
,
1010
0000
0100
0101
0000
0001
0011
0000
,
0000
0000
0000
0010
0100
0000
0000
0000
0000
0000
0010
0100
0010
0000
0000
0000
,
0100
1000
0010
0000
1000
0100
0010
0001
,
1000
0000
0100
0000
0100
0000
0000
0000
0000
0000
0000
0100
0010
0000
0001
0000
,
0100
1000
0100
0001
0000
0001
0010
0010
,
0000
0100
0100
0000
1000
0010
0100
0000
,
0101
0000
0001
0000
1000
0000
1100
0000
0000
0000
1001
0000
1000
0000
0001
0100
,
0001
1000
0002
0000
0100
0000
1003
0010
,
1010
1000
0001
0011
0000
0001
1000
0000
,
1001
0000
1001
0000
0001
0001
0010
0010
,
0001
0001
1000
1000
0100
0100
0010
0001
,
0010
0000
0110
1000
0001
0000
1000
0000
,
0100
1000
0100
0010
0001
0000
1000
0001
,
0100
0000
0100
0000
0100
0000
0010
0000
0010
0000
0010
0000
,
1001
0000
0000
0000
1001
0000
0000
0000
1001
0000
0000
0000
1001
0000
0000
0000
0000
0000
1000
0000
0000
0001
0000
0000
,
1000
0020
0000
1030
0100
0010
0001
0000
,
0100
0000
0010
0000
0010
0000
1000
0010
,
0100
0001
0000
0001
0010
0100
1000
0100
,
0001
0100
1000
0100
0010
0000
0010
0001
,
0000
0022
0000
0033
0001
0100
0010
0100
,
0001
0000
0010
0100
1000
0000
1001
0100
,
0010
0000
1001
0000
0000
0000
1000
0000
0100
0000
0010
0000
0001
0000
0010
0001
,
0010
0000
0001
1000
0001
0000
1000
0010
1000
0000
0001
0000
1001
0000
0000
0000
;

//---------------dance-single - ----------------
#NOTEDATA:;
#CHARTNAME:;
#STEPSTYPE:dance-single;
#DESCRIPTION:;
#CHARTSTYLE:;
#DIFFICULTY:Medium;
#METER:5;
#RADARVALUES:0.284889,0.326740,0.232970,0.046594,0.032616,214.000000,189.000000,25.000000,5.000000,0.000000,0.000000,0.000000,0.000000,0.000000,0.284889,0.326740,0.232970,0.046594,0.032616,214.000000,189.000000,25.000000,5.000000,0.000000,0.000000,0.000000,0.000000,0.000000;
#CREDIT:;
#NOTES:
0000
0000
0000
0000
,
0000
0000
0000
0000
,
0000
0000
0000
0000
,
0000
0000
0000
0000
,
2000
0100
0000
0100
,
3200
0010
0000
0010
,
0320
0001
0000
0000
,
0031
0000
0100
0000
0010
0100
0010
0100
,
0010
0000
0000
1001
0000
0000
0000
0001
,
1000
0010
0100
0000
,
0001
0100
0001
0000
1000
0100
1000
0000
,
0001
0010
0001
0000
1001
0000
0000
1000
,
0100
0010
0000
0001
0000
0100
0000
0100
,
0010
1100
0010
0101
,
1001
0000
1000
0001
0000
0001
0100
0010
,
1000
0000
0000
1000
0000
0000
1000
0000
0100
0000
0000
0000
0110
0000
0000
0000
,
0001
0100
0001
1000
0000
0000
0000
1000
,
0100
0010
0001
1001
,
0001
0000
0100
0001
0000
0000
0000
0010
,
0000
0001
0010
0000
0110
0000
1001
0000
,
1000
0010
0000
0100
0000
0000
0000
0100
,
0001
0010
0100
0000
0100
1000
0010
0000
,
1010
0000
1000
0001
0000
0000
0000
0001
,
0000
0010
0001
0000
0101
0000
1100
0000
,
1001
0000
1000
0001
0000
0001
0020
0000
,
0000
0200
0000
0330
,
0100
0010
0100
0000
1000
0001
1000
0000
,
0010
0100
0010
0000
0000
0000
1000
0000
,
0001
0000
1000
0100
0000
0010
0001
0010
,
0000
0010
0100
0000
1000
0000
0010
0000
,
0110
0000
1000
0001
0000
1000
0000
0001
,
1000
0000
0100
0000
1000
0000
0010
0100
,
0001
0000
0001
0010
0000
0010
0100
0000
,
0110
1000
0010
0100
,
0001
0001
0001
0001
0001
0001
0001
0000
,
1000
0000
1000
0100
0000
0000
0000
0000
,
0010
0000
0001
0000
0101
0000
0000
0001
,
0100
0000
0100
0000
0100
0000
0010
0000
0010
0000
0010
0000
,
1000
0000
0001
0000
1000
0000
0001
0000
0000
0100
0000
0000
,
0010
0000
0010
1100
,
1001
1010
1001
1100
,
0000
0101
0000
0000
0000
0001
0000
0100
,
0010
1000
0001
0000
0010
0000
0001
0010
,
0000
0100
0000
0000
1000
0100
0010
0100
,
1000
0010
0010
0110
,
0000
1001
0000
0000
0000
0100
0000
0001
,
0010
0001
0100
0000
0001
0000
1001
0000
;

//---------------dance-single - ----------------
#NOTEDATA:;
#CHARTNAME:;
#STEPSTYPE:dance-single;
#DESCRIPTION:;
#CHARTSTYLE:;
#DIFFICULTY:Beginner;
#METER:1;
#RADARVALUES:0.083869,0.130696,0.018638,0.000000,0.000000,63.000000,61.000000,2.000000,0.000000,0.000000,0.000000,0.000000,0.000000,0.000000,0.083869,0.130696,0.018638,0.000000,0.000000,63.000000,61.000000,2.000000,0.000000,0.000000,0.000000,0.000000,0.000000,0.000000;
#CREDIT:;
#NOTES:
0000
0000
0000
0000
,
0000
0000
0000
0000
,
0000
0000
0000
0000
,
0000
0000
0000
0000
,
1000
0000
0000
0000
,
0100
0000
0000
0000
,
0010
0000
0000
0000
,
0001
0000
0000
0000
,
0001
0000
0000
0000
,
0001
0000
0001
0000
,
1000
0000
0000
0000
,
1000
0000
1000
0000
,
0010
0000
0000
0000
,
0010
0000
0010
0000
,
0100
0000
0000
0000
,
0001
0000
0001
0000
,
0001
0000
0000
0000
,
1000
0000
1000
0000
,
1000
0000
0000
0000
,
0010
0000
0100
0000
,
0001
0000
0000
0000
,
1000
0000
0100
0000
,
0010
0000
0000
0000
,
0001
0000
0100
0000
,
0001
0000
0000
0000
,
0000
0000
0000
0000
,
1000
1000
1000
0000
,
0001
0001
0000
0000
,
0010
0000
0000
0000
,
0001
0000
0000
0000
,
1000
0000
0000
0000
,
0001
0000
0000
0000
,
0010
0000
0000
0000
,
0100
0100
0000
0000
,
1000
0000
0000
0000
,
0010
0000
0000
0000
,
1000
0000
0100
0000
,
0001
0000
0100
0000
,
1000
0000
0000
1001
,
0000
0000
0000
1000
,
0000
0100
0000
0010
,
0000
0000
0000
0001
,
0000
0100
0000
0001
,
0000
0000
0000
0001
,
0000
0100
0000
0010
,
0000
0000
0000
0010
,
0000
0010
0000
1001
;

//---------------dance-double - ----------------
#NOTEDATA:;
#CHARTNAME:;
#STEPSTYPE:dance-double;
#DESCRIPTION:;
#CHARTSTYLE:;
#DIFFICULTY:Easy;
#METER:3;
#RADARVALUES:0.187707,0.217827,0.037275,0.158420,0.000000,141.000000,137.000000,4.000000,17.000000,0.000000,0.000000,0.000000,0.000000,0.000000,0.187707,0.217827,0.037275,0.158420,0.000000,141.000000,137.000000,4.000000,17.000000,0.000000,0.000000,0.000000,0.000000,0.000000;
#CREDIT:;
#NOTES:
00000000
00000000
00000000
00000000
,
00000000
00000000
00000000
00000000
,
00000000
00000000
00000000
00000000
,
00000000
00000000
00000000
00000000
,
20000000
00000000
00000000
00000000
,
32000000
00000000
00000000
00000000
,
03020000
00000000
00000000
00000000
,
00032000
00000000
00000100
00003100
,
00001000
00000000
00000000
00010000
00000000
00000000
01000000
00000000
,
10000000
01000000
00010000
00001000
,
00010000
00001000
00000100
00001000
,
00010000
00000010
00001000
00000000
,
00000001
00000000
00000000
00000010
00000000
00000000
00000000
00000000
,
00000100
00010000
00001000
00010000
,
00000200
00000000
00000000
00000000
,
00010300
00010000
00001000
00011000
,
00001000
01000000
00000000
00100000
,
10000000
01000000
00010000
00001000
,
00020000
00000000
00000000
00032000
00000000
00000000
00003000
00000100
,
00000000
00001000
00010000
01000000
,
00010000
00000000
00000000
00002000
00000000
00000000
00013000
00000000
,
00000100
00001000
00000100
00000010
,
00000200
00000000
00000000
00002300
00000000
00000000
00003000
00000010
,
00000000
00000100
00000001
00000010
,
00002000
00000000
00000000
00023000
00000000
00000000
00230000
00000000
,
00000000
20000000
00000000
30300000
,
10000000
01000000
10000000
01000000
,
00010000
01000000
00010000
00001000
,
00010000
00001000
00000100
00001000
,
00000100
00000001
00000100
00000001
,
00000010
00001000
00010000
00100000
,
10000000
00100000
01000000
00001000
,
00011000
00000000
00000000
00010000
00000000
00000000
00000100
00000000
,
00010000
00020000
00000100
00001000
,
00000100
00001000
00000100
00031000
,
00020000
00000000
00000000
00030200
00000000
00000000
00000300
00000000
,
00001000
00000100
00000010
00000000
,
00000001
00000100
00001000
00010000
,
01000000
10000000
10010000
10000000
,
01000000
00100000
00001000
00010000
,
00010000
00001000
00000100
00000001
,
00000000
00001000
00000000
00000000
00000000
00000000
00001000
00000000
,
00000010
00001000
00000100
00001000
,
00000000
00001000
00000000
00000000
00000100
00000000
00010000
00000000
,
00001000
00100000
00010000
10000000
,
00000000
00100000
00000000
00000000
00010000
00000000
00001000
00000000
,
00000100
00001000
00010000
00011000
;

//---------------dance-double - ----------------
#NOTEDATA:;
#CHARTNAME:;
#STEPSTYPE:dance-double;
#DESCRIPTION:;
#CHARTSTYLE:;
#DIFFICULTY:Medium;
#METER:5;
#RADARVALUES:0.258264,0.348523,0.149101,0.139782,0.009319,194.000000,178.000000,16.000000,15.000000,0.000000,0.000000,0.000000,0.000000,0.000000,0.258264,0.348523,0.149101,0.139782,0.009319,194.000000,178.000000,16.000000,15.000000,0.000000,0.000000,0.000000,0.000000,0.000000;
#CREDIT:;
#NOTES:
00000000
00000000
00000000
00000000
,
00000000
00000000
00000000
00000000
,
00000000
00000000
00000000
00000000
,
00000000
00000000
00000000
00000000
,
20000000
00000000
00000000
00000000
,
30020000
00000000
00000000
00000000
,
00032000
00000000
00000000
00000000
,
00003002
00000000
00000010
00001000
,
00000103
00000001
00000010
00001000
,
00010000
01000000
10000000
00000000
01000000
00000000
00010000
00000000
,
00001000
00010000
01000000
00000000
00010000
00001000
00000100
00000000
,
00001000
00000000
00010000
00000000
00011000
00000000
00000000
00001000
,
00010000
00100000
00000000
10000000
00000000
01000000
00000000
00000000
,
00010000
00000000
00001000
00000000
00000010
00000000
00000001
00000100
,
00002000
00000000
00000000
00013000
00000000
00000000
00010000
00000000
,
00001000
00010000
00001000
00011000
,
00010000
01000000
10000000
01000000
,
00010000
00001000
00000100
00001000
,
00021000
00000000
00000000
00030010
00000000
00000000
00000000
00010000
,
00000000
00000010
00010000
00001000
00100000
00000000
00010000
00000000
,
10000000
01000000
00000000
00200000
00000000
00000000
00300000
00100000
,
00001000
00100000
00010000
00000000
00001000
00000000
00000001
00000000
,
00000101
00000000
00000000
00001001
00000000
00000000
00001000
00000000
,
00000001
00000010
00001000
00000000
00010000
00000000
00001000
00000000
,
00011000
00000000
00100000
00010000
00000000
10000000
00200000
00000000
,
00000000
02000000
00000000
03300000
,
01000000
00010000
01000000
00000000
00001000
00010000
00000010
00000000
,
00000010
00001000
00000200
00000000
00000000
00000000
00000310
00000000
,
00000001
00000100
00000010
00001000
00000000
00001000
00000100
00010000
,
00000000
00001000
00200000
00000000
00010000
00000000
01000000
00000000
,
00310000
00000000
00100000
01000000
00000000
10000000
00000000
00100000
,
01000000
00100000
00020000
00000000
00000000
00000000
00031000
00000000
,
00010000
00001000
00010000
00000100
00000000
00000100
00001000
00000000
,
00001010
00000120
00000001
00001000
,
00000130
00000001
00000010
00001000
,
00010000
01000000
10000000
00001000
,
00000100
00000001
00000100
00000010
,
00010000
00001000
00000010
00000001
,
00001000
00000000
00000100
00000000
00001000
00000000
00010000
00000000
00000000
10000000
00000000
00000000
,
00100000
01000000
00001000
00011000
,
00011000
00001100
00001100
00002001
,
00000000
00003010
00000000
00000000
00000000
00001000
00000000
00001000
,
00000010
00000000
00000100
00000000
00000001
00000000
00000010
00001000
,
00000000
00010000
00000000
00000000
00001000
00010000
00001000
00000000
,
00100000
00010000
10010000
02010000
,
00000000
03001000
00000000
00001000
01000000
00001000
01000000
00001000
,
00010000
00000010
00010000
00000010
00010000
00001000
00011000
00000000
;

//---------------dance-double - ----------------
#NOTEDATA:;
#CHARTNAME:;
#STEPSTYPE:dance-double;
#DESCRIPTION:;
#CHARTSTYLE:;
#DIFFICULTY:Hard;
#METER:7;
#RADARVALUES:0.406033,0.479219,0.326158,0.102507,0.074550,305.000000,270.000000,35.000000,11.000000,0.000000,0.000000,0.000000,0.000000,0.000000,0.406033,0.479219,0.326158,0.102507,0.074550,305.000000,270.000000,35.000000,11.000000,0.000000,0.000000,0.000000,0.000000,0.000000;
#CREDIT:;
#NOTES:
00000000
00000000
00000000
00000000
,
00000000
00000000
00000000
00000000
,
00000000
00000000
00000000
00000000
,
00000000
00000000
00000000
00000000
,
20000000
01000000
00010000
30100000
,
02000000
00010000
10000000
03100000
,
00010000
00001000
00000100
00001000
00010000
00010000
00001000
00000100
,
00001000
00010000
01000000
00010000
00001000
00001000
00000100
00001000
,
00010000
00000000
00010100
00000000
00011000
00000000
00110000
00100000
,
00010000
10000000
01000000
00100000
01000000
00000000
10000000
00100000
,
00010000
00100000
10000000
00100000
00010000
00001000
00000010
00000001
,
00000010
00001000
00000010
00000000
00000001
00000001
00000100
00000010
,
00001010
00000020
00000000
00020030
00000000
00031000
00000000
00010000
,
00001000
00000000
00011000
00000000
00110000
00000000
00010000
00100000
,
01000000
10000000
00100000
01000000
00000000
00010000
00100000
00001000
,
00010000
00000000
00000000
00001000
00000000
00000000
00010000
00000000
01000000
00000000
00000000
00000000
01100000
00000000
00000000
00000000
,
01000000
00100000
00001000
00000100
00000000
00000010
00000100
00000001
,
00000020
00000230
00020300
00031000
,
00001000
00100000
00010000
10000000
00000000
00100000
10000000
01000000
,
00010000
01000000
10000000
01000000
00010000
00001000
00010000
00000000
,
00001000
00010000
00000000
00022000
00000000
00000000
00033000
00010000
,
00000100
00001000
00000100
00000000
00000110
00000000
00001001
00000000
,
00000001
00000100
00001000
00010000
00000000
00010000
00000100
00010000
,
00001000
00100000
00010000
10000000
00100000
10000000
00010000
00000000
,
10010000
00000000
00010000
01010000
00000000
00001000
00011000
00000000
,
00000000
00000000
00000000
00001000
00020000
00000000
00000000
00000000
00000000
00000000
00031000
00010000
00001000
00000000
00000000
00000000
,
00001000
00010000
00001000
00000000
00010000
00000100
00001000
00000100
,
00000010
00000000
00000100
00000000
00001000
00000000
00000000
00000000
00000000
00000000
00000000
00001000
00000100
00000000
00000010
00000000
,
00000011
00000001
00001000
00001100
00000000
00000100
00010000
00001000
,
00000000
00001000
00100000
00000000
00010000
01000000
00010000
10000000
,
01000000
00000000
00010000
00000000
00001000
00000000
00000100
00000000
00000000
00000000
00000110
00000000
00000000
00000000
00000100
00000001
,
00000100
00000000
00001000
00000000
00020000
00000000
00000000
00000000
00000000
00000000
00030000
00010000
01000000
00000000
10000000
00000000
,
11000000
10000000
00100000
01010000
00000000
00010000
00100000
00000000
,
00110000
00011000
00001010
00011000
,
01000000
01000000
00001000
00001000
00010000
00010000
00000010
00000100
,
00000110
00000110
00001001
00001001
,
00000001
00000000
00000000
00000010
00000000
00000000
00001000
00000000
00000000
00010000
00000000
00000000
01000000
00000000
00000000
00000000
00000000
00000000
00000000
00000000
00010000
00000000
00000000
00000000
,
00001000
00000000
00000010
00000000
00000001
00000000
00000100
00000000
00001000
00000000
00010000
00000000
,
00011000
00000000
00000000
00000000
00011000
00000000
00000000
00000000
00011000
00000000
00000000
00000000
00010010
00000000
00000000
00000000
00000000
00000000
00000010
00000000
00000000
00010000
00000000
00000000
,
00000100
00001000
00000000
00000001
00000100
00001000
00010000
00100000
,
00010000
00001000
00000100
00001000
00010000
00100000
00010000
00001000
,
00000100
00000010
00000000
00010000
00001000
00000010
00000001
00000010
,
00001000
00000010
00000001
00000100
00000101
00000000
00000001
00000100
,
00000010
00000100
00000000
00001000
00010000
01000000
10000000
01000000
,
00010000
00001000
00000100
00001000
00011000
00000000
00011000
00010000
,
00001000
00000000
00101000
00000000
00000000
00000000
00001000
00000000
00010000
00000000
00100000
00000000
00010000
00000000
00001000
00010000
,
00001000
00000000
00010000
00001000
00010000
00000000
00001000
00010000
00001000
00000000
00010000
00000000
00011000
00000000
00000000
00000000
;

//---------------dance-single - ----------------
#NOTEDATA:;
#CHARTNAME:;
#STEPSTYPE:dance-single;
#DESCRIPTION:;
#CHARTSTYLE:;
#DIFFICULTY:Easy;
#METER:3;
#RADARVALUES:0.161082,0.196044,0.027956,0.055913,0.000000,121.000000,118.000000,3.000000,6.000000,0.000000,0.000000,0.000000,0.000000,0.000000,0.161082,0.196044,0.027956,0.055913,0.000000,121.000000,118.000000,3.000000,6.000000,0.000000,0.000000,0.000000,0.000000,0.000000;
#CREDIT:;
#NOTES:
0000
0000
0000
0000
,
0000
0000
0000
0000
,
0000
0000
0000
0000
,
0000
0000
0000
0000
,
2000
0000
0000
0000
,
3200
0000
0000
0000
,
0320
0000
0000
0000
,
0031
0000
0000
0000
,
0001
0000
0000
0001
0000
0000
0000
0000
,
0001
1000
0100
0000
,
1000
0001
1000
0000
,
0100
1000
0010
0000
,
0010
0000
0000
1000
0000
0000
0000
0000
,
0010
1000
0001
0100
,
0001
0000
0000
0001
,
1001
0000
0000
1000
,
0200
0000
0000
0000
,
0310
0100
1000
0100
,
0010
0000
0000
0010
0000
0000
0000
0000
,
0001
0100
0010
0100
,
0001
0000
0000
0001
0000
0000
0000
0000
,
0001
0001
0010
0010
,
0100
0000
0000
0100
0000
0000
0000
0000
,
1000
0001
1000
0001
,
1000
0000
0000
1000
0000
0000
2000
0000
,
0000
0000
0000
3000
,
0001
0001
1000
1000
,
0100
0100
0000
0010
,
0001
0000
0000
0100
0000
0000
0010
0000
,
0010
0000
0000
0000
,
1000
0000
0000
1000
0000
1000
0000
0000
,
0100
0100
0000
0010
,
0001
0000
0000
0001
0000
0000
0100
0000
,
0001
0001
0001
0001
,
1000
1000
1000
1000
,
1000
0000
0000
0100
0000
0000
0000
0000
,
1000
0010
0100
0000
,
0100
0001
0010
0100
,
2000
0000
3000
1001
,
1000
0001
0000
0001
,
0100
0010
1000
0100
,
0000
0010
0000
0000
0100
0000
0010
0000
,
0001
0010
0100
1000
,
0000
0100
0000
0000
0100
0000
1000
0000
,
0010
1000
0100
0010
,
0000
0001
0000
0000
0100
0000
1000
0000
,
0100
0001
1000
1001
;

//---------------dance-single - ----------------
#NOTEDATA:;
#CHARTNAME:;
#STEPSTYPE:dance-single;
#DESCRIPTION:;
#CHARTSTYLE:;
#DIFFICULTY:Challenge;
#METER:8;
#RADARVALUES:0.544484,0.609915,0.969155,0.037275,0.069891,409.000000,305.000000,104.000000,4.000000,0.000000,0.000000,0.000000,0.000000,0.000000,0.544484,0.609915,0.969155,0.037275,0.069891,409.000000,305.000000,104.000000,4.000000,0.000000,0.000000,0.000000,0.000000,0.000000;
#CREDIT:;
#NOTES:
// measure 0
0000
0000
0000
0000
,  // measure 1
0000
0000
0000
0000
,  // measure 2
0000
0000
0000
0000
,  // measure 3
0000
0000
0000
0000
,  // measure 4
1100
0100
1000
0001
1000
0100
1000
0001
,  // measure 5
0101
0001
1000
0001
0100
0001
1000
0001
,  // measure 6
0011
0001
0100
0010
1000
0100
0001
1000
,  // measure 7
0001
0100
0010
0001
0100
1000
0100
0010
,  // measure 8
1010
0000
1000
0100
0001
0100
0010
0001
,  // measure 9
0011
1000
1010
0000
1100
0000
1000
0010
,  // measure 10
1010
0001
0011
1000
1100
0001
0101
0001
,  // measure 11
1100
0001
1001
0000
1010
0000
0010
1000
,  // measure 12
1100
1000
0010
0100
0101
1000
0001
1000
,  // measure 13
1010
0001
0011
1000
1001
0001
0101
1000
,  // measure 14
1100
0100
0010
0001
0100
0010
1000
0001
,  // measure 15
0011
0000
0000
0110
0000
0000
1100
0000
1001
0000
0000
0000
0110
0000
0000
0000
,  // measure 16
1001
0001
0100
1000
0100
0010
1000
0100
,  // measure 17
0110
0001
1001
0000
1001
0010
0110
1000
,  // measure 18
1010
1000
0100
0011
0000
0001
0100
0110
,  // measure 19
0000
0010
1000
0100
0001
1000
0001
0100
,  // measure 20
1100
1001
0000
0202
0000
0303
0000
0001
,  // measure 21
0101
1001
1000
0000
1100
1001
0001
0000
,  // measure 22
0101
0100
0010
1100
0000
1000
0001
0110
,  // measure 23
0000
0010
0100
1000
1100
0001
1001
0000
,  // measure 24
0011
0001
0100
1010
1000
0100
0110
0000
,  // measure 25
0000
0000
0000
0001
1000
0000
0000
0000
0000
0000
1000
0001
1000
0000
0000
0000
,  // measure 26
1100
0100
0010
0001
0011
0001
0100
0010
,  // measure 27
1010
1000
0100
0010
1001
0100
1001
0010
,  // measure 28
1001
1000
0100
1100
0000
0100
0010
0020
,  // measure 29
0000
0031
0100
1000
0100
0001
0010
0001
,  // measure 30
0101
0000
0100
0000
0010
0000
1010
0000
1000
0000
1001
0000
0000
0000
1000
0010
,  // measure 31
1000
0000
0100
0000
0001
0000
0001
0000
0000
0000
0001
0100
0010
0000
0001
0000
,  // measure 32
0011
1000
0100
1200
0000
1300
0001
0000
,  // measure 33
0101
0000
1100
1000
1001
1000
1010
1000
,  // measure 34
1001
1001
0101
0101
0011
0011
1001
0100
,  // measure 35
1001
0000
0101
0100
0010
1000
1100
1000
,  // measure 36
1010
0001
0011
0100
1010
0000
1000
0100
,  // measure 37
1100
0000
0001
0000
0100
0000
0101
0000
0100
0000
0010
0000
,  // measure 38
1010
0000
0000
0000
1100
0000
0000
0000
0011
0000
0000
0000
1001
0000
0000
0000
0000
0000
0110
0000
0000
1000
0000
0000
,  // measure 39
0001
0010
0001
0100
1000
0100
0110
1000
,  // measure 40
1001
0000
1001
0010
0110
1000
1001
0001
,  // measure 41
0100
0110
0000
0010
1000
1010
0000
0010
,  // measure 42
1000
0100
1100
0001
0101
0000
0101
1010
,  // measure 43
0001
0000
1100
0011
1000
0001
0100
1000
,  // measure 44
0001
1000
1100
0100
0110
0000
1010
1000
,  // measure 45
0100
0000
0011
0000
0000
0000
0010
0000
0001
0000
0100
0000
0110
0000
1000
0100
,  // measure 46
0010
0000
0001
0100
0010
0000
1000
0100
0010
0000
0001
1000
1001
0000
0000
0000
;

//---------------dance-double - ----------------
#NOTEDATA:;
#CHARTNAME:;
#STEPSTYPE:dance-double;
#DESCRIPTION:;
#CHARTSTYLE:;
#DIFFICULTY:Challenge;
#METER:8;
#RADARVALUES:0.511203,0.631698,0.642997,0.027956,0.069891,384.000000,315.000000,69.000000,3.000000,0.000000,0.000000,0.000000,0.000000,0.000000,0.511203,0.631698,0.642997,0.027956,0.069891,384.000000,315.000000,69.000000,3.000000,0.000000,0.000000,0.000000,0.000000,0.000000;
#CREDIT:;
#NOTES:
00000000
00000000
00000000
00000000
,
00000000
00000000
00000000
00000000
,
00000000
00000000
00000000
00000000
,
00000000
00000000
00000000
00000000
,
00011000
00001000
01000000
00010000
10000000
01000000
10000000
00010000
,
01010000
00010000
01000000
00001000
00010000
00000100
00001000
00000010
,
00001010
00001000
00000100
00000001
00000100
00000100
00001000
00000010
,
00000001
00000010
00001000
00000010
00010000
00010000
00001000
00100000
,
00110000
00000000
00010000
01000000
10000000
01000000
00010000
01000000
,
10000000
01000000
00100000
10000000
01000000
00010000
01000000
10000000
,
00100000
00010000
00001000
00000100
00000001
00000010
00001000
00010000
,
01000000
01000000
11000000
00000000
00010000
00010000
01010000
00000000
,
01100000
00100000
10000000
01000000
00010000
01000000
10000000
00100000
,
00010000
00010000
00011000
00000000
00001000
00001000
00011000
00000000
,
00001000
00010000
00000100
00001000
00000001
00000100
00000010
00001000
,
00001010
00000000
00000000
00011000
00000000
00000000
01000000
00000000
10010000
00000000
00000000
00000000
01100000
00000000
00000000
00000000
,
10010000
00010000
10000000
01000000
00010000
00001000
00010000
01000000
,
00100000
00100000
00011000
00000000
00000010
00000010
00011000
00000000
,
00010100
00000100
00001000
00001010
00000000
00001000
00000100
00001000
,
00000010
00000010
00000100
00000001
00000011
00001000
00001010
00000000
,
00001001
00000001
00000100
00001000
00010000
00001000
01000000
10000000
,
01000000
01000000
01100000
00000000
10000000
10000000
10010000
00010000
,
11000000
00010000
01000000
01010000
00000000
01000000
00001000
00000010
,
00000001
00000010
00001000
00000010
00000110
00001000
00001001
00000000
,
00000101
00001000
00000100
00001100
00010000
00001000
00011000
00000000
,
00000000
00000000
00000000
01000000
00010000
00000000
00000000
00000000
00000000
00000000
00010000
10000000
00100000
00000000
00000000
00000000
,
00100000
10000000
01000000
00010000
00001000
00000010
00000001
00000100
,
00000101
00000100
00001000
00010000
00000100
00000010
00001000
00010000
,
00011000
01000000
00010000
01020000
00000000
10030000
00100000
00200000
,
00000000
10000000
10300000
00010000
10000000
01000000
00010000
00001000
,
00001010
00000000
00000010
00000000
00000001
00000000
00001001
00000000
00000000
00000000
00000001
00000000
00000000
00000000
00001000
00000001
,
00001000
00000000
00000100
00000000
00010000
00000000
00020000
00000000
00000000
00000000
00031000
01000000
00100000
00000000
00010000
00000000
,
00110000
00100000
10000000
10100000
10000000
00010000
01000000
00000000
,
01010000
00001000
00011000
00000100
00001100
00000001
00000101
00001000
,
00001100
00001100
00011000
00011000
01010000
01010000
01100000
10000000
,
10010000
00000000
10000000
00010000
10000000
00100000
00010000
10000000
,
00010000
00100000
10000000
01000000
00010000
00001000
00000010
00000001
,
00000101
00000000
00000100
00000000
00001000
00000000
00011000
00000000
00010000
00000000
01000000
00000000
,
11000000
00000000
00000000
00000000
01010000
00000000
00000000
00000000
00011000
00000000
00000000
00000000
00001010
00000000
00000000
00000000
00000000
00000000
00001001
00000000
00000000
00001000
00000000
00000000
,
00000001
00000010
00001000
00010000
01000000
10000000
00100000
00100000
,
10100000
00000000
00001000
00001000
00011000
00000100
00010010
00000010
,
00000100
00000011
00000000
00000001
00000100
00000001
00000010
00001000
,
00000001
00001000
00000010
00000001
00000100
00001000
00011000
00100000
,
00010000
01000000
01010000
01000000
00100000
10000000
10100000
00010000
,
00110000
00000000
00110000
00001000
00011000
00010000
00010010
00001000
,
00000100
00000000
00001010
00000000
00000000
00000000
00001000
00000000
00000001
00000000
00000100
00000000
00001000
00000000
00010000
01000000
,
00100000
00000000
00001000
00000100
00000010
00000000
00010000
01000000
00100000
00000000
00001000
00000100
00000110
00000000
00000000
00000000
;
