#TITLE:Light Up The Sky;
#SUBTITLE:;
#ARTIST:Darwin;
#TITLETRANSLIT:;
#SUBTITLETRANSLIT:;
#ARTISTTRANSLIT:;
#GENRE:;
#CREDIT:;
#BANNER:Light Up The Sky.png;
#BACKGROUND:Light Up The Sky-bg.png;
#LYRICSPATH:;
#CDTITLE:;
#MUSIC:Light Up The Sky.ogg;
#OFFSET:0.000000;
#SAMPLESTART:27.428570;
#SAMPLELENGTH:16.457142;
#SELECTABLE:YES;
#BPMS:0.000000=175.000000
;
#STOPS:
;
#BGCHANGES:;
#KEYSOUNDS:;
#ATTACKS:;

//---------------dance-single - ----------------
#NOTES:
     dance-single:
     :
     Beginner:
     1:
     0.115730,0.171023,0.027004,0.000000,0.000000,90.000000,87.000000,3.000000,0.000000,0.000000,0.000000,0.115730,0.171023,0.027004,0.000000,0.000000,90.000000,87.000000,3.000000,0.000000,0.000000,0.000000:
0000
0000
0000
0000
,
0000
0000
0000
0000
,
0000
0000
0000
0000
,
0000
0000
0000
0000
,
0000
0000
0000
0000
,
0000
0000
0000
0000
,
0000
0000
0000
0000
,
0000
0000
0000
0000
,
1000
0000
0000
0000
,
0001
0000
0000
0000
,
1000
0000
0000
0000
,
0001
0000
0000
0000
,
0100
0000
0000
0000
,
0010
0000
0000
0000
,
0100
0000
0000
0000
,
0010
0000
0000
0000
,
1000
0000
0000
0000
,
1000
0000
0000
0000
,
0001
0000
1000
0000
,
1001
0000
0000
0000
,
0100
0000
0100
0000
,
0100
0000
0000
0000
,
0010
0000
0010
0000
,
0010
0000
0000
0000
,
0001
0000
0001
0000
,
0001
0000
0000
0000
,
1000
0000
1000
0000
,
1000
0000
0000
0000
,
0010
0000
0100
0000
,
0010
0000
0000
0000
,
1000
0000
0001
0000
,
1000
0000
0000
0000
,
0001
0000
0010
0000
,
0001
0000
0000
0000
,
1000
0000
0100
0000
,
1000
0000
0000
0000
,
1001
0000
0000
0000
,
0100
0000
0000
0000
,
0010
0000
0100
0000
,
0010
0000
0000
0000
,
1000
0000
0000
0000
,
0001
0000
0000
0000
,
1000
0000
0001
0000
,
1000
0000
0000
0000
,
0001
0000
0000
0000
,
0010
0000
0000
0000
,
0100
0000
1000
0000
,
0100
0000
1000
0000
,
0001
0000
0000
0000
,
0100
0000
0000
0000
,
0010
0000
1000
0000
,
0010
0000
1000
0000
,
0001
0000
0000
0000
,
0010
0000
0000
0000
,
0100
0000
0000
0000
,
1000
0000
0000
0000
,
0001
0000
0000
0000
,
0100
0000
0000
0000
,
0010
0000
0010
0000
,
0010
0000
0000
0000
,
1000
0000
0000
0000
,
1000
0000
0000
0000
,
0001
0000
0000
0000
,
0001
0000
0000
0000
,
0010
0000
0000
0000
,
0010
0000
0000
0000
,
0100
0000
0000
0000
,
0100
0000
0000
0000
,
1000
0000
0000
0000
,
0001
0000
0000
0000
,
1000
0000
0001
0000
,
1000
0000
0000
0000
,
0010
0000
0000
0000
,
0100
0000
0000
0000
,
0010
0000
0100
0000
,
0010
0000
0000
0000
,
1001
0000
0000
0000
;

//---------------dance-single - ----------------
#NOTES:
     dance-single:
     :
     Hard:
     8:
     0.600510,0.631886,0.423058,0.072010,0.090012,467.000000,420.000000,47.000000,8.000000,0.000000,0.000000,0.600510,0.631886,0.423058,0.072010,0.090012,467.000000,420.000000,47.000000,8.000000,0.000000,0.000000:
0000
0000
0000
0000
,
0000
0000
0000
0000
,
0000
0000
0000
0000
,
0000
0000
0000
0000
,
1000
0000
0010
0000
0100
0001
0100
0001
,
0000
1000
0000
0100
0000
0010
0001
0000
,
1000
0000
0010
0100
0000
0001
0000
0100
,
0000
0010
0000
1000
0000
0001
0010
0000
,
0100
1000
0100
0000
1100
0000
0000
0010
,
0001
0100
0001
0000
0101
0000
0100
0001
,
1000
0001
1000
0000
1001
0000
0000
0100
,
0010
0100
0010
0000
0110
0000
0010
0001
,
1000
0010
1000
0000
1010
0000
0000
0010
,
0100
0010
0100
0000
0101
0000
0001
1000
,
0100
1000
0100
0000
1100
0000
0000
1000
,
0001
1000
0001
0000
1001
0000
0000
0001
,
0100
0001
0100
0001
0100
0010
0100
0010
,
1000
0010
1000
0010
1000
0001
1000
0001
,
0010
0100
1000
0010
0100
0001
0010
0100
,
2002
0000
3003
0110
,
0001
0100
1000
0000
1100
0000
0000
1000
,
0100
0001
0010
0000
0110
0000
0100
1000
,
0010
0100
0001
0000
1001
0000
0000
0001
,
0010
0100
1000
0000
1001
0000
0000
0001
,
0010
1000
0010
0000
0110
0000
0000
0100
,
1000
0001
0100
0000
0110
0000
0010
1000
,
0100
0001
0100
0000
0110
0000
0000
0010
,
0001
1000
0010
0000
0110
0000
0000
0100
,
0001
1000
0100
1000
0010
1000
0001
0010
,
0001
0100
0010
0000
0110
0000
0100
0001
,
1000
0100
0010
0100
1000
0001
0100
0010
,
0100
0001
0010
0000
0011
0000
0010
0100
,
1000
0010
1000
0001
0100
0010
0100
0001
,
1000
0100
0010
0000
0110
0000
0010
0001
,
1000
0010
1000
0001
0100
0010
1000
0000
,
2002
0000
3003
0110
,
0100
1000
0010
1000
0100
1000
0010
0000
,
0100
0001
0010
0001
0100
0001
0010
0000
,
0001
1000
0010
1000
0001
1000
0010
0000
,
0100
0001
1000
0001
0100
0001
1000
0000
,
0001
0010
0100
0010
0001
1000
0010
0000
,
0100
0001
1000
0100
1000
0010
0100
0000
,
0001
0100
0010
0100
0001
1000
0100
0000
,
0010
0001
0010
0100
1000
0001
0100
0000
,
0010
0100
0001
0000
1000
0100
0010
0001
,
1000
0010
0100
0000
0010
1000
0100
0010
,
0001
1000
0010
0000
0100
0001
0010
0100
,
1000
0100
0010
0000
0110
0000
0010
0001
,
1000
0010
0100
0000
0001
0100
0010
1000
,
0001
0010
0100
0000
0010
0001
1000
0010
,
0100
0001
1000
0000
0001
0010
0100
1000
,
0001
0100
0010
1000
,
0001
0000
0100
0000
0001
0000
0100
0000
0001
0000
0000
0100
0000
0000
0001
0000
,
0100
0000
0010
0000
0100
0000
0010
0000
0100
0000
0000
0010
0000
0000
0100
0000
,
0010
0000
1000
0000
0010
0000
1000
0000
0010
0000
0000
1000
0000
0000
0010
0000
,
1000
0000
0001
0000
1000
0000
0001
0000
1000
0000
0000
0001
0000
0000
1000
0000
,
0001
0010
0100
1000
,
0010
0100
0001
1000
,
1001
1100
1001
0011
,
2002
0000
3003
0110
,
0100
0000
0001
0000
1000
0000
0000
0100
0000
0000
0010
0000
0100
0000
0000
0000
,
1000
0000
0010
0000
0100
0000
0000
0001
0000
0000
1000
0000
0100
0000
0000
0000
,
0010
0000
0001
0000
1000
0000
0000
0010
0000
0000
1000
0000
0001
0000
0000
0000
,
0010
0000
0100
0000
1000
0000
0000
0010
0000
0000
1000
0000
0001
0000
0000
0000
,
0010
0000
0001
0000
0100
0000
0000
1000
0000
0000
0100
0000
0001
0000
0000
0000
,
0010
0000
0100
0000
1000
0000
0000
0010
0000
0000
1000
0000
0001
0000
0000
0000
,
0010
0000
1000
0000
0010
0000
0000
0001
0000
0000
1000
0000
0010
0000
0000
0000
,
0100
0000
0001
0000
1000
0000
0000
0100
0000
0000
0010
0000
0001
0000
0000
0000
,
0011
0000
0000
0000
0011
0000
0000
0001
0000
0000
1000
0000
0010
0000
0000
0000
,
0110
0000
0000
0000
0110
0000
0000
0100
0000
0000
0001
0000
1000
0000
0000
0000
,
1100
0000
0000
0000
1100
0000
0000
1000
0000
0000
0010
0000
0100
0000
0000
0000
,
0110
0000
0000
0000
0110
0000
0000
0001
0000
0000
1000
0000
0100
0000
0000
0000
,
0011
0000
0000
0000
1100
0000
0000
1000
0000
0000
0001
0000
0100
0000
0000
0000
,
1010
0000
0000
0000
0101
0000
0000
0001
0000
0000
0010
0000
0100
0000
0000
0000
,
1001
0000
0000
0000
0110
0000
0000
0010
0000
0000
1000
0000
0001
0000
0000
0000
,
1001
0000
0000
0000
0010
0000
0000
0100
0000
0000
0010
0000
0110
0000
0000
0000
,
2002
0000
0000
0000
,
0000
0000
0000
0000
,
3003
0000
0000
0000
;

//---------------dance-single - ----------------
#NOTES:
     dance-single:
     :
     Easy:
     4:
     0.275180,0.342047,0.180024,0.000000,0.000000,214.000000,194.000000,20.000000,0.000000,0.000000,0.000000,0.275180,0.342047,0.180024,0.000000,0.000000,214.000000,194.000000,20.000000,0.000000,0.000000,0.000000:
0000
0000
0000
0000
,
0000
0000
0000
0000
,
0000
0000
0000
0000
,
0000
0000
0000
0000
,
0000
0000
0000
0000
,
0000
0000
0000
0000
,
0000
0000
0000
0000
,
0000
0000
0000
0000
,
1000
0000
0001
0000
,
0100
0000
0010
0000
,
1000
0000
0010
0000
,
0100
0000
0001
0000
,
0010
0000
0100
0000
,
1000
0000
0001
0000
,
0100
0000
0010
0000
,
1000
0000
0001
0000
,
0010
0000
0010
0000
,
0100
0000
0100
0000
,
1000
0000
0001
0000
,
1001
0000
0000
1001
,
0010
0100
1001
0000
,
0100
0010
1001
0000
,
0010
1000
1100
0000
,
0010
0001
0101
0000
,
0001
1000
1001
0000
,
0100
0010
0110
0000
,
0010
0001
0011
0000
,
0001
1000
1001
0000
,
1000
0001
1001
0000
,
0001
1000
1001
0000
,
0010
1000
1010
0000
,
1000
0100
1100
0000
,
0100
0010
0110
0000
,
0010
0100
0110
0000
,
0010
0001
1001
0000
,
0110
0000
0000
0000
,
0010
0100
0010
0010
,
1000
0010
1000
0000
,
0001
0010
0001
0001
,
0100
0001
0100
0000
,
0001
1000
0100
0100
,
1000
0001
0100
0000
,
0010
1000
0001
0001
,
0010
0001
1000
0000
,
0010
1000
0100
0100
,
0010
0001
1000
0000
,
0010
0100
0001
0001
,
0010
0001
1000
0000
,
0010
1000
0100
0100
,
0010
0001
1000
0000
,
0010
0100
0001
0001
,
1000
0000
0000
0000
,
0001
0000
0000
0000
,
0100
0000
0000
0000
,
0010
0000
0000
0000
,
1000
0000
0000
0000
,
0001
0000
1000
0000
,
0010
0000
0100
0000
,
0001
0000
1000
0000
,
1001
0000
0000
0000
,
0001
1000
0001
1000
,
0010
1000
0010
1000
,
0001
0010
0001
0010
,
0100
1000
0100
0000
,
1000
0010
1000
0010
,
0100
0001
0100
0001
,
0010
0100
0010
0100
,
1000
0001
1000
0000
,
0001
0100
0010
1000
,
0010
0100
0001
0000
,
1000
0100
0010
0001
,
0010
0100
1000
0000
,
0010
1000
0001
0100
,
0001
1000
0010
0000
,
0100
0001
1000
0010
,
0100
0001
1000
0000
,
1001
0000
0000
0000
;

//---------------dance-single - ----------------
#NOTES:
     dance-single:
     :
     Medium:
     6:
     0.453919,0.547274,0.423058,0.000000,0.018002,353.000000,306.000000,47.000000,0.000000,0.000000,0.000000,0.453919,0.547274,0.423058,0.000000,0.018002,353.000000,306.000000,47.000000,0.000000,0.000000,0.000000:
0000
0000
0000
0000
,
0000
0000
0000
0000
,
0000
0000
0000
0000
,
0000
0000
0000
0000
,
1000
0000
0000
0001
0000
0100
0000
0010
,
0000
1000
0000
0001
0000
0000
0010
0000
,
0100
0000
0000
1000
0000
0100
0000
0010
,
0000
0001
0000
1000
0000
0000
0010
0000
,
0100
0000
0010
0000
0100
0000
0000
0100
,
0010
0000
0100
0000
0010
0000
0000
0010
,
1000
0000
0010
0000
1000
0000
0000
1000
,
0001
0000
1000
0000
0001
0000
0000
0001
,
0010
0000
0001
0000
0010
0000
0000
0001
,
0010
0000
0001
0000
0010
0000
0000
0010
,
0100
0000
0010
0000
0100
0000
0000
0100
,
1000
0100
1000
0000
,
0001
1000
0001
1000
,
0010
0100
0010
0100
,
0101
0000
1010
0000
,
1001
0000
0000
0110
,
0010
0000
0100
0000
0101
0000
0001
1000
,
0100
0000
0010
0000
0011
0000
0100
1000
,
0010
0000
0100
0000
1001
0000
0001
0100
,
0010
0000
1000
0000
1100
0000
1000
0001
,
0010
0000
0100
0000
1100
0000
1000
0001
,
0100
0000
0010
0000
0110
0000
0100
0001
,
1000
0000
0100
0000
0011
0000
0100
1000
,
0010
0100
1001
0000
,
0001
0000
0100
0000
0110
0000
0010
0100
,
0001
0000
1000
0000
1100
0000
1000
0010
,
0100
0000
0010
0000
0110
0000
0001
0010
,
0100
0000
1000
0000
0011
0000
0100
1000
,
0010
0000
0100
0000
1001
0000
0001
0010
,
0100
0000
1000
0000
1010
0000
0010
0100
,
0001
0000
0010
0000
0011
0000
0010
0100
,
1000
0001
0110
0000
,
0010
1000
0010
0000
1010
0000
0000
0000
,
1000
0100
1000
0000
1100
0000
0000
0000
,
0010
0001
0010
0000
0011
0000
0000
0000
,
0001
0100
0001
0000
0101
0000
0000
0000
,
0001
1000
0100
0000
0110
0000
1001
0000
,
0001
0100
0010
0000
1010
0000
0101
0000
,
0001
1000
0100
0000
0110
0000
1001
0000
,
0001
0100
0010
0000
1010
0000
0000
0000
,
0010
0100
0010
0000
0110
0000
0000
0000
,
0001
1000
0001
0000
1001
0000
0000
0000
,
0001
0010
0001
0000
0011
0000
0000
0000
,
0100
1000
0100
0000
1100
0000
0000
0000
,
1000
0010
1000
0000
1010
0000
0101
0000
,
0001
1000
0001
0000
0110
0000
1001
0000
,
0001
0010
0100
0000
1100
0000
1001
0000
,
0010
0100
0000
0001
0000
1000
0100
0000
,
1000
0000
0000
0000
0100
0000
0000
0000
1000
0000
0000
0100
0000
0000
0000
0000
,
0010
0000
0000
0000
0001
0000
0000
0000
0010
0000
0000
0001
0000
0000
0000
0000
,
0100
0000
0000
0000
0010
0000
0000
0000
0100
0000
0000
0010
0000
0000
0000
0000
,
1000
0000
0000
0000
0001
0000
0000
0000
1000
0000
0000
0001
0000
0000
0000
0000
,
0010
0001
1000
0010
,
0100
0001
0010
0100
,
1100
0000
0011
0000
,
1001
0000
0000
0110
,
0010
0000
0100
0000
0001
1000
0100
0000
,
0010
0000
0100
0000
1000
0001
0100
0000
,
0010
0000
0100
0000
0001
1000
0100
0000
,
0010
0001
1000
0000
,
0010
0000
0100
0000
0001
1000
0100
0000
,
0010
0000
0001
0000
1000
0010
0100
0000
,
0010
0000
1000
0000
0001
0010
0100
0000
,
1000
0001
0100
0000
,
0010
0000
0010
0000
0100
0001
1000
0000
,
0100
0000
0100
0000
1000
0010
0100
0000
,
0001
0000
0001
0000
0010
0001
1000
0000
,
1000
0000
1000
0000
0010
0100
0001
0000
,
0010
0000
0100
0000
1000
0001
0100
0000
,
0010
0000
0100
0000
0001
1000
0100
0000
,
0010
0010
0100
0100
,
1001
0000
0001
1000
,
0110
0000
0000
0000
;

//---------------dance-double - ----------------
#NOTES:
     dance-double:
     :
     Hard:
     8:
     0.547789,0.596781,0.198027,0.081011,0.063009,426.000000,404.000000,22.000000,9.000000,0.000000,0.000000,0.547789,0.596781,0.198027,0.081011,0.063009,426.000000,404.000000,22.000000,9.000000,0.000000,0.000000:
00000000
00000000
00000000
00000000
,
00000000
00000000
00000000
00000000
,
00000000
00000000
00000000
00000000
,
00000000
00000000
00000000
00000000
,
00020000
00000000
00000000
00000000
,
00000000
00000000
00000000
00000000
,
00032000
00000000
00000000
00000000
,
00003020
00000000
00000000
00000000
,
00000031
00000001
00000100
00000000
00001000
00000000
00000000
00010000
,
00100000
00100000
10000000
00000000
00010000
00000000
10000000
00100000
,
10000000
10000000
01000000
00000000
00010000
00000000
00000000
00001000
,
00000010
00000010
00000001
00000000
00001000
00000000
00000000
00001000
,
00000001
00000100
00001000
00010000
00100000
10000000
00000000
00010000
,
10000000
01000000
00010000
00001000
00000010
00000001
00000000
00001000
,
00000001
00000100
00001000
00010000
00100000
10000000
00000000
00010000
,
10000000
01000000
00010000
00001000
00000010
00000001
00000000
00001000
,
00000001
00000100
00000000
00000100
00001000
00010000
00000000
00010000
,
01000000
10000000
00000000
10000000
00100000
01000000
00000000
01000000
,
00001000
00010000
00000100
00001000
00000010
00000100
00000001
00000010
,
00000220
00000000
00000330
00001001
,
00000001
00000100
00001000
00000000
00011000
00000000
00000000
00010000
,
01000000
10000000
00100000
00000000
01100000
00000000
01000000
00010000
,
00100000
00001000
00010000
00000000
00011000
00000000
00000000
00001000
,
00000100
00000001
00000010
00000000
00000110
00000000
00000000
00001000
,
00000001
00000010
00001000
00000000
00011000
00000000
00000000
00010000
,
00100000
10000000
01000000
00000000
01100000
00000000
00100000
00010000
,
01000000
00001000
00010000
00000000
00011000
00000000
00000000
00001000
,
00000010
00000001
00000100
00000000
00000110
00000000
00001001
00001000
,
00000001
00000100
00000001
00001000
00000100
00000000
00010000
00001000
,
01000000
00001000
00010000
01000000
10000000
00000000
00100000
10000000
,
01000000
00010000
00001000
00010000
00100000
00000000
00010000
00001000
,
00010000
00000100
00000010
00000000
00000110
00000000
00001001
00001000
,
00000001
00000010
00000001
00001000
00000010
00000000
00010000
00001000
,
00100000
00001000
00010000
00100000
10000000
00000000
01000000
10000000
,
00100000
00010000
00001000
00010000
01000000
00000000
00010000
00001000
,
00010000
00000010
00000100
00000000
00000001
00001000
00001001
00000000
,
00000001
00000010
00001000
00010000
00100000
00000000
00000000
10000000
,
00010000
10000000
01000000
00100000
00001000
00000000
00010000
00000010
,
00000100
00000010
00010000
00000100
00000010
00000000
00000001
00000100
,
00001000
00010000
01000000
00000000
10010000
00000000
00000000
00010000
,
10000000
00100000
00010000
00001000
00000010
00000000
00000000
00000001
,
00001000
00000001
00000100
00000010
00010000
00000000
00001000
00100000
,
01000000
00100000
00001000
01000000
00100000
00000000
10000000
01000000
,
00010000
00001000
00000100
00000000
00001001
00000000
00000000
00001000
,
00000001
00000100
00001000
00010000
01000000
00000000
00000000
10000000
,
00010000
10000000
00100000
01000000
00001000
00000000
00010000
00000100
,
00000010
00000100
00010000
00000010
00000100
00000000
00000001
00000010
,
00001000
00010000
00100000
00000000
10010000
00000000
00000000
00010000
,
10000000
01000000
00010000
00001000
00000100
00000000
00000000
00000001
,
00001000
00000001
00000010
00000100
00010000
00000000
00001000
01000000
,
00100000
01000000
00001000
00100000
01000000
00000000
10000000
00100000
,
00010000
00001000
00000010
00000000
00001001
00000000
00000000
00000000
,
00000001
00000010
00001000
00010000
01000000
10000000
00000000
00010000
,
10000000
00100000
00010000
00001000
00000100
00000001
00000000
00001000
,
00000001
00000010
00001000
00010000
01000000
10000000
00000000
00010000
,
10000000
00100000
00010000
00001000
00000100
00000001
00000000
00001000
,
00000001
00000010
00000000
00000010
00001000
00010000
00000000
00010000
,
00100000
10000000
00000000
10000000
01000000
00100000
00000000
00100000
,
00001000
00010000
00000010
00001000
00000100
00000010
00000001
00000100
,
00000220
00000000
00000330
00001001
,
00001000
00000000
00000000
00000000
00000001
00000000
00000000
00000010
00000000
00000000
00000001
00000000
00001000
00000000
00000000
00000000
,
00000100
00000000
00000000
00000000
00010000
00000000
00000000
00001000
00000000
00000000
00100000
00000000
00000000
00000000
00000000
00000000
,
00010000
00000000
00000000
00000000
10000000
00000000
00000000
00100000
00000000
00000000
10000000
00000000
00010000
00000000
00000000
00000000
,
01000000
00000000
00000000
00000000
00001000
00000000
00000000
00010000
00000000
00000000
00000010
00000000
00000000
00000000
00000000
00000000
,
00001000
00000000
00000000
00000000
00000001
00000000
00000000
00000100
00000000
00000000
00000001
00000000
00001000
00000000
00000000
00000000
,
00000010
00000000
00000000
00000000
00010000
00000000
00000000
00001000
00000000
00000000
01000000
00000000
00000000
00000000
00000000
00000000
,
00010000
00000000
00000000
00000000
10000000
00000000
00000000
01000000
00000000
00000000
10000000
00000000
00010000
00000000
00000000
00000000
,
00100000
00000000
00000000
00000000
00001000
00000000
00000000
00010000
00000000
00000000
00000100
00000000
00000000
00000000
00000000
00000000
,
00000010
00000000
00000000
00000000
00000010
00000000
00000000
00000001
00000000
00000000
00000100
00000000
00001000
00000000
00000000
00000000
,
00010000
00000000
00000000
00000000
00100000
00000000
00000000
10000000
00000000
00000000
00010000
00000000
10000000
00000000
00000000
00000000
,
00100000
00000000
00000000
00000000
00100000
00000000
00000000
10000000
00000000
00000000
01000000
00000000
00010000
00000000
00000000
00000000
,
00001000
00000000
00000000
00000000
00000010
00000000
00000000
00000001
00000000
00000000
00001000
00000000
00000000
00000000
00000000
00000000
,
00001001
00000000
00000000
00000000
00000010
00000000
00000000
00000001
00000000
00000000
00000100
00000000
00001000
00000000
00010000
00000000
,
01000000
00000000
10000000
00000000
00100000
00000000
00000000
10000000
00000000
00000000
01000000
00000000
00010000
00000000
01000000
00000000
,
10000000
01000000
00100000
00010000
01000000
00100000
00010000
00001000
,
00000100
00000010
00001000
00000100
00000010
00000001
00001000
00000000
,
00000220
00000000
00000000
00000000
,
00000000
00000000
00000000
00000000
,
00000330
00000000
00000000
00000000
;

//---------------dance-double - ----------------
#NOTES:
     dance-double:
     :
     Medium:
     7:
     0.479637,0.513070,0.270037,0.063009,0.036005,373.000000,343.000000,30.000000,7.000000,0.000000,0.000000,0.479637,0.513070,0.270037,0.063009,0.036005,373.000000,343.000000,30.000000,7.000000,0.000000,0.000000:
00000000
00000000
00000000
00000000
,
00000000
00000000
00000000
00000000
,
00000000
00000000
00000000
00000000
,
00000000
00000000
00000000
00000000
,
00002000
00000000
00000000
00000000
,
00000000
00000000
00000000
00000000
,
00023000
00000000
00000000
00000000
,
02030000
00000000
00000000
00000000
,
13000000
00000000
00010000
00000000
10000000
00000000
00000000
01000000
,
00010000
00000000
00001000
00000000
00010000
00000000
00000010
00000100
,
00000001
00000000
00001000
00000000
00000001
00000000
00000000
00000100
,
00001000
00000000
00010000
00000000
00001000
00000000
00000000
00100000
,
01000000
10000000
01000000
10000000
01000000
10000000
00000000
00010000
,
01000000
00001000
01000000
00001000
01000000
00001000
00000000
00010000
,
00000010
00001000
00000010
00001000
00000010
00001000
00000000
00000001
,
00000100
00000010
00000100
00000010
00000100
00000010
00000000
00001000
,
00000001
00000010
00000100
00001000
,
00010000
00100000
01000000
10000000
,
00100000
01000000
00100000
01000000
00001000
00010000
00001000
00010000
,
00000020
00000000
00000030
00001001
,
00000001
00000000
00000100
00000000
00000101
00000000
00000001
00001000
,
00000100
00000000
00000010
00000000
00001010
00000000
00001000
00010000
,
00100000
00000000
10000000
00000000
11000000
00000000
01000000
00100000
,
00010000
00000000
01000000
00000000
01001000
00000000
00001000
00010000
,
00000010
00000000
00001000
00000000
00001001
00000000
00000001
00000010
,
00000100
00000000
00001000
00000000
00001010
00000000
00000010
00010000
,
00001000
00000000
00100000
00000000
00101000
00000000
00001000
00010000
,
01000000
00000000
10000000
00000000
10010000
00000000
00000000
00010000
,
10000000
01000000
10000000
00000000
11000000
00000000
00000000
00010000
,
00100000
00010000
00100000
00000000
00101000
00000000
00000000
00001000
,
00010000
00001000
00010000
00000000
00010010
00000000
00000000
00000010
,
00001000
00000010
00001000
00000000
00001001
00000000
00000000
00000100
,
00000001
00000100
00000001
00000000
00000101
00000000
00000000
00001000
,
00000010
00001000
00000010
00000000
00010010
00000000
00000000
00010000
,
00001000
00010000
00001000
00000000
00101000
00000000
00000000
00100000
,
00010000
00100000
00010000
00000000
10010000
00000000
00000000
00100000
,
10000000
00100000
10000000
00000000
10100000
00000000
00000000
00010000
,
01000000
00010000
01000000
00000000
01001000
00000000
00000000
00001000
,
00010000
00001000
00010000
00000000
00010100
00000000
00000000
00000100
,
00001000
00000100
00001000
00000000
00001001
00000000
00000000
00000010
,
00000001
00000010
00000001
00000000
00000011
00000000
00000000
00001000
,
00000100
00001000
00000100
00000000
00010100
00000000
00000000
00010000
,
00001000
00010000
00001000
00000000
01001000
00000000
00000000
01000000
,
00010000
01000000
00010000
00000000
10010000
00000000
00000000
00010000
,
10000000
10000000
01000000
00000000
00010000
00000000
00000000
00001000
,
00000100
00000100
00000001
00000000
00000010
00000000
00000001
00001000
,
00000001
00000001
00000100
00000000
00001000
00000000
00000000
00010000
,
01000000
01000000
10000000
00000000
00100000
00000000
00000000
10000000
,
00010000
00010000
01000000
00000000
00001000
00000000
00000000
00010000
,
00000010
00000010
00001000
00000000
00000100
00000000
00000010
00000001
,
00001000
00001000
00000100
00000000
00010000
00000000
00001000
00000000
,
00200000
00000000
00000000
00300000
,
01000000
10000000
01000000
10000000
01000000
10000000
00000000
00010000
,
01000000
00001000
01000000
00001000
01000000
00001000
00000000
00010000
,
00000010
00001000
00000010
00001000
00000010
00001000
00000000
00000001
,
00000100
00000010
00000100
00000010
00000100
00000010
00000000
00001000
,
00000001
00000010
00000100
00001000
,
00010000
00100000
01000000
10000000
,
00100000
01000000
00100000
01000000
00001000
00010000
00001000
00010000
,
00000020
00000000
00000030
00001001
,
00000010
00000000
00000000
00000000
00000001
00000000
00000000
00000001
00000000
00000000
00000001
00000000
00001000
00000000
00000000
00000000
,
00000100
00000000
00000000
00000000
00010000
00000000
00000000
00010000
00000000
00000000
00010000
00000000
00000000
00000000
00000000
00000000
,
00001000
00000000
00000000
00000000
00100000
00000000
00000000
00100000
00000000
00000000
00100000
00000000
00010000
00000000
00000000
00000000
,
10000000
00000000
00000000
00000000
01000000
00000000
00000000
01000000
00000000
00000000
01000000
00000000
10000000
00000000
00000000
00000000
,
00100000
00000000
00000000
00000000
10000000
00000000
00000000
10000000
00000000
00000000
10000000
00000000
00010000
00000000
00000000
00000000
,
01000000
00000000
00000000
00000000
00001000
00000000
00000000
00001000
00000000
00000000
00001000
00000000
00000000
00000000
00000000
00000000
,
00010000
00000000
00000000
00000000
00000010
00000000
00000000
00000010
00000000
00000000
00000010
00000000
00001000
00000000
00000000
00000000
,
00000001
00000000
00000000
00000000
00000100
00000000
00000000
00000100
00000000
00000000
00000100
00000000
00000000
00000000
00000000
00000000
,
00001001
00000000
00000100
00000000
00000100
00000010
00010000
00000000
,
00001000
00000000
00001000
00000000
00100000
00010000
10000000
00000000
,
01000000
00000000
01000000
00000000
10000000
00100000
00010000
00000000
,
00001000
00000000
00001000
00000000
00010000
00000100
00000010
00000000
,
00000001
00000000
00000001
00000000
00000010
00000100
00001000
00000000
,
00000100
00000000
00000100
00000000
00010000
00001000
00100000
00000000
,
01000000
10010000
00100000
10010000
,
02000000
00000000
00000000
03001000
,
00011000
00000000
00000000
00000000
;

//---------------dance-double - ----------------
#NOTES:
     dance-double:
     :
     Easy:
     4:
     0.271323,0.342047,0.108015,0.054007,0.000000,211.000000,199.000000,12.000000,6.000000,0.000000,0.000000,0.271323,0.342047,0.108015,0.054007,0.000000,211.000000,199.000000,12.000000,6.000000,0.000000,0.000000:
// measure 0
00000000
00000000
00000000
00000000
,  // measure 1
00000000
00000000
00000000
00000000
,  // measure 2
00000000
00000000
00000000
00000000
,  // measure 3
00000000
00000000
00000000
00000000
,  // measure 4
00000000
00000000
00000000
00000000
,  // measure 5
00000000
00000000
00000000
00000000
,  // measure 6
00000000
00000000
00000000
00000000
,  // measure 7
00000000
00000000
00000000
00000000
,  // measure 8
10000000
00000000
00010000
00000000
,  // measure 9
01000000
00000000
00001000
00000000
,  // measure 10
00010000
00000000
00000100
00000000
,  // measure 11
00000010
00000000
00000001
00000000
,  // measure 12
00001000
00001000
00001000
00000000
,  // measure 13
00000001
00000001
00000001
00000000
,  // measure 14
00000100
00000100
00000100
00000000
,  // measure 15
00001000
00001000
00001000
00000000
,  // measure 16
00010000
00000000
00100000
00000000
,  // measure 17
10000000
00000000
00010000
00000000
,  // measure 18
10000000
01000000
00100000
00001000
,  // measure 19
00022000
00000000
00000000
00033000
,  // measure 20
00000100
00000001
00000100
00000000
,  // measure 21
00000010
00001000
00000010
00000000
,  // measure 22
00010000
00000100
00010000
00000000
,  // measure 23
00001000
00100000
00001000
00000000
,  // measure 24
01000000
00010000
01000000
00000000
,  // measure 25
00100000
10000000
00100000
00000000
,  // measure 26
10000000
01000000
00100000
00010000
,  // measure 27
00100000
01000000
10000000
00000000
,  // measure 28
00100000
10000000
00100000
00000000
,  // measure 29
01000000
00010000
01000000
00000000
,  // measure 30
00001000
00100000
00001000
00000000
,  // measure 31
00010000
00000100
00010000
00000000
,  // measure 32
00000010
00001000
00000010
00000000
,  // measure 33
00000100
00000001
00000100
00000000
,  // measure 34
00000001
00000010
00000100
00001000
,  // measure 35
00010000
00000000
00000000
10010000
,  // measure 36
10000000
01000000
10000000
00000000
,  // measure 37
10000000
00100000
10000000
00000000
,  // measure 38
00010000
00100000
00010000
00000000
,  // measure 39
00010000
01000000
00010000
00000000
,  // measure 40
00001000
00000010
00001000
00000000
,  // measure 41
00001000
00000100
00001000
00000000
,  // measure 42
00000001
00000100
00000001
00000000
,  // measure 43
00000001
00000010
00000001
00000000
,  // measure 44
00000001
00000100
00001000
00000000
,  // measure 45
00000100
00000010
00010000
00000000
,  // measure 46
00001000
00100000
00010000
00000000
,  // measure 47
01000000
00100000
10000000
00000000
,  // measure 48
10000000
01000000
00010000
00000000
,  // measure 49
01000000
00100000
00001000
00000000
,  // measure 50
00010000
00000100
00000010
00000001
,  // measure 51
00002002
00000000
00000000
00003003
,  // measure 52
00001000
00001000
00001000
00000000
,  // measure 53
00000001
00000001
00000001
00000000
,  // measure 54
00000100
00000100
00000100
00000000
,  // measure 55
00001000
00001000
00001000
00000000
,  // measure 56
00010000
00000000
00100000
00000000
,  // measure 57
10000000
00000000
00010000
00000000
,  // measure 58
10000000
01000000
00100000
00001000
,  // measure 59
00022000
00000000
00000000
00033000
,  // measure 60
00000100
00000001
00000100
00000001
,  // measure 61
00001000
00000100
00000000
00010100
,  // measure 62
00010000
00001000
00010000
00001000
,  // measure 63
01000000
00010000
00000000
10010000
,  // measure 64
00010000
10000000
00010000
10000000
,  // measure 65
01000000
00100000
00000000
00101000
,  // measure 66
00001000
00010000
00001000
00010000
,  // measure 67
00000100
00000010
00000000
00000110
,  // measure 68
00001000
00000100
00000010
00000001
,  // measure 69
00000010
00000100
00001000
00000000
,  // measure 70
00000010
00000100
00001000
00010000
,  // measure 71
00100000
00010000
00001000
00000000
,  // measure 72
00100000
00010000
00100000
01000000
,  // measure 73
10000000
01000000
00100000
00000000
,  // measure 74
00110000
00000000
00101000
00000000
,  // measure 75
00011000
00000000
00000000
00000000
,  // measure 76
00011000
00000000
00000000
00000000
;
