#TITLE:Lean On;
#SUBTITLE:;
#ARTIST:Major Lazer & DJ Snake feat. MO;
#TITLETRANSLIT:;
#SUBTITLETRANSLIT:;
#ARTISTTRANSLIT:;
#GENRE:;
#CREDIT:;
#BANNER:Lean On.png;
#BACKGROUND:Lean On-bg.png;
#LYRICSPATH:;
#CDTITLE:;
#MUSIC:Lean On.ogg;
#OFFSET:0.020513;
#SAMPLESTART:93.067413;
#SAMPLELENGTH:15.000000;
#SELECTABLE:YES;
#BPMS:0.000000=97.970001
;
#STOPS:
;
#BGCHANGES:0.000=Lean On.avi=1.000=1=0=0=StretchNoLoop==CrossFade==,
99999=-nosongbg-=1.000=0=0=0 // don't automatically add -songbackground-
;
#KEYSOUNDS:;
#ATTACKS:;

//---------------dance-single - ----------------
#NOTES:
     dance-single:
     :
     Beginner:
     1:
     0.077381,0.095833,0.000000,0.033333,0.000000,65.000000,65.000000,0.000000,4.000000,0.000000,0.000000,0.077381,0.095833,0.000000,0.033333,0.000000,65.000000,65.000000,0.000000,4.000000,0.000000,0.000000:
0000
0000
0000
0000
,
0000
0000
0000
0000
,
0000
0000
0000
0000
,
0000
0000
0000
0000
,
0000
1000
0000
0000
,
0000
0001
0000
0000
,
0000
1000
0000
0000
,
0000
0001
0000
0000
,
0100
0000
0000
0000
,
0010
0000
0000
0000
,
0000
1000
0000
0000
,
0000
0001
0000
0000
,
0001
0000
0001
0000
,
1000
0000
1000
0000
,
0001
0000
0001
0000
,
1000
0000
1000
0000
,
0010
0000
0010
0000
,
0010
0000
0010
0000
,
0100
0000
0100
0000
,
0200
0000
0000
0300
,
0100
0000
0000
0000
,
0001
0000
0000
0000
,
0100
0000
0000
0000
,
1000
0000
0000
0000
,
0010
0000
0000
0000
,
0001
0000
0000
0000
,
0010
0000
0000
0000
,
1000
0000
0000
0000
,
0002
0000
0000
0000
,
2003
0000
0000
0000
,
3000
0010
0000
0010
,
0000
0100
0000
0100
,
0000
0010
0000
0010
,
0000
0100
0000
0100
,
0100
0000
0001
0000
,
1000
0000
0010
0000
,
0100
0000
0001
0000
,
2000
0000
0000
0000
,
3100
0000
0100
0000
,
0100
0000
0100
0000
,
0010
0000
0010
0000
,
0010
0000
0010
0000
,
0001
0000
0001
0000
,
0001
0000
0001
0000
,
1000
0000
1000
0000
,
1000
0000
1000
0000
,
0010
0000
0000
0000
;

//---------------dance-single - ----------------
#NOTES:
     dance-single:
     :
     Easy:
     3:
     0.167857,0.172500,0.000000,0.075000,0.000000,141.000000,141.000000,0.000000,9.000000,0.000000,0.000000,0.167857,0.172500,0.000000,0.075000,0.000000,141.000000,141.000000,0.000000,9.000000,0.000000,0.000000:
0000
0000
0000
0000
,
0000
0000
0000
0000
,
0000
0000
0000
0000
,
0000
0000
0000
0000
,
0000
1000
0000
0001
,
0000
1000
0100
0010
,
0001
1000
0000
0001
,
0000
1000
0010
0100
,
0001
0000
0100
0000
,
0010
1000
0100
0000
,
0000
1000
0000
0001
,
0000
1000
0000
0001
,
0100
0100
0010
0010
,
0100
0100
0010
0010
,
1000
1000
0001
0001
,
1000
0001
1000
0001
,
0010
0000
0010
0100
,
1000
0000
1000
0010
,
0100
0000
0100
0001
,
0020
0000
0000
0000
,
0130
1000
0100
1000
,
0001
1000
0001
1000
,
0001
0100
0001
0100
,
0010
0100
0010
0100
,
0001
1000
0001
1000
,
0010
1000
0010
1000
,
0001
0010
0001
0010
,
0100
0010
0001
1000
,
0020
0000
0000
0000
,
0230
0000
0020
0300
,
1030
1000
0001
0001
,
1000
0100
0010
0001
,
0100
0000
0001
0000
,
1000
0100
0010
0001
,
1000
0010
0100
0010
,
1000
0100
0010
0100
,
1000
0001
0100
0010
,
0200
0000
0000
0000
,
0301
0100
1000
0100
,
0002
0010
0010
0013
,
0001
0010
1000
0010
,
0002
0100
0103
0001
,
1000
0100
0001
0100
,
2000
0100
0100
3100
,
0001
0010
1000
0010
,
0002
0100
0103
0001
,
0010
0000
0000
0000
;

//---------------dance-single - ----------------
#NOTES:
     dance-single:
     :
     Hard:
     8:
     0.459524,0.479167,0.250000,0.041667,0.379167,386.000000,356.000000,30.000000,5.000000,0.000000,0.000000,0.459524,0.479167,0.250000,0.041667,0.379167,386.000000,356.000000,30.000000,5.000000,0.000000,0.000000:
0000
0000
0000
0000
,
0000
0000
0000
0000
,
0000
0000
0000
0000
,
0000
0000
0000
0000
,
0000
0000
0000
0000
0001
0100
0001
0000
0000
0000
0000
0000
1000
0100
1000
0000
,
0000
0000
0001
0100
0001
1000
0100
1000
,
0010
0000
0000
0000
0100
0001
0100
0000
0000
0000
0000
1000
0010
0000
0010
0000
,
0100
0000
0000
0000
0001
0000
0010
0100
0000
0100
0010
0000
0001
0000
1000
0000
,
0010
0100
0000
0000
0001
0000
0100
0001
0010
0000
0100
0000
1000
0000
0000
0000
,
0002
0000
2003
0000
3010
0100
0010
0000
,
0100
0000
0000
0000
0001
1000
0001
0000
0010
0000
0000
0100
1000
0000
0001
0000
,
1000
0000
0010
0100
0010
0000
1000
0100
0000
0010
0001
0000
0100
0000
0001
0000
,
1000
0000
0010
1000
0100
0000
0010
0001
,
0100
0000
0010
0100
0010
0000
1000
0000
0100
0000
1000
0000
0001
0000
0100
0000
,
0001
0000
1000
0001
0010
0000
0001
1000
,
0010
0000
0100
0001
0100
0000
0010
1000
0000
0100
0000
1000
0001
0000
0100
0000
,
0101
0000
0010
0100
0110
0000
0010
1000
,
1010
0000
1000
0100
0010
0000
0001
0010
0000
0100
0000
1000
0001
0000
1000
0000
,
1001
0000
0001
0100
0101
0000
0100
0010
,
0110
0000
0010
0100
0010
0000
1000
0001
0000
1000
0000
0001
1000
0000
1000
0000
,
1010
0000
0000
0010
0100
0000
0001
0000
0101
0000
0000
0001
0010
0000
0100
0000
,
1100
0000
0000
0001
1000
0000
0001
0000
0101
0000
0010
0000
1000
0000
0001
0000
,
1001
0000
0000
1000
0100
0000
1000
0000
1010
0000
0000
0010
0100
0000
0001
0000
,
0101
0000
0001
0000
0010
0000
0100
0000
1000
0000
0001
1000
0001
0000
0100
0000
,
0010
0000
1000
0100
0010
0000
0001
0000
0100
0000
0001
0100
0010
0000
1000
0000
,
0010
0000
0100
0001
0010
0000
0100
0000
1000
0000
0100
1000
0010
0000
0100
0000
,
0010
0000
1000
0010
1000
0000
0001
0000
0100
0000
0001
0010
0001
0000
1000
0000
,
0001
0000
1000
0100
1000
0000
0001
0100
0000
0100
0000
0100
0010
0000
1000
0000
,
1002
0000
1000
0000
1000
0000
1003
0100
,
0010
0002
0000
2000
0000
0000
0003
0000
,
3010
0000
0010
0000
0100
0000
0100
0000
0001
0000
0001
0000
1000
0100
1000
0100
,
1000
0000
0001
0100
0001
0100
0001
0000
0010
0100
0010
0100
0010
0000
0001
0000
,
1000
0000
0010
1000
0010
0000
0100
0000
0001
0000
0000
0000
1000
0100
1000
0100
,
0010
0011
0000
0110
0000
1100
0000
1001
,
0001
0100
0010
0100
0001
0000
1000
0000
0001
1000
0001
0000
1000
0100
1000
0010
,
0100
0000
1000
0100
0000
1000
0100
0000
0010
0000
1000
0000
0001
1000
0001
1000
,
0010
0000
0100
0001
0100
0000
0010
0000
1000
0000
0100
0000
1000
0001
1000
0001
,
0010
0000
0000
0010
0000
0000
0110
0000
0000
1001
0000
0000
0110
0000
0000
0000
,
0101
0000
0000
0100
0001
0000
1000
0000
0100
0000
1000
0001
1000
0000
0010
0000
,
0100
0000
0001
1000
0010
0000
1000
0001
0000
0001
0000
0001
1000
0000
0100
0000
,
1100
0000
0000
1000
0010
0000
0100
0000
0001
0000
1000
0100
1000
0000
0001
0000
,
0100
0000
0001
0010
0001
1000
0001
0100
0000
0100
0000
0100
0010
0000
1000
0000
,
1100
0000
0000
1000
0001
0000
0100
0000
0101
0000
0000
0001
0010
0000
0100
0000
,
0110
0000
0010
0001
1000
0000
0001
0100
0000
0100
0000
0100
0010
0000
1000
0000
,
1100
0000
0000
1000
0010
0000
0100
0000
0110
0000
0000
0001
1000
0000
0010
0000
,
0110
0000
0010
1000
0001
1000
0100
0010
0000
0010
0000
0010
0100
0000
1000
0000
,
1001
0000
0000
0000
;

//---------------dance-single - ----------------
#NOTES:
     dance-single:
     :
     Medium:
     5:
     0.246429,0.287500,0.075000,0.041667,0.016667,207.000000,198.000000,9.000000,5.000000,0.000000,0.000000,0.246429,0.287500,0.075000,0.041667,0.016667,207.000000,198.000000,9.000000,5.000000,0.000000,0.000000:
0000
0000
0000
0000
,
0000
0000
0000
0000
,
0000
0000
0000
0000
,
0000
0000
0000
0000
,
0000
0000
0001
0001
0000
0000
1000
1000
,
0000
0000
0001
0000
1000
0010
1000
0010
,
0100
0000
0100
0100
0000
0000
0010
0010
,
0000
0000
1000
0000
0001
0010
0001
0010
,
0100
0000
1000
1000
,
0001
0000
0001
0000
0100
0010
0100
0000
,
0000
0000
0001
0001
0000
0000
1000
1000
,
0000
0000
0100
0000
1000
0001
1000
0001
,
0100
0010
1000
0001
,
0010
0000
0100
0000
1000
0100
1000
0000
,
0001
0001
1000
1000
,
0010
0000
0100
0000
0001
0100
0001
0000
,
1001
0000
0110
0000
,
0001
0000
1000
0000
0010
0100
0010
0100
,
0110
0000
1001
0000
,
0000
0000
1000
0000
1000
0000
0000
0001
0000
0001
0000
0000
1000
0000
0001
0000
,
0100
0000
0001
0000
1000
0100
1000
0000
,
0001
0000
1000
0000
0001
0100
0001
0000
,
0010
0000
0100
0000
1000
0010
1000
0000
,
0100
0000
0010
0000
0001
0010
0001
0000
,
1000
0000
0001
0000
1000
0010
0100
0000
,
0001
0000
1000
0000
0100
0010
0001
0000
,
0100
0000
0001
0000
1000
0010
0100
0000
,
0001
0100
0001
0000
1000
0000
0001
0000
,
2000
0001
0001
0001
,
3200
0000
0000
0320
0000
0000
0000
0000
,
0031
0000
1000
0000
0001
0100
0001
1000
,
0001
0000
1000
0000
0010
0010
1000
0000
,
0001
0000
1000
0100
1000
0000
0001
0000
,
0100
0010
0000
0010
0000
0010
0000
0010
,
1000
0100
1000
0000
0001
0100
0001
0000
,
1000
0100
0000
0001
0100
0000
1000
0000
,
0001
0000
0100
0001
1000
0000
0010
0000
,
0220
0000
0000
0330
,
0001
0000
0100
0000
0010
1000
0100
0000
,
1000
0000
0100
0000
0010
0001
0100
0000
,
0010
1000
0010
0000
0100
0001
0100
0000
,
0010
0000
1000
0000
0001
1000
0001
0000
,
1001
0000
0010
0000
1000
0100
0010
0000
,
1001
0000
0010
0000
0001
0100
0010
0000
,
1001
0000
0001
1000
0001
0000
0100
0000
,
0010
0000
0100
0000
0010
0000
0000
0100
0000
0100
0000
0000
0001
0000
1000
0000
,
1001
0000
0000
0000
;

//---------------dance-double - ----------------
#NOTES:
     dance-double:
     :
     Hard:
     8:
     0.405952,0.498333,0.191667,0.091667,0.416667,341.000000,318.000000,23.000000,11.000000,0.000000,0.000000,0.405952,0.498333,0.191667,0.091667,0.416667,341.000000,318.000000,23.000000,11.000000,0.000000,0.000000:
// measure 0
00000000
00000000
00000000
00000000
,  // measure 1
00000000
00000000
00000000
00000000
,  // measure 2
00000000
00000000
00000000
00000000
,  // measure 3
00000000
00000000
00000000
00000000
,  // measure 4
00000000
00000000
00000000
00010000
10000000
00010000
10000000
00000000
00000000
00000000
00000000
00100000
01000000
00100000
01000000
00000000
,  // measure 5
00000000
00000000
00000000
00000000
00010000
00000000
00001000
00010000
00000000
00000100
00000000
00000010
00000001
00000000
00000100
00000000
,  // measure 6
00000000
00000000
00000000
00000000
00000001
00001000
00000001
00000000
00000000
00000000
00000000
00000100
00000010
00000000
00001000
00000000
,  // measure 7
00000000
00000000
00000000
00000000
00010000
00000000
00100000
00010000
00000000
00000000
10000000
00000000
01000000
00000000
00010000
00000000
,  // measure 8
00001000
00000000
00000000
00000010
00000001
00000100
00000010
00000000
,  // measure 9
00002000
00000000
00023000
00000000
01030000
00100000
00100000
00000000
,  // measure 10
10000000
00000000
00000000
00000000
00010000
10000000
01000000
00000000
00000000
00000000
00000000
00010000
00001000
00000000
00000100
00000000
,  // measure 11
00000000
00000000
00000001
00000010
00000001
00000000
00001000
00000010
00000000
00000010
00000000
00000100
00000010
00000000
00001000
00000000
,  // measure 12
00011000
01020000
10000000
00100000
,  // measure 13
00031000
00000000
00000100
00000010
00000100
00000000
00000000
00001000
00000000
00000001
00000000
00000010
00000100
00000000
00001000
00000000
,  // measure 14
00001001
00002100
00000001
00000010
,  // measure 15
00013000
00000000
01000000
00100000
10000000
00100000
10000000
00010000
00000000
00010000
00000000
00100000
00010000
00000000
10000000
00000000
,  // measure 16
01000000
00000000
00000000
10000000
00100000
00000000
01000000
00000000
00010000
00000000
00000000
00001000
00000010
00000000
00000001
00000000
,  // measure 17
00000010
00000000
00001000
00000100
00000010
00000000
00000000
00000001
00000000
00000100
00000000
00000010
00010000
00000000
00001000
00000000
,  // measure 18
00000100
00000000
00000000
00000001
00000010
00000000
00000100
00000000
00001000
00000000
00000000
00010000
00100000
00000000
10000000
00000000
,  // measure 19
00100000
01000000
00200000
00000000
00000000
00000000
00000000
00000000
00000000
00000000
00000000
00000000
00300000
00000000
00000000
00000000
,  // measure 20
10010000
00000000
00000000
10000000
01000000
00000000
00010000
00000000
00000010
00000100
00000000
00000100
00000001
00000000
00001000
00000000
,  // measure 21
00010000
00000000
00000000
00100000
01000000
00000000
10000000
00000000
00100000
00010000
00000000
00000000
00001000
00000000
00000100
00000000
,  // measure 22
00001001
00000000
00000000
00000001
00000100
00000000
00001000
00000000
00100000
01000000
00000000
01000000
10000000
00000000
00010000
00000000
,  // measure 23
00001000
00000000
00000000
00000010
00000100
00000000
00000001
00000000
00000010
00001000
00000000
00000000
00010000
00000000
01000000
00000000
,  // measure 24
10010000
00000000
00000000
00010000
01000000
00000000
10000000
00000000
01000000
00010000
00000000
00001000
00000010
00000000
00000100
00000000
,  // measure 25
00000001
00000000
00000000
00000010
00001000
00000000
00000010
00000000
00000001
00000100
00000000
00000010
00001000
00000000
00010000
00000000
,  // measure 26
01000000
00000000
00000000
00100000
10000000
00000000
01000000
00000000
00100000
00010000
00000000
00001000
00000100
00000000
00000010
00000000
,  // measure 27
00000001
00001000
00000010
00001000
00000001
00000010
00000100
00001000
00000000
00010000
00000000
00100000
01000000
00000000
10000000
00000000
,  // measure 28
02000000
00000000
00000000
03000000
,  // measure 29
00100000
00000000
00000000
00110000
00000000
00000000
20020000
00000000
00000000
00000000
00000000
00000000
00000000
00000000
30030000
00000000
,  // measure 30
00100000
00000000
00010000
00000000
00100000
00000000
01000000
00000000
10000000
00000000
01000000
00000000
00100000
00010000
00100000
00010000
,  // measure 31
00100000
00000000
00001000
00010000
00001000
00010000
00001000
00000000
00010000
00000100
00010000
00000100
00010000
00000000
00000010
00000000
,  // measure 32
00000100
00000000
00000001
00001000
00000001
00000000
00000010
00000000
00000100
00000000
00000000
00000000
00001000
00000100
00000010
00000001
,  // measure 33
00000010
00000011
00000000
00000101
00000000
00001100
00000000
00011000
,  // measure 34
00100000
10000000
00100000
10000000
00100000
00000000
01000000
00000000
00010000
00100000
00010000
00000000
10000000
00100000
10000000
01000000
,  // measure 35
00100000
00000000
00010000
00100000
00010000
00001000
00010000
00000000
00001000
00000000
00000100
00000000
00000010
00000001
00000010
00000100
,  // measure 36
00000000
00000000
00001000
00000001
00001000
00000000
00000100
00000000
00000110
00000000
00000000
00000000
00000001
00000000
00000100
00001000
,  // measure 37
00010000
00000000
00000000
00011000
00000000
00000000
01001000
00000000
00000000
01010000
00000000
00000000
01100000
00000000
00000000
00000000
,  // measure 38
10010000
00120000
10000000
01000000
,  // measure 39
00031000
00000000
00000010
00000100
00000010
00000000
00000000
00001000
00000000
00000001
00000000
00000100
00000010
00000000
00001000
00000000
,  // measure 40
00001001
00002010
00000001
00000100
,  // measure 41
00013000
00000000
00100000
01000000
10000000
01000000
10000000
00010000
00000000
00010000
00000000
01000000
00010000
00000000
10000000
00000000
,  // measure 42
00100000
00000000
00000000
10000000
01000000
00000000
00100000
00000000
00010000
00000000
00000000
00001000
00000100
00000000
00000001
00000000
,  // measure 43
00000100
00000000
00001000
00000010
00000100
00000000
00000000
00000001
00000000
00000010
00000000
00000100
00010000
00000000
00001000
00000000
,  // measure 44
00000010
00000000
00000000
00000001
00000100
00000000
00000010
00000000
00001000
00000000
00000000
00010000
01000000
00000000
10000000
00000000
,  // measure 45
01000000
00100000
02000000
00000000
00000000
00000000
00000000
00000000
00000000
00000000
00000000
00000000
03000000
00000000
00000000
00000000
,  // measure 46
10010000
00000000
00000000
00000000
;

//---------------dance-double - ----------------
#NOTES:
     dance-double:
     :
     Medium:
     5:
     0.265476,0.306667,0.141667,0.275000,0.008333,223.000000,206.000000,17.000000,33.000000,0.000000,0.000000,0.265476,0.306667,0.141667,0.275000,0.008333,223.000000,206.000000,17.000000,33.000000,0.000000,0.000000:
00000000
00000000
00000000
00000000
,
00000000
00000000
00000000
00000000
,
00000000
00000000
00000000
00000000
,
00000000
00000000
00000000
00000000
,
00000000
00000000
00010000
00010000
00000000
00000000
00001000
00001000
,
00000000
00000000
00100000
00010000
10000000
01000000
00100000
00100000
,
00000000
00000000
00001000
00001000
00000000
00000000
00010000
00010000
,
00000000
00000000
00000010
00001000
00000001
00000100
00000010
00000010
,
00010000
00000000
00000000
00010000
00001000
00010000
00001000
00000000
,
02000000
00000000
03200000
00000000
10300000
01000000
01000000
00000000
,
00000000
00000000
00010000
00010000
00000000
00000000
00001000
00001000
,
00000000
00000000
01000000
00010000
10000000
00100000
01000000
01000000
,
00001000
00011000
01000000
00011000
,
00000100
00000010
00000001
00000000
00000001
00000100
00001000
00001000
,
00010000
00011000
00000100
00011000
,
01000000
00100000
10000000
01000000
00100000
00010000
01000000
01000000
,
00001000
00011000
00100000
00011000
,
00000010
00000100
00000001
00000000
00000001
00000010
00001000
00001000
,
00010000
00011000
00000010
00011000
,
00200000
00000000
00000000
00300000
,
00010000
20000000
00000000
32000000
00000000
03020000
00000000
00032000
,
00000000
00203000
00000000
02300000
00000000
03020000
00000000
00032000
,
00000000
00003200
00000000
00000302
00000000
00000023
00000000
00000230
,
00000000
00020300
00000000
00032000
00000000
00003020
00000000
00000032
,
00000000
00000203
00000000
00002300
00000000
00023000
00000000
02030000
,
00000000
23000000
00000000
30200000
00000000
00320000
00000000
00032000
,
00000000
02003000
00000000
03200000
00000000
20300000
00000000
30020000
,
00000000
00130000
01000000
10000000
01000000
00100000
01000000
00010000
,
00002000
00000000
00000000
00000000
,
00003000
00000000
00000000
00000000
,
00010000
00100000
00010000
00001000
00010000
01000000
00010000
00000000
,
00001000
00010000
00000100
00000000
00001000
00000010
00000100
00000000
,
00000001
00000010
00000001
00000100
00001000
00000000
00010000
01000000
,
10000000
00100000
00000000
00100000
00000000
00010000
00000000
00010000
,
00001000
00000010
00001000
00010000
00001000
00000100
00001000
00000000
,
00010000
00001000
01000000
00000000
00010000
00100000
01000000
00000000
,
10000000
00100000
10000000
01000000
00010000
00000000
00001000
00000100
,
00000001
00000000
00000000
00000001
00000000
00000000
00001000
00000000
00000000
00001000
00000000
00000000
00000100
00000000
00000000
00000000
,
00010000
00011000
00000100
00011000
,
01000000
00100000
10000000
00000000
10000000
01000000
00010000
00010000
,
00001000
00011000
01000000
00011000
,
00000100
00000010
00000001
00000100
00000010
00001000
00000100
00000100
,
00010000
00011000
00000010
00011000
,
00100000
01000000
10000000
00000000
10000000
00100000
00010000
00010000
,
00001000
00011000
00100000
00011000
,
00000020
00000000
00000000
00000030
,
00001001
00000000
00000000
00000000
;

//---------------dance-double - ----------------
#NOTES:
     dance-double:
     :
     Easy:
     3:
     0.172619,0.172500,0.000000,0.050000,0.000000,145.000000,145.000000,0.000000,6.000000,0.000000,0.000000,0.172619,0.172500,0.000000,0.050000,0.000000,145.000000,145.000000,0.000000,6.000000,0.000000,0.000000:
00000000
00000000
00000000
00000000
,
00000000
00000000
00000000
00000000
,
00000000
00000000
00000000
00000000
,
00000000
00000000
00000000
00000000
,
00000000
10000000
00000000
00010000
,
00000000
10000000
01000000
00100000
,
00010000
00001000
00000000
00000001
,
00000000
00001000
00000010
00000100
,
00000001
00000000
00000100
00000000
,
00000010
00001000
00010000
00000000
,
00000000
10000000
00000000
00010000
,
10000000
00100000
01000000
00010000
,
00100000
00100000
00001000
00001000
,
00010000
00010000
00000100
00000100
,
00001000
00001000
00000001
00000001
,
00001000
00000010
00010000
00010000
,
00000100
00000100
00010000
00010000
,
00001000
00001000
00100000
00100000
,
00010000
00010000
10000000
10000000
,
00020000
00000000
00000000
00030000
,
10000000
01000000
10000000
01000000
,
00010000
01000000
00010000
00001000
,
00010000
00001000
00000100
00001000
,
00000100
00000001
00000100
00000001
,
00000010
00000001
00000010
00001000
,
00000010
00001000
00010000
00001000
,
00010000
00100000
00010000
00100000
,
10000000
00010000
10000000
00010000
,
00200000
00000000
00000000
00000000
,
02300000
00000000
03200000
00000000
,
10300000
10000000
01000000
01000000
,
00010000
00010000
00001000
00001000
,
00000010
00000010
00000001
00000001
,
00001000
00000100
00010000
00001000
,
00100000
00100000
00010000
00010000
,
10000000
01000000
00100000
00010000
,
00001000
00000100
00000010
00000001
,
00002000
00000000
00000000
00000000
,
00003010
00000010
00010000
00010000
,
00010000
00010000
01000000
01000000
,
00010000
00010000
10000000
10000000
,
00010000
00100000
00001000
00001000
,
01000000
01000000
00001000
00001000
,
00010000
00010000
00000010
00000010
,
00001000
00001000
00000001
00000001
,
00002000
00000000
00000000
00003000
,
00000100
00000000
00000000
00000000
;
