#TITLE:LUV TO ME 2011;
#SUBTITLE:;
#ARTIST:tiger YAMATO;
#TITLETRANSLIT:;
#SUBTITLETRANSLIT:;
#ARTISTTRANSLIT:;
#CREDIT:;
#BANNER:LUV TO ME 2011.png;
#BACKGROUND:LUV TO ME 2011-bg.png;
#LYRICSPATH:;
#CDTITLE:;
#MUSIC:LUV TO ME 2011.ogg;
#OFFSET:-2.640;
#SAMPLESTART:52.260;
#SAMPLELENGTH:12.000;
#SELECTABLE:YES;
#BPMS:0.000=159.000;
#STOPS:;
#BGCHANGES:;

//---------------dance-single - ----------------
#NOTES:
     dance-single:
     :
     Hard:
     8:
     0.586,0.569,0.089,0.048,0.198:
0000
0000
0000
0000
,
0000
0000
0000
0000
,
0000
0000
0000
0000
,
0000
0000
0000
0000
,
0000
0001
1000
0100
1000
0001
0100
0010
,
0100
0001
0010
0001
0100
1000
0100
0001
,
0010
0100
1000
0010
0100
0001
0100
1000
,
0200
0000
0000
0010
,
0301
0000
0000
0000
0100
0000
0000
0000
0010
1000
0010
1000
0010
0000
0100
0000
,
0001
0000
0000
0000
0010
0000
0000
0000
0100
1000
0100
1000
0100
0000
0010
0000
,
0001
0010
0000
0100
0000
0000
1000
0000
0010
0100
0000
0010
0000
0000
1000
0000
,
0100
0010
0000
0010
0001
0000
0001
0100
0000
0100
0010
0000
1000
0000
0100
0000
,
0010
0001
0000
0100
0000
0100
0000
0010
1000
0000
0100
0000
1000
0000
0020
0000
,
0000
0000
0130
0110
,
0100
0001
0010
0100
1000
0001
1000
0100
,
0010
0001
0000
0100
0000
0010
0000
1000
,
1100
1000
0010
0100
0001
0010
0100
1000
,
0010
1000
0000
0100
0000
0010
0001
0010
,
0200
0000
0000
1300
0000
0000
0000
1000
,
0010
0000
0000
0000
0010
0000
0100
0010
0100
0000
0000
0001
0000
0000
0010
0000
,
0100
1000
0010
0100
0010
1000
0100
0010
,
0001
0100
0000
0101
0000
0100
0001
0100
,
0020
0000
0000
1030
0000
0000
0000
1000
,
0100
1000
0000
1000
0100
0000
0010
0001
0000
0001
0010
0000
0100
0000
0100
0000
,
0100
0000
0000
0000
1000
0000
0000
0010
0100
0000
0001
0000
0001
0000
0000
0000
,
0010
0100
1000
0100
0010
0100
1000
0000
,
0010
0100
0001
0100
0010
0100
0001
0100
,
0010
0000
0000
1000
0000
0000
0100
0000
0010
0000
0010
0000
0110
0000
0000
0000
,
0010
0001
0100
1000
0100
0001
0100
0000
,
0010
1000
0010
0001
0010
1000
1000
0000
,
0100
0010
0001
0100
0010
1000
0100
0010
,
0001
0000
0000
0100
0000
0000
0010
0000
2000
0000
0000
0000
0000
0000
0000
0000
,
3100
0001
0000
0000
0100
1000
0000
0000
0100
0001
0000
0000
0100
1000
0000
0000
,
1000
0100
1000
0010
0100
0001
0000
0001
,
0010
0100
1000
0010
1000
0100
0000
0010
,
0001
0100
1000
0100
0001
0010
0000
0100
,
1000
0010
1000
0100
0010
0010
0001
0001
,
0100
0010
1000
0100
0010
0001
0000
0001
,
0100
0001
0010
0100
1000
0010
0000
0010
,
1000
0100
0001
0100
1000
0010
0000
0100
,
0001
0100
0010
0100
1000
0100
0010
0000
,
1000
0100
0001
1000
0001
0100
0000
0100
,
1000
0010
0100
0010
1000
0100
0000
1000
,
0010
0001
1000
0001
0010
1000
0000
0100
,
0010
0100
1000
0100
0001
0001
0100
0000
,
0100
0010
0001
0010
0100
0010
0000
0001
,
0100
0010
0100
0001
0100
0010
0000
0010
,
1000
0010
0100
0001
0100
0010
0000
0010
,
1000
0100
0001
0100
1000
0010
0001
0010
,
1000
0000
0000
0000
0100
0000
0000
0000
0010
0001
0010
0001
0010
0000
0100
0000
,
1000
0000
0000
0000
0010
0000
0000
0000
1000
0010
1000
0010
1000
0000
0100
0000
,
0010
0001
0000
0100
0000
0000
0010
0000
1000
0100
0000
0010
0000
0000
0001
0000
,
1000
0100
0000
0100
0010
0000
0010
0001
0000
0001
1000
0000
0010
0000
1000
0000
,
0100
0010
0000
0001
0000
0001
0000
1000
0010
0000
1000
0000
0100
0000
2000
0000
,
0000
0000
3010
1010
,
1000
0010
1000
0100
0010
0001
1000
0001
,
0100
1000
0100
0010
0000
1001
0000
1010
,
1000
0010
0100
0001
0000
0010
0000
0010
,
0001
0100
0010
1000
0000
0100
0000
0100
,
1000
0010
0100
0001
0000
0001
0000
1001
,
0000
1000
0010
0100
0001
0010
0100
1000
,
0100
0010
0001
0100
0000
0100
0000
0001
,
0010
0100
1000
0010
0000
0010
0000
0100
,
0010
1000
0100
0010
0000
0010
0000
0100
,
1000
0100
0001
0100
0010
0001
0000
0000
,
0001
0100
1000
0100
0001
0100
1000
0100
,
0001
0010
0100
1000
0100
0010
0001
0100
,
0010
1000
0100
0001
0100
1000
0100
1100
,
0000
1000
0010
0100
0001
0001
0001
0000
,
0001
0010
1000
0010
0001
0010
1000
0010
,
0001
0100
0010
1000
0100
0010
0001
0100
,
1000
0100
0001
0100
0010
0110
0000
0101
,
0000
0001
0001
0100
0010
1000
0100
0000
,
1000
0100
1000
0000
0100
1000
0100
0000
1000
0100
1000
0000
0100
1000
0100
0000
,
1000
0001
0100
0000
0000
0000
0000
0000
;

//---------------dance-single - ----------------
#NOTES:
     dance-single:
     :
     Easy:
     5:
     0.347,0.389,0.282,0.097,0.000:
0000
0000
0000
0000
,
0000
0000
0000
0000
,
0000
0000
0000
0000
,
0000
0000
0000
0000
,
0000
1000
0001
1000
,
0010
0100
0001
0100
,
0010
1000
0010
1000
,
0020
0000
0000
1030
,
0010
1000
0100
1000
,
0010
1000
0100
1000
,
0010
0010
0100
0100
,
0001
0001
1000
1000
,
2100
3001
0102
1003
,
0002
0000
0100
0013
,
0100
1000
0010
0100
,
0002
0000
0000
0003
,
0100
0001
0010
0000
,
0100
1000
0010
0000
,
0100
0001
1000
0000
,
0100
1000
0001
1000
,
0100
0010
0001
0000
,
0100
0010
1000
0000
,
0100
0010
0001
0000
,
0100
0000
0000
0200
0000
0300
0000
0000
,
0010
0010
0010
0000
,
0100
0001
0010
0010
,
0100
1000
0010
1000
,
0100
0010
0010
0000
,
0011
0001
1000
0000
,
1010
1000
0001
0100
,
0110
0010
0110
0100
,
0010
1000
0002
0000
,
0013
0010
0110
0110
,
1001
1000
0100
0010
,
0011
0001
0100
0010
,
1010
1000
0100
0010
,
0100
1000
0010
0010
,
0110
0100
0001
0010
,
0110
0100
1000
0010
,
0110
0100
0001
0010
,
0100
1000
0200
0000
,
0310
0001
1000
0010
,
1010
1000
0001
0010
,
0011
0001
1000
0010
,
1010
1000
0001
0100
,
0101
0001
1000
0100
,
1100
1000
0001
0100
,
0101
0001
1000
0100
,
1100
1000
0100
0010
,
0001
0001
0100
0010
,
1000
1000
0100
0010
,
0001
0001
1000
1000
,
0100
0100
0010
0010
,
0012
0000
1000
0000
0100
0100
0103
0000
,
0100
0010
1000
1000
,
0001
0010
0100
1000
,
0020
0000
0030
0000
,
1000
0000
0000
0100
0000
0010
0000
0011
,
0000
0000
0000
0100
0000
0010
0000
1010
,
0000
0000
0000
0100
0000
0010
0000
0011
,
0000
0000
0100
0100
,
0010
0000
0000
1000
0000
0010
0000
0101
,
0000
0000
0000
0001
0000
0010
0000
1100
,
0000
0000
0000
1000
0000
0010
0000
0100
,
0100
0010
2000
3000
,
1100
1000
0010
0100
,
0110
0100
0001
0010
,
0011
0010
0100
0010
,
0110
0100
1000
0010
,
1010
1000
0100
0010
,
1001
0001
0100
0010
,
1001
1000
0100
0010
,
1001
1000
0001
0100
,
0020
0001
0100
1000
,
0100
0100
0130
0000
0000
0000
0000
0000
;

//---------------dance-single - ----------------
#NOTES:
     dance-single:
     :
     Challenge:
     10:
     0.730,0.809,0.444,0.048,0.488:
0000
0000
0000
0000
,
0000
0000
0000
0000
,
0000
0000
0000
0000
,
0000
0000
0000
0000
,
0000
0001
1000
0100
0010
0001
0010
1000
,
0010
0001
0100
0010
1000
0100
0001
0100
,
1000
0010
0100
0001
0010
1000
0010
0001
,
0200
0000
0000
0310
,
0110
0000
0000
0000
1001
0000
0000
0000
1000
0100
1000
0001
1000
0000
0010
0000
,
0100
0000
0000
0000
0101
0000
0000
0000
0001
0010
0001
1000
0001
0000
0010
0000
,
0100
1000
0000
0010
0100
0000
0001
0000
0010
0100
0000
1000
0010
0000
0100
0000
,
0001
0100
0000
0100
0010
0000
0010
1000
0000
1000
0010
0000
0100
0000
0001
0000
,
0010
0100
0000
1000
0000
0010
0000
0100
0001
0000
0011
0000
0011
0000
0001
0010
,
0000
0100
1000
0100
0010
0100
1000
0100
0010
0000
0000
0000
1001
0000
0000
0000
,
0001
0100
0010
1000
0001
0100
0010
1000
0100
0010
0001
1000
0100
0010
0001
1000
,
0200
0010
0000
0001
0000
0010
0000
0010
,
0310
0001
0100
0010
1000
0100
0010
0001
,
0101
0100
0010
0100
0001
0010
0100
1000
,
1010
0000
0000
1001
0000
0000
0000
0001
,
0101
0000
1000
0000
0100
0000
0010
0001
1000
0000
0000
1100
0000
0000
0110
0000
,
0011
0001
0100
1000
0100
0001
0010
0100
,
1100
1000
0010
0100
0000
0100
0001
0010
,
0011
0100
1000
0010
1000
0100
0010
0001
,
0010
0001
0010
0001
0010
0000
0100
1000
0100
1000
0100
0000
1000
0100
1000
0000
,
1010
0000
0000
0000
1001
0000
0000
1000
0100
0000
0010
0000
0110
0000
0000
0000
,
0010
0001
1000
0010
0000
1010
1001
0000
,
1000
0100
0001
0100
1000
0010
0001
0010
,
2000
0000
0000
3200
0000
0000
0320
0000
0000
0000
0001
0000
0031
0000
0000
0000
,
0001
0100
1000
0100
0001
0010
0010
0100
,
1000
0010
0100
0110
0000
0101
1001
0000
,
1100
1000
0010
0100
0101
0001
0010
0100
,
1100
0000
0000
1001
0000
0000
0101
0000
0001
0000
0100
0000
0010
0000
1000
0000
,
1010
0000
0000
0000
0010
1000
0000
0000
1000
0100
0000
0000
0010
0001
0010
0000
,
0001
0100
0010
1000
0100
0010
0000
0010
,
0100
1000
0010
0100
0001
0010
0000
0010
,
0001
0100
1000
0100
0001
0010
0000
0010
,
0100
1000
0010
0100
1000
0100
0010
0100
,
0001
0010
1000
0010
0001
0100
0000
0100
,
0010
1000
0100
0010
0100
1000
0000
1000
,
0010
0000
0100
0000
0001
0000
0010
0000
0100
0000
0010
0001
0000
0001
1000
0000
,
0010
1000
0100
0001
0100
1000
0010
1000
,
0001
0100
0010
1000
0100
1100
0000
1001
,
1000
0010
0100
0001
0010
0011
0000
0110
,
0100
1000
0010
0100
0001
0011
0000
1001
,
0001
1000
0010
0100
0001
0001
0001
0000
,
0011
0001
1000
0010
1000
0001
0000
0101
,
0001
1000
0100
1000
0001
1000
0000
1010
,
1000
0000
0100
0000
0010
0000
0100
0000
1000
0000
0010
0000
0000
0000
0100
0010
,
0100
0001
0010
0110
0000
1001
0000
1100
,
1001
0000
0000
0000
0011
0000
0000
0000
1000
0010
1000
0010
0100
0000
0001
0000
,
1000
0000
0000
0000
1010
0000
0000
0000
1000
0010
1000
0010
0100
0000
0010
0000
,
0100
0001
0000
0010
0100
0000
1000
0000
0010
0100
0000
0001
0010
0000
0100
0000
,
1000
0100
0000
0100
0010
0000
0010
0001
0000
0001
0100
0000
0010
0000
1000
0000
,
0100
1000
0000
0010
0000
0100
0000
0001
0010
0000
0110
0000
0110
0000
0010
0100
,
0000
1000
0001
1000
0100
1000
0001
1000
0100
0000
0000
0000
0110
0000
0000
0000
,
0001
0100
0010
1000
0001
0100
0010
1000
0010
0100
0001
1000
0010
0100
0001
1000
,
0020
0000
0100
0130
0000
0110
0000
1001
,
0000
0000
0001
0000
0100
0000
0010
1000
0000
0100
0000
0010
0000
0001
0000
0100
,
0010
0000
1000
0000
0100
0000
0010
0001
0000
0100
0000
0010
0000
1000
0000
0100
,
0010
0000
0001
0000
0100
0000
0010
1000
0000
0100
0000
0010
0000
0001
0000
0100
,
0010
0000
1000
0000
0010
0000
0001
0010
0000
1000
0000
0100
0000
0010
0000
0100
,
1000
0000
0010
0000
0100
0000
0001
0010
0000
0100
0000
1000
0000
0010
0000
0100
,
0001
0000
0010
0000
0100
0000
1000
0010
0000
0100
0000
0001
0000
0010
0000
0100
,
1000
0000
0010
0000
0100
0000
0001
0010
0000
0100
0000
1000
0000
0010
0000
0100
,
0001
1000
0001
1000
0001
1000
0001
1000
0100
0010
0100
0010
0100
0010
0100
0010
,
0100
1000
0100
0010
0001
0100
1000
0100
,
0001
0010
0100
1000
0010
0001
0010
1000
,
0100
0010
0001
0100
1000
0100
0001
0010
,
0100
1000
0010
0100
0001
0001
0001
0000
,
0101
0001
1000
0010
0100
0001
0010
0110
,
0100
1000
0010
0100
0001
0010
0100
1100
,
1000
0010
0100
0001
0010
0100
0010
0011
,
0001
0100
0010
1000
0000
1100
0000
1000
,
0001
0100
0001
0000
0100
0010
0100
0000
0010
1000
0010
0000
1000
0001
1000
0000
,
1001
0001
0100
0000
0000
0000
0000
0000
;

//---------------dance-single - ----------------
#NOTES:
     dance-single:
     :
     Medium:
     6:
     0.444,0.449,0.210,0.129,0.024:
0000
0000
0000
0000
,
0000
0000
0000
0000
,
0000
0000
0000
0000
,
0000
0000
0000
0000
,
0000
1000
0100
0000
0010
0001
0000
0100
,
0010
0000
1000
0001
0000
0100
0010
0000
,
1000
0001
0010
0100
,
0220
0000
0000
0330
,
0010
0000
0001
0000
0100
0010
0100
0010
,
1000
0000
0100
0000
0010
0001
0010
0001
,
2000
3100
0020
0031
,
0100
0000
0000
0010
0000
0000
1000
0000
0000
0100
0000
0000
0010
0000
0001
0000
,
0010
0100
0010
0100
1000
1000
1000
0020
,
0000
0000
0100
0130
,
0100
0001
0010
0100
,
1100
0000
1000
1000
0000
0100
0000
0010
,
0001
0000
0100
0000
0010
0000
1000
0100
,
0010
0000
0001
0000
0100
0000
0010
1000
,
0200
0000
0000
1300
0000
0000
0000
1000
,
0100
0000
0010
0001
0000
1001
0000
0000
,
0110
0000
0001
0000
1000
0100
0010
0000
,
0001
0000
0100
0000
0010
0100
0001
0010
,
0200
0000
0000
1300
0000
0000
0000
1000
,
0100
0000
0010
0001
0000
1000
0000
0000
,
0110
0010
1000
0100
,
0010
0001
0010
0001
0000
0010
0000
0000
,
0100
1000
0010
0100
,
0001
0000
0000
0010
0000
0000
0200
0000
0000
0000
0000
0000
0000
0000
0000
0000
,
1300
0000
0100
1000
0100
0000
0010
0000
,
0001
0000
0010
0100
0000
1000
0010
0000
,
2010
3001
0102
1003
,
1000
0000
0000
0010
0000
0000
0100
0000
0002
0000
0000
0000
0000
0000
0003
0000
,
0101
0000
0101
0000
1100
0000
1100
1000
,
0000
0100
0010
0001
0000
0100
0000
0010
,
0000
1000
0100
0010
0000
0001
0000
0100
,
0000
0010
1000
0100
0000
0010
0000
0001
,
0000
0100
0010
0100
0001
0100
0010
0000
,
0010
0000
1000
0100
0000
1000
0000
0010
,
0000
0100
0001
0010
0000
0001
0000
0100
,
0000
0010
1000
0100
0000
1000
0000
0010
,
0000
0100
0001
0100
0010
0020
0000
0030
,
0010
0000
1000
0010
0000
0100
0000
0001
,
0000
0100
0010
0100
0000
0010
0000
1000
,
0000
0001
1000
0001
0000
1000
0000
0100
,
0000
0010
0001
0010
0100
0100
0100
0000
,
1000
0000
0010
0100
0000
0001
0000
0010
,
0000
0100
0010
0001
0000
0100
0000
0010
,
0000
1000
0100
0010
0000
0100
0000
1000
,
0000
0010
0100
0001
0100
0010
0100
0000
,
0010
0000
1000
0000
0100
0010
0100
1000
,
0100
0000
0010
0000
0001
0010
0100
0010
,
0002
0103
0020
1030
,
1000
0000
0000
0010
0000
0000
0100
0000
0000
0001
0000
0000
0010
0000
0100
0000
,
1000
0000
1000
0000
0001
0001
0001
0200
,
0000
0000
0310
0110
,
1000
0000
0100
0000
1000
0010
1000
0001
,
1000
0100
0000
0010
0000
0001
0000
0100
,
0000
0010
0100
0010
0000
1000
0000
0100
,
0000
0010
0001
0010
0000
0100
0000
1000
,
0000
0010
0100
0010
0000
0100
0000
0001
,
0000
1100
1010
0101
,
0011
0000
0010
0001
0000
0100
0000
0010
,
0000
1000
0100
1000
0000
0010
0000
0100
,
0000
0001
0010
0001
0000
0100
0000
0010
,
0000
1000
0100
1000
0010
1000
0000
0000
,
1100
0000
1000
0100
0000
0010
0000
0011
,
0000
0001
0100
0010
0000
1000
0000
1100
,
0000
1000
0100
0010
0000
0001
0000
0101
,
0000
0001
0100
0010
1000
1000
1000
0000
,
1000
0001
0100
0010
0000
1000
0000
1001
,
0000
1000
0100
0010
0000
0001
0000
1001
,
0000
0001
0100
0010
0000
0100
0000
0110
,
0000
0100
0001
0010
0100
1000
0100
1000
,
0002
0100
1000
0013
,
0110
1001
0110
0000
0000
0000
0000
0000
;

//---------------dance-single - ----------------
#NOTES:
     dance-single:
     :
     Beginner:
     2:
     0.128,0.269,0.032,0.000,0.000:
0000
0000
0000
0000
,
0000
0000
0000
0000
,
0000
0000
0000
0000
,
0000
0000
0000
0000
,
0000
0000
0000
0000
,
0000
0000
0000
0000
,
0000
0000
0000
0000
,
0110
0000
0000
0000
,
1000
0000
0000
0000
,
0001
0000
0000
0000
,
1000
0000
1000
0000
,
0001
0000
0000
0000
,
0001
0000
0001
0000
,
0100
0000
0000
0000
,
0010
0000
0001
0000
,
0010
0000
0000
0000
,
1000
0000
0000
0000
,
0001
0000
0000
0000
,
1000
0000
0000
0000
,
0001
0000
0001
0000
,
0100
0000
0000
0000
,
0010
0000
0000
0000
,
0100
0000
0000
0000
,
0010
0000
0000
0000
,
0010
0010
0010
0000
,
1000
0000
0001
0000
,
0100
0100
0100
0000
,
0010
0000
0010
0000
,
1000
1000
1000
0000
,
0001
0000
1000
0000
,
0001
0001
0001
0000
,
1000
0000
0010
0000
,
1001
0000
0000
0000
,
1000
0000
0000
0000
,
0100
0000
0000
0000
,
0010
0000
0000
0000
,
0001
0000
0000
0000
,
0001
0000
0000
0000
,
0010
0000
0000
0000
,
0100
0000
0000
0000
,
1000
0000
0000
0000
,
0010
0000
0000
0000
,
0100
0000
0000
0000
,
0001
0000
0000
0000
,
1000
0000
1000
0000
,
1000
0000
0000
0000
,
0100
0000
0000
0000
,
0010
0000
0000
0000
,
0001
0000
1000
0000
,
1000
0000
0000
0000
,
0001
0000
0000
0000
,
0100
0000
0100
0000
,
0100
0000
0000
0000
,
0010
0000
0010
0000
,
0010
0000
1000
1000
,
1000
0000
1000
0000
,
0001
0000
0000
0000
,
1001
0000
0000
0000
,
1000
0000
0000
0000
,
0100
0000
0000
0000
,
0010
0000
0000
0000
,
0001
0000
0000
0000
,
0100
0000
0000
0000
,
0010
0000
0000
0000
,
1000
0000
1000
0000
,
0100
0000
0100
0000
,
0010
0000
0010
0000
,
0001
0000
0001
0000
,
0100
0000
0100
0000
,
0010
0010
0010
0000
,
1000
1000
1000
0000
,
0001
0001
0001
0000
,
0100
0100
0100
0000
,
0010
0010
0010
0010
,
1001
0000
0000
0000
;

//---------------dance-double - ----------------
#NOTES:
     dance-double:
     :
     Hard:
     8:
     0.598,0.599,0.339,0.073,0.186: // measure 1
00000000
00000000
00000000
00000000
,  // measure 2
00000000
00000000
00000000
00000000
,  // measure 3
00000000
00000000
00000000
00000000
,  // measure 4
00000000
00000000
00000000
00000000
,  // measure 5
00000000
00001000
00010000
01000000
10000000
01000000
00010000
00000010
,  // measure 6
00001000
00000100
00000001
00000100
00001000
00000001
00000100
00001000
,  // measure 7
00010000
00100000
01000000
00010000
01000000
10000000
01000000
00010000
,  // measure 8
00200000
00000000
00000000
00310000
,  // measure 9
00100000
00000000
00000000
00000000
10010000
00000000
00000000
00000000
00010000
01000000
00010000
01000000
00010000
00000000
00100000
00000000
,  // measure 10
00001000
00000000
00000000
00000000
00011000
00000000
00000000
00000000
00000100
00001000
00000100
00001000
00000100
00000000
00000010
00000000
,  // measure 11
00000001
00000100
00000000
00000010
00000000
00000000
00001000
00000000
00000100
00010000
00000000
00001000
00000000
00000000
00100000
00000000
,  // measure 12
00010000
01000000
00000000
01000000
00100000
00000000
00100000
10000000
00000000
10000000
01000000
00000000
00100000
00000000
00001000
00000000
,  // measure 13
00010000
00000100
00000000
00001000
00000000
00000100
00000000
00000010
00000100
00000000
00001000
00000000
00000100
00000000
00000010
00000000
,  // measure 14
00000001
00000100
00001000
00010000
02000000
00000000
23000000
00000000
,  // measure 15
30100000
01000000
00010000
01000000
10000000
01000000
00010000
01000000
,  // measure 16
00200000
00000000
01000000
01000000
00000000
01000000
00000000
01000000
,  // measure 17
01300000
00010000
00100000
10000000
00100000
00010000
01000000
00100000
,  // measure 18
10000000
00100000
01000000
00010000
00100000
00001000
00010000
00000100
,  // measure 19
00002000
00000000
00000000
00003001
00000000
00000000
00000000
00000001
,  // measure 20
00000100
00000000
00000000
00000000
00000001
00000000
00000100
00000001
00000100
00000000
00000000
00000010
00000000
00000000
00001000
00000000
,  // measure 21
00000100
00010000
00001000
00100000
00010000
01000000
00100000
10000000
,  // measure 22
01000000
00100000
00000000
00100000
00000000
01000000
10000000
00100000
,  // measure 23
02000000
00000000
00000000
03010000
00000000
00000000
00000000
00100000
,  // measure 24
00010000
00100000
00000000
00001000
00010000
00000000
00000100
00001000
00000000
00000001
00000100
00000000
00000010
00000000
00001000
00000000
,  // measure 25
00000100
00000000
00000000
00000000
00010000
00000000
00000000
00001000
00010000
00000000
00100000
00000000
00100000
00000000
00000000
00000000
,  // measure 26
10000000
01000000
00100000
00010000
00000000
00010000
00010000
00000000
,  // measure 27
01000000
10000000
01000000
00010000
01000000
10000000
01000000
00010000
,  // measure 28
00100000
00000000
00000000
00001000
00000000
00000000
00010000
00000000
00000100
00000000
00001000
00000000
00001000
00000000
00000000
00000000
,  // measure 29
00000010
00000001
00000010
00001000
00000010
00000001
00000001
00000000
,  // measure 30
00000010
00001000
00000100
00000001
00000100
00001000
00001000
00000000
,  // measure 31
00001010
00001000
00000100
00000000
00011000
00001000
00100000
00000000
,  // measure 32
01010000
00000000
00000000
01000000
00000000
00000000
00100000
00000000
20100000
00000000
00000000
00000000
31000000
00000000
00000000
00000000
,  // measure 33
10000000
01000000
00000000
00000000
01000000
00010000
00000000
00000000
00010000
00001000
00000000
00000000
00001000
00000100
00000000
00000000
,  // measure 34
00000001
00000100
00000010
00001000
00000000
00001001
00000000
00001010
,  // measure 35
00000000
00000010
00010000
00001000
00000000
00011000
00000000
00101000
,  // measure 36
00000000
00001000
01000000
00100000
00000000
01100000
00000000
10100000
,  // measure 37
00000000
10000000
01000000
00100000
01000000
10000000
01000000
00010000
,  // measure 38
00001000
00000100
00000001
00000010
00000000
00000011
00000000
00000101
,  // measure 39
00000000
00000001
00000100
00001000
00000000
00001100
00000000
00011000
,  // measure 40
00000000
00010000
00100000
10000000
00000000
10000000
00000000
01000000
,  // measure 41
10000000
01000000
00010000
00001000
00000100
00000001
00000000
00000000
,  // measure 42
00000011
00000001
00000100
00000010
00000000
00001000
00000000
00001100
,  // measure 43
00000000
00010000
00001000
00100000
00000000
00010000
00000000
01010000
,  // measure 44
00000000
01000000
00100000
10000000
00000000
01000000
00000000
01100000
,  // measure 45
00000000
00100000
00001000
00010000
00000100
00000100
00000100
00000000
,  // measure 46
00001100
00001000
00000010
00000100
00000000
00000001
00000000
00000011
,  // measure 47
00000000
00000010
00000100
00001000
00000000
00000100
00000000
00011000
,  // measure 48
00000000
00001000
00100000
00010000
00000000
01000000
00000000
01100000
,  // measure 49
00100000
10000000
01000000
00010000
00001000
00010000
01000000
00000000
,  // measure 50
11000000
00000000
00000000
00000000
01010000
00000000
00000000
00000000
10000000
01000000
10000000
01000000
10000000
00000000
00010000
00000000
,  // measure 51
01010000
00000000
00000000
00000000
00001100
00000000
00000000
00000000
00001000
00000100
00001000
00000100
00001000
00000000
00000100
00000000
,  // measure 52
00010000
00001000
00000000
00100000
00000000
00000000
00010000
00000000
01000000
00100000
00000000
10000000
00000000
00000000
01000000
00000000
,  // measure 53
00100000
00001000
00000000
00001000
00010000
00000000
00010000
00000100
00000000
00000100
00001000
00000000
00000010
00000000
00000100
00000000
,  // measure 54
00000001
00000010
00000000
00000100
00000000
00001000
00000000
00000100
00000010
00000000
00000010
00000000
00000010
00000000
00000001
00000100
,  // measure 55
00000000
00000010
00001000
00010000
01000000
00000000
01100000
00000000
,  // measure 56
10000000
01000000
00010000
00001000
00000100
00000001
00000100
00001000
,  // measure 57
00000200
00000010
00000000
00000001
00000000
00000010
00000000
00000301
,  // measure 58
00000010
00000100
00001000
00000100
00000000
00010100
00000000
00011000
,  // measure 59
00000000
00100000
00010000
01000000
00000000
01100000
00000000
10100000
,  // measure 60
00000000
10000000
00100000
00010000
00000000
00110000
00000000
00011000
,  // measure 61
00000000
00010000
00000100
00001000
00000010
00000100
00000001
00000010
,  // measure 62
00000100
00000010
00000001
00000100
00000000
00001100
00000000
00011000
,  // measure 63
00000000
00001000
00010000
01000000
00000000
11000000
00000000
10100000
,  // measure 64
00000000
00100000
00010000
00000100
00000000
00001100
00000000
00011000
,  // measure 65
00000000
00001000
01000000
00100000
10000000
00020000
00000000
00030000
,  // measure 66
10000000
01000000
00010000
01000000
10000000
01000000
00010000
01000000
,  // measure 67
00010000
00001000
00010000
01000000
00010000
00001000
00010000
01000000
,  // measure 68
00010000
00001000
00000100
00001000
00010000
00001000
00000100
00001000
,  // measure 69
00000100
00000001
00000100
00000001
00000010
00000100
00001000
00000000
,  // measure 70
00001000
00000010
00000001
00000010
00001000
00000010
00000001
00000010
,  // measure 71
00001000
00010000
00001000
00000010
00001000
00010000
00001000
00000010
,  // measure 72
00001000
00010000
00100000
00010000
00001000
00010000
00100000
10000000
,  // measure 73
01000000
00010000
01000000
10000000
00100000
00100000
00100000
00000000
,  // measure 74
10000000
01000000
00010000
00001000
00000100
00000001
00000100
00001000
,  // measure 75
00011000
00001000
00010000
00000000
00000000
00000000
00000000
00000000
;

//---------------dance-double - ----------------
#NOTES:
     dance-double:
     :
     Easy:
     5:
     0.360,0.419,0.371,0.089,0.000: // measure 1
00000000
00000000
00000000
00000000
,  // measure 2
00000000
00000000
00000000
00000000
,  // measure 3
00000000
00000000
00000000
00000000
,  // measure 4
00000000
00000000
00000000
00000000
,  // measure 5
00000000
00010000
00001000
00010000
,  // measure 6
01000000
10000000
00100000
00010000
,  // measure 7
00001000
00000010
00000001
00000100
,  // measure 8
00002000
00000000
00000000
00013000
,  // measure 9
00010000
00001000
00100000
00100000
,  // measure 10
00010000
01000000
00100000
00100000
,  // measure 11
10000000
01000000
00100000
00010000
,  // measure 12
00200000
00000000
00000000
00301000
,  // measure 13
00100000
00001000
00011000
00011000
,  // measure 14
00010000
00000100
00001000
00001000
,  // measure 15
00000010
00000100
00000001
00000010
,  // measure 16
00002000
00000000
00003000
00000000
,  // measure 17
00010000
00001000
00010000
00001000
,  // measure 18
00100000
00010000
00100000
00010000
,  // measure 19
01000000
00000000
00000000
01000000
00000000
00000000
00000000
00000000
,  // measure 20
01100000
00000000
00100000
00100000
,  // measure 21
10000000
00100000
10000000
00100000
,  // measure 22
01000000
00001000
01000000
00001000
,  // measure 23
00010000
00000000
00000000
00010000
00000000
00000000
00000000
00000000
,  // measure 24
00000100
00000000
00000000
00000100
00000000
00000000
00000100
00000000
,  // measure 25
00000010
00000010
00000001
00000001
,  // measure 26
00000100
00001000
00010000
01000000
,  // measure 27
10000000
10000000
00100000
00100000
,  // measure 28
02000000
03020000
00230000
00302000
,  // measure 29
00013000
00010000
00000100
00000100
,  // measure 30
00001000
00000010
00000100
00000001
,  // measure 31
00000010
00000010
00000100
00000100
,  // measure 32
00010000
00100000
00010000
00001000
,  // measure 33
00010000
00010000
00001000
00001000
,  // measure 34
00011000
00010000
00000100
00001000
,  // measure 35
00001010
00001000
00000001
00000010
,  // measure 36
00000011
00000001
00000100
00000010
,  // measure 37
00001010
00000010
00010000
00001000
,  // measure 38
00110000
00010000
01000000
00100000
,  // measure 39
10100000
10000000
01000000
00100000
,  // measure 40
00110000
00100000
00001000
00010000
,  // measure 41
00010100
00000100
00001000
00000000
,  // measure 42
00001100
00000010
00000001
00000100
,  // measure 43
00001010
00000010
00010000
00001000
,  // measure 44
01010000
00100000
10000000
01000000
,  // measure 45
00110000
00001000
00010000
00010000
,  // measure 46
00011000
00010000
00001000
00000100
,  // measure 47
00001100
00000100
00001000
00010000
,  // measure 48
00011000
00001000
00010000
01000000
,  // measure 49
01010000
01000000
00010000
00001000
,  // measure 50
00011000
00011000
00010000
00000100
,  // measure 51
00001100
00001100
00001000
00000010
,  // measure 52
00000100
00000100
00000010
00000010
,  // measure 53
00002002
00000000
00000000
00003003
,  // measure 54
00001001
00000000
00000000
00000000
00000100
00000100
00000100
00000000
,  // measure 55
00010000
00001000
00110000
10100000
,  // measure 56
10000000
00100000
00010000
00001000
,  // measure 57
00000200
00000000
00000000
00001300
,  // measure 58
00011000
00000000
00000000
00001000
00000000
00100000
00000000
00110000
,  // measure 59
00000000
00000000
00000000
01000000
00000000
00100000
00000000
10100000
,  // measure 60
00000000
00000000
00000000
01000000
00000000
00100000
00000000
10010000
,  // measure 61
00000000
00000000
00100000
00010000
,  // measure 62
00001000
00000000
00000000
00010000
00000000
00001000
00000000
00000110
,  // measure 63
00000000
00000000
00000000
00001000
00000000
00000100
00000000
00000011
,  // measure 64
00000000
00000000
00000000
00000001
00000000
00000100
00000000
00000110
,  // measure 65
00000000
00000000
00001000
00000000
00000200
00000000
00000000
00000300
,  // measure 66
00000110
00000010
00000001
00000100
,  // measure 67
00000110
00000010
00001000
00000100
,  // measure 68
00000110
00000001
00000100
00000010
,  // measure 69
00000110
00001000
00010000
01000000
,  // measure 70
01100000
01000000
00100000
00010000
,  // measure 71
01100000
00100000
10000000
01000000
,  // measure 72
01100000
00010000
01000000
00100000
,  // measure 73
10100000
10000000
01000000
00010000
,  // measure 74
00011000
00100100
00011000
01000010
,  // measure 75
00010000
00001000
00010000
00000000
00000000
00000000
00000000
00000000
;

//---------------dance-double - ----------------
#NOTES:
     dance-double:
     :
     Challenge:
     10:
     0.708,0.749,0.420,0.032,0.472: // measure 1
00000000
00000000
00000000
00000000
,  // measure 2
00000000
00000000
00000000
00000000
,  // measure 3
00000000
00000000
00000000
00000000
,  // measure 4
00000000
00000000
00000000
00000000
,  // measure 5
00000000
10000000
01000000
00010000
10000000
00100000
00010000
00001000
,  // measure 6
00000100
00000001
00000100
00001000
00000100
00000001
00000100
00001000
,  // measure 7
00010000
00100000
10000000
00100000
00010000
00001000
00000100
00010000
,  // measure 8
00022000
00000000
00033000
00011000
,  // measure 9
00110000
00000000
00000000
00000000
10100000
00000000
00000000
00000000
10000000
00100000
01000000
00100000
10000000
00000000
01000000
00000000
,  // measure 10
00100000
00000000
00000000
00000000
00101000
00000000
00000000
00000000
00010000
00000100
00000010
00000100
00001000
00000000
00000010
00000000
,  // measure 11
00000100
00000001
00000000
00000010
00000100
00000000
00001000
00000000
00000100
00010000
00000000
00001000
00100000
00000000
00010000
00000000
,  // measure 12
01000000
00100000
00000000
00100000
10000000
00000000
10000000
01000000
00000000
01000000
00010000
00000000
00001000
00000000
00010000
00000000
,  // measure 13
00000100
00001000
00000000
00001000
00000000
00001000
00000000
00001000
00000100
00000000
00000100
00000000
00000100
00000000
00000010
00000001
,  // measure 14
00000000
00000100
00000010
00001000
00000010
00000100
00000010
00001000
00000010
00000000
00000000
00000000
00000110
00000000
00000000
00000000
,  // measure 15
00000100
00001000
00000100
00001000
00010000
00001000
00010000
01000000
00010000
01000000
00010000
00000000
00001000
00000000
00010000
00000000
,  // measure 16
00001000
00001000
00010000
00001000
00000000
00010000
00000000
00001000
,  // measure 17
00011000
00010000
00000100
00001000
00000010
00000100
00000001
00000010
,  // measure 18
00000011
00000001
00000100
00000010
00010000
00001000
00100000
00010000
,  // measure 19
00210000
00000000
00000000
00310000
00000000
00000000
00000000
00010000
,  // measure 20
01000000
00000000
00000000
00000000
00100000
00000000
10000000
01000000
00100000
00000000
00000000
00001000
00000000
00000000
00010000
00000000
,  // measure 21
00011000
00010000
00000100
00001000
00000010
00000100
00000001
00000010
,  // measure 22
00000110
00000100
00001000
00000010
00000000
00000100
00010000
00100000
,  // measure 23
00110000
00010000
01000000
00100000
00000000
00100000
10000000
00010000
,  // measure 24
01000000
00010000
01000000
00010000
01000000
00000000
00001000
00010000
00001000
00010000
00001000
00000000
00000100
00001000
00000100
00001000
,  // measure 25
00000100
00000000
00000000
00000000
00000010
00000000
00000000
00000001
00000100
00000000
00000110
00000000
00000110
00000000
00000000
00000000
,  // measure 26
00000010
00001000
00010000
00001000
00000010
00010000
00010000
00000000
,  // measure 27
00010000
00100000
10000000
00100000
00010000
00100000
10000000
01000000
,  // measure 28
11000000
00000000
00000000
01010000
00000000
00000000
00021000
00000000
00000000
00000000
00001000
00000000
00031000
00000000
00000000
00000000
,  // measure 29
00010000
00000100
00000010
00000100
00010000
00001000
00001000
00000000
,  // measure 30
00100000
00001000
00100000
01000000
00100000
00010000
00010000
00000000
,  // measure 31
01010000
00010000
10000000
01000000
11000000
10000000
00100000
01000000
,  // measure 32
01100000
00000000
00000000
01010000
00000000
00000000
00011000
00000000
00011000
00000000
00010000
00000000
00001000
00000000
00000000
00000000
,  // measure 33
00010000
00000100
00000000
00000000
00001000
01000000
00000000
00000000
00010000
00000010
00000000
00000000
00001000
00100000
00001000
00000000
,  // measure 34
00010000
00000100
00001000
00000010
00000000
00000110
00000000
00000101
,  // measure 35
00000001
00000010
00000100
00001000
00000000
00001100
00000000
00010100
,  // measure 36
00000100
00010000
00001000
00100000
00000000
00110000
00000000
10010000
,  // measure 37
00000000
00010000
01000000
00100000
10000000
10000000
01000000
00100000
,  // measure 38
00001000
00100000
00010000
00100000
00000000
00110000
00000000
00101000
,  // measure 39
00100000
00001000
00010000
00000100
00000000
00001100
00000000
00001010
,  // measure 40
00001000
00000010
00000100
00000001
00000000
00000010
00000001
00000010
,  // measure 41
00001000
00010000
00100000
10000000
01000000
00010000
00001000
00000100
,  // measure 42
00001000
00100000
00010000
01000000
00000000
01010000
00000000
01000000
,  // measure 43
00100000
10000000
01000000
00100000
00000000
01100000
00000000
11000000
,  // measure 44
10000000
00100000
01000000
00010000
00000000
00110000
00000000
00100000
,  // measure 45
00001000
00000100
00001000
00010000
00000010
00000100
00000100
00000000
,  // measure 46
00000101
00000001
00000010
00000100
00000000
00001100
00000000
00010100
,  // measure 47
00010000
00001000
00100000
00010000
00000000
01010000
00000000
11000000
,  // measure 48
10000000
00100000
01000000
00001000
00000000
00010000
00000000
00011000
,  // measure 49
00000000
00000000
00001000
00000000
01000000
00000000
00010000
00000000
00100000
00000000
00100000
00000000
01000000
00000000
10000000
00100000
,  // measure 50
01000000
00000000
00000000
00000000
01100000
00000000
00000000
00000000
01000000
00010000
10000000
00010000
01000000
00000000
00010000
00000000
,  // measure 51
00100000
00000000
00000000
00000000
00001100
00000000
00000000
00000000
00001000
00000010
00001000
00000001
00001000
00000000
00000100
00000000
,  // measure 52
00000010
00000001
00000000
00000100
00000010
00000000
00001000
00000000
00000100
00010000
00000000
00001000
00100000
00000000
00001000
00000000
,  // measure 53
00000100
00000010
00000000
00000010
00001000
00000000
00001000
00000001
00000000
00000001
00000010
00000000
00000100
00000000
00001000
00000000
,  // measure 54
00000100
00010000
00000000
00001000
00000000
00100000
00000000
00010000
01000000
00000000
00100000
00000000
01000000
00000000
00010000
00100000
,  // measure 55
00000000
01000000
10000000
01000000
00100000
01000000
10000000
01000000
00100000
00000000
00000000
00000000
00010000
00000000
00000000
00000000
,  // measure 56
00100000
00001000
00100000
00001000
00010000
00001000
00010000
00000010
00010000
00000010
00010000
00001000
00010000
00001000
00010000
00000000
,  // measure 57
00001000
00000100
00000001
00000001
00000000
00000101
00000000
00001100
,  // measure 58
00000000
00000000
00000100
00000000
00010000
00000000
00001000
00100000
00000000
00010000
00000000
01000000
00000000
00100000
00000000
10000000
,  // measure 59
01000000
00000000
00100000
00000000
00001000
00000000
00010000
00000100
00000000
00001000
00000000
00000010
00000000
00000100
00000000
00000001
,  // measure 60
00000010
00000000
00000100
00000000
00010000
00000000
00001000
00100000
00000000
00010000
00000000
01000000
00000000
00100000
00000000
10000000
,  // measure 61
01000000
00000000
00100000
00000000
00010000
00000000
00100000
01000000
00000000
10000000
00000000
00100000
00000000
01000000
00000000
00010000
,  // measure 62
00100000
00000000
00001000
00000000
00010000
00000000
00000100
00001000
00000000
00000010
00000000
00000100
00000000
00000001
00000000
00000010
,  // measure 63
00000100
00000000
00000010
00000000
00000001
00000000
00000100
00000010
00000000
00001000
00000000
00000100
00000000
00010000
00000000
00001000
,  // measure 64
00100000
00000000
00010000
00000000
01000000
00000000
00100000
10000000
00000000
01000000
00000000
00100000
00000000
01000000
00000000
10000000
,  // measure 65
00100000
01000000
00010000
10000000
00100000
01000000
00010000
10000000
00100000
01000000
00010000
10000000
00100000
01000000
00010000
10000000
,  // measure 66
00100000
01000000
00010000
00100000
00001000
00010000
00001000
00000100
,  // measure 67
00000001
00000010
00001000
00000010
00000001
00000100
00001000
00010000
,  // measure 68
00100000
10000000
01000000
00100000
00001000
00000100
00000001
00000100
,  // measure 69
00001000
00010000
01000000
10000000
00100000
01000000
01000000
00000000
,  // measure 70
01100000
00100000
10000000
01000000
00010000
00001000
00000100
00001100
,  // measure 71
00001000
00000100
00001000
00010000
00001000
00000100
00000001
00000011
,  // measure 72
00000001
00000100
00001000
00010000
00001000
00100000
00010000
00110000
,  // measure 73
00010000
01000000
00100000
10000000
01000000
00100000
00001000
00000000
,  // measure 74
00010000
00001000
00010000
00000000
00001000
00010000
00001000
00000000
00010000
00001000
00010000
00000000
00001000
00010000
00001000
00000000
,  // measure 75
00011000
00010000
00001000
00000000
00000000
00000000
00000000
00000000
;

//---------------dance-double - ----------------
#NOTES:
     dance-double:
     :
     Medium:
     6:
     0.450,0.479,0.186,0.056,0.024: // measure 1
00000000
00000000
00000000
00000000
,  // measure 2
00000000
00000000
00000000
00000000
,  // measure 3
00000000
00000000
00000000
00000000
,  // measure 4
00000000
00000000
00000000
00000000
,  // measure 5
00000000
00001000
00010000
00000000
00000100
00001000
00000000
00000010
,  // measure 6
00000100
00000000
00000001
00000010
00000000
00000100
00010000
00000000
,  // measure 7
01000000
00100000
00001000
00000000
00000100
00001000
00010000
00000000
,  // measure 8
00012000
00000000
00000000
01003000
,  // measure 9
00001000
00000000
00100000
00000000
00010000
01000000
00010000
01000000
,  // measure 10
00100000
00000000
10000000
00000000
01000000
00100000
01000000
00100000
,  // measure 11
00010000
00110000
00000010
00001010
,  // measure 12
00001000
00000000
00000000
00000100
00000000
00000000
00001000
00000000
00000000
00010000
00000000
00000000
00001000
00000000
00000100
00000000
,  // measure 13
00000010
00000000
00000010
00000000
00000001
00000001
00000001
00000100
,  // measure 14
00000010
00001000
00001100
00011000
,  // measure 15
00100000
00010000
01000000
00000000
00100000
10000000
01000000
10000000
,  // measure 16
00200000
00000000
01000000
01000000
00000000
01000000
00000000
01000000
,  // measure 17
01300000
00000000
00010000
00000000
00100000
00000000
00001000
00010000
,  // measure 18
00000100
00000000
00001000
00000000
00000010
00000000
00000100
00000001
,  // measure 19
00000010
00000000
00000100
00000000
00010000
00000000
00001000
00100000
,  // measure 20
00010000
00000000
01000000
00100000
00000000
10000000
01000000
00000000
,  // measure 21
01100000
00000000
00100000
00001000
00010000
00000000
00000100
00000000
,  // measure 22
00001000
00000100
00000000
00000010
00000000
00000001
00000100
00000010
,  // measure 23
00000200
00000000
00000300
00001000
00000000
00000000
00001000
00010000
,  // measure 24
00001000
00000000
00100000
00010000
00000000
01000000
00000000
00000000
,  // measure 25
10100000
00000000
11000000
00000000
10000000
01000000
00010000
00000000
,  // measure 26
00001000
00000000
00000100
00000000
00000001
00000010
00000100
00000000
,  // measure 27
00010000
00000000
00001000
00000000
00010000
00001000
00010000
00000000
,  // measure 28
00001000
00000000
00000000
01000000
00000000
00000000
00200000
00000000
00000000
00000000
10000000
00000000
10300000
00000000
00000000
00000000
,  // measure 29
10000000
00000000
00100000
00000000
01000000
00010000
00010000
00000000
,  // measure 30
00100000
00000000
00001000
00000000
00010000
00000010
00000010
00000000
,  // measure 31
00002010
00003001
00000012
00001003
,  // measure 32
00000001
00000000
00000000
00000100
00000000
00000000
00001000
00000000
00020000
00000000
00000000
00000000
00000000
00000000
00030000
00000000
,  // measure 33
00011000
00011000
00100100
00100100
,  // measure 34
00010000
00001000
00010000
01000000
00000000
10000000
00000000
00100000
,  // measure 35
00000000
01000000
00010000
00100000
00000000
00001000
00000000
00010000
,  // measure 36
00000000
00000100
00001000
00000010
00000000
00000100
00000000
00000001
,  // measure 37
00000000
00000010
00000100
00001000
00000100
00000010
00000100
00001000
,  // measure 38
00000100
00000000
00000010
00000001
00000000
00000100
00000000
00000010
,  // measure 39
00000000
00010000
00001000
00010000
00000000
00100000
00000000
10000000
,  // measure 40
00000000
01000000
00100000
01000000
00000000
10000000
00000000
00100000
,  // measure 41
00000000
01000000
00010000
10000000
00100000
10000000
00000000
00000000
,  // measure 42
10010000
00000000
10000000
01000000
00000000
00100000
00000000
00001000
,  // measure 43
00000000
00010000
00000100
00001000
00000000
00000010
00000000
00000100
,  // measure 44
00000000
00000001
00000010
00000100
00000000
00000010
00000000
00000001
,  // measure 45
00000000
00000100
00001000
00010000
00001000
00000100
00001000
00000000
,  // measure 46
00011000
00000000
00001000
00100000
00000000
00010000
00000000
01000000
,  // measure 47
00000000
00100000
10000000
01000000
00000000
00100000
00000000
00010000
,  // measure 48
00000000
01000000
00100000
10000000
00000000
01000000
00000000
00011000
,  // measure 49
00000000
00010000
00000100
00001000
00000100
00000010
00000010
00000000
,  // measure 50
00000011
00000000
00001010
00000000
00001000
00000100
00001000
00000100
,  // measure 51
00000010
00000000
00000001
00000000
00000100
00000010
00000100
00000010
,  // measure 52
00001000
00001010
00100000
00110000
,  // measure 53
00100000
00000000
00000000
00001000
00000000
00000000
00000010
00000000
00000000
00001000
00000000
00000000
00010000
00000000
00100000
00000000
,  // measure 54
10000000
00000000
00000000
00000000
10000000
10000000
10000000
00000000
,  // measure 55
01000000
00100000
00001000
00011000
,  // measure 56
00010000
00000100
00001000
00000000
00001000
00000001
00000100
00000000
,  // measure 57
00000010
00000000
00001000
00000010
00000000
00010000
00000000
00001000
,  // measure 58
00100000
00000000
00010000
01000000
00000000
00100000
00000000
10000000
,  // measure 59
00000000
00000000
01000000
00100000
00000000
00001000
00000000
00010000
,  // measure 60
00000000
00000000
00000100
00001000
00000000
00000010
00000000
00000100
,  // measure 61
00000000
00000000
00000001
00000000
00000010
00000010
00000010
00000100
,  // measure 62
00000010
00000000
00000001
00000100
00000000
00000010
00000000
00010000
,  // measure 63
00000000
00000000
00001000
00010000
00000000
01000000
00000000
10000000
,  // measure 64
00000000
00000000
00100000
01000000
00000000
00001000
00000000
00010000
,  // measure 65
00000000
00000100
00001000
00000100
00000010
00000100
00000000
00000000
,  // measure 66
00000100
00000010
00000100
00000010
00000000
00000001
00000000
00000100
,  // measure 67
00000000
00001000
00010000
00001000
00000000
00100000
00000000
00010000
,  // measure 68
00000000
01000000
00100000
01000000
00000000
00100000
00000000
10000000
,  // measure 69
00000000
01000000
00100000
00010000
00100000
00100000
00100000
00000000
,  // measure 70
00001000
00010000
00001000
00010000
00000000
00000100
00000000
00001000
,  // measure 71
00000000
00000010
00000100
00000001
00000000
00000010
00000000
00000100
,  // measure 72
00000000
00010000
00001000
00100000
00000000
01000000
00000000
10000000
,  // measure 73
00000000
01000000
00100000
00010000
01000000
00100000
10000000
00000000
,  // measure 74
10000000
01000000
00010000
00001000
00000100
00000001
00000100
00001000
,  // measure 75
00011000
00010000
00001000
00000000
00000000
00000000
00000000
00000000
;
