#TITLE:Insomniac Skies;
#SUBTITLE:;
#ARTIST:Diodes;
#TITLETRANSLIT:;
#SUBTITLETRANSLIT:;
#ARTISTTRANSLIT:;
#CREDIT:;
#BANNER:Insomniac Skies.png;
#BACKGROUND:Insomniac Skies-bg.png;
#LYRICSPATH:;
#CDTITLE:;
#MUSIC:Insomniac Skies.ogg;
#OFFSET:-0.060;
#SAMPLESTART:43.640;
#SAMPLELENGTH:12.000;
#SELECTABLE:YES;
#BPMS:0.000=110.000,240.000=110.100;
#STOPS:;
#BGCHANGES:;

//---------------dance-single - ----------------
#NOTES:
     dance-single:
     :
     Hard:
     6:
     0.400,0.376,0.299,0.014,0.056: // measure 1
0000
0000
0000
0000
,  // measure 2
0000
0000
0000
0000
,  // measure 3
0000
0000
0000
0000
,  // measure 4
0000
0000
0000
0000
,  // measure 5
0010
0100
0010
0000
1001
0000
0110
0000
,  // measure 6
1000
0001
0100
0000
0101
0000
1100
0000
,  // measure 7
1000
0001
1000
0000
0110
0000
1001
0000
,  // measure 8
0010
0100
0010
0000
0101
0000
1100
0000
,  // measure 9
1001
0000
0000
0010
0010
0000
0000
1000
,  // measure 10
0010
1000
0010
0001
,  // measure 11
0010
0000
0001
0100
0010
0000
0001
0100
,  // measure 12
0010
0000
0001
0100
0010
0000
1010
0000
,  // measure 13
0101
0000
0010
0001
1000
0000
0010
0001
,  // measure 14
1000
0000
0010
0001
1000
0000
0010
0000
,  // measure 15
1000
0000
0001
0100
0010
0000
0001
0100
,  // measure 16
0010
0000
0001
0100
0010
0000
0110
0000
,  // measure 17
0010
0010
0010
0010
,  // measure 18
0010
0000
0100
0000
0010
0000
0100
0001
0000
1000
0000
0000
0000
0000
0100
0000
,  // measure 19
0101
0011
1010
1100
,  // measure 20
1000
0000
0100
0000
0010
0000
0100
1000
0000
0001
0000
0000
0000
0000
0000
0000
,  // measure 21
0101
1000
0001
0000
0100
0001
0010
0100
,  // measure 22
1000
0010
0100
0000
0001
1000
0100
1000
,  // measure 23
0010
0100
0001
0000
1000
0010
1000
0100
,  // measure 24
0001
0100
1000
0010
0100
0000
1001
0000
,  // measure 25
0101
1000
0001
0000
0010
0100
1000
0010
,  // measure 26
1000
0001
0100
0000
0001
1000
0100
1000
,  // measure 27
0001
1000
0100
0000
1000
0010
1000
0100
,  // measure 28
1000
0010
0100
0001
0010
0000
1001
0000
,  // measure 29
1100
0001
0100
0000
0100
1000
0010
0100
,  // measure 30
0001
0010
0100
0000
1000
0001
0100
0001
,  // measure 31
0010
0100
1000
0000
0001
0010
0001
0100
,  // measure 32
1000
0100
0001
0010
0100
1000
0000
0000
,  // measure 33
0101
1000
0001
0000
0010
0100
1000
0010
,  // measure 34
1000
0001
0100
0000
0001
1000
0100
1000
,  // measure 35
0001
1000
0100
0000
1000
0010
1000
0100
,  // measure 36
1000
0010
0100
0001
0010
0100
1000
0000
,  // measure 37
1001
0000
0100
0010
0100
0000
0001
1000
,  // measure 38
1001
0000
0100
1000
0100
0000
1000
0001
,  // measure 39
0100
1100
0110
1001
,  // measure 40
0101
0000
1000
0001
0000
0100
0001
1000
,  // measure 41
0001
0000
0100
0010
0100
0000
0001
1000
,  // measure 42
1001
0000
0100
1000
0100
0000
1000
0001
,  // measure 43
0100
1100
0110
1001
,  // measure 44
0100
0000
1000
0100
0000
0001
1100
0000
,  // measure 45
0001
0100
1000
0100
0001
0100
1000
0100
,  // measure 46
1000
0001
0100
0000
1000
0100
0001
1000
,  // measure 47
0100
1100
0001
0101
,  // measure 48
0010
0000
0010
0001
0000
1000
0001
1000
,  // measure 49
0010
0100
0001
0100
1000
0001
0100
1000
,  // measure 50
0010
0001
0100
0010
1000
0001
0100
0000
,  // measure 51
1001
0000
1001
0000
1000
0010
0100
0001
,  // measure 52
1000
0010
0100
0000
1001
0000
0110
0000
,  // measure 53
1001
0000
1000
0100
0001
0000
0001
0100
,  // measure 54
1000
0000
1000
0010
0001
0000
0001
0010
,  // measure 55
1000
0000
1000
0100
0010
0000
0010
0001
,  // measure 56
0101
0000
0100
0010
1000
0000
0100
0010
,  // measure 57
0001
0000
0001
0100
1000
0000
1000
0100
,  // measure 58
0001
0000
0001
0010
1000
0000
1000
0010
,  // measure 59
0001
0000
0001
0100
0010
0000
0010
1000
,  // measure 60
1100
0000
0100
1000
0010
0000
0010
0100
,  // measure 61
0001
0000
0000
0010
0000
0100
1000
0000
0000
0010
0000
0100
0001
0000
0001
0000
,  // measure 62
0001
0000
0000
0100
0000
0010
0100
0000
0000
0100
0000
0010
1000
0000
1000
0000
,  // measure 63
0001
0000
0000
0001
0000
0100
0001
0000
0000
0100
0000
0000
0001
1000
0001
0000
,  // measure 64
2002
0000
0000
0000
0000
3003
0000
0000
;

//---------------dance-single - ----------------
#NOTES:
     dance-single:
     :
     Challenge:
     7:
     0.489,0.486,0.292,0.076,0.271: // measure 1
0000
0000
0000
0000
,  // measure 2
0000
0000
0000
0000
,  // measure 3
0000
0000
0000
0000
,  // measure 4
0000
0000
0000
0000
,  // measure 5
1000
0000
0000
1000
0000
0000
1000
0000
0000
0000
1000
0000
0100
0000
0010
0000
,  // measure 6
0001
0000
0000
0001
0000
0000
0001
0000
0000
0000
0001
0000
0100
0000
0010
0000
,  // measure 7
1000
0000
0000
1000
0000
0000
1000
0000
0000
0000
0010
0000
0000
0000
1000
0000
,  // measure 8
0001
0000
0000
0001
0000
0000
0001
0000
0000
0000
0001
0000
0100
0000
0010
0000
,  // measure 9
2001
0000
0000
0100
0000
0000
3001
0000
0000
0000
1000
0000
0010
0000
0100
0000
,  // measure 10
1002
0000
0000
1000
0000
0000
1003
0000
0000
0000
0001
0000
0010
0000
0100
0000
,  // measure 11
2001
0000
0000
0010
0000
0000
3001
0000
0000
0000
1000
0000
0000
0000
0001
0000
,  // measure 12
1002
0000
0000
0100
0000
0000
0103
0000
0000
0000
0100
0000
0001
0000
1000
0000
,  // measure 13
2100
0000
0000
0001
0000
0000
3001
0000
0000
0000
0001
0000
0100
0000
0010
0000
,  // measure 14
2010
0000
0000
0001
0000
0000
3001
0000
0000
0000
0001
0000
0100
0000
0001
0000
,  // measure 15
1002
0000
0000
0010
0000
0000
0013
0000
0000
0000
0001
0000
0000
0000
1000
0000
,  // measure 16
2100
0000
0000
0010
0000
0000
3001
0000
0000
0000
0001
0000
0100
0000
0010
0000
,  // measure 17
1001
0001
1000
0010
1000
0100
1000
0001
,  // measure 18
1001
0000
0001
0000
1000
0000
0010
0100
0000
0100
0001
0000
1000
0000
0001
0000
,  // measure 19
0101
0001
0010
0001
0100
0001
0010
0001
,  // measure 20
0101
0000
0001
0000
0010
0000
0100
1000
0000
1000
0010
0000
1000
0000
0001
0000
,  // measure 21
0011
1000
0010
0000
1010
0001
0010
0000
,  // measure 22
0110
0001
0010
0100
1000
0010
0001
0000
,  // measure 23
0011
0001
0010
0000
1010
1000
0100
0000
,  // measure 24
0011
0001
0100
1000
0100
0001
0010
0000
,  // measure 25
0011
0001
1000
0000
1100
1000
0001
0000
,  // measure 26
0011
0100
0010
1000
0100
0010
0001
0000
,  // measure 27
0011
0100
1000
0000
1010
0100
0001
0000
,  // measure 28
0100
0001
0100
1000
0100
0010
1000
0000
,  // measure 29
1010
0001
0100
0000
0101
1000
0010
0000
,  // measure 30
1010
1000
0001
0100
0010
1000
0001
0000
,  // measure 31
1100
0001
0010
0000
0101
1000
0010
0000
,  // measure 32
0100
0001
0010
1000
0100
0001
0010
0000
,  // measure 33
0011
0001
0100
0000
0101
0100
0010
0000
,  // measure 34
0010
1000
0100
0010
0001
0100
1000
0000
,  // measure 35
1100
0100
0001
0000
0101
0001
0010
0000
,  // measure 36
0010
0100
1000
0010
0100
0001
1001
0000
,  // measure 37
0001
1000
0001
1000
0010
0100
0010
0100
,  // measure 38
0001
0010
0001
0010
0100
1000
0100
1000
,  // measure 39
0001
0100
0001
0010
0001
1000
0100
1000
,  // measure 40
0001
0000
1000
0000
0010
0000
1000
0000
0001
0000
0100
0000
0001
1000
0001
0000
,  // measure 41
0001
0100
1000
0100
0001
0100
1000
0100
,  // measure 42
0001
0010
1000
0010
0001
0010
1000
0010
,  // measure 43
0001
0100
0010
1000
0100
0010
0001
0100
,  // measure 44
0010
0000
1000
0000
0100
0000
0001
0000
0100
0000
1000
0000
0001
1000
0100
0000
,  // measure 45
1100
1000
0010
0100
0101
0001
0010
0100
,  // measure 46
1100
1000
0010
0100
0101
0001
0010
0100
,  // measure 47
1000
0100
0001
0100
1000
0100
0001
0100
,  // measure 48
1000
0000
0100
0000
0010
0000
0100
0000
1000
0000
0010
0000
1000
0001
0010
0000
,  // measure 49
0011
0001
1000
0010
1010
1000
0001
0010
,  // measure 50
0011
0001
1000
0010
1010
1000
0002
0003
,  // measure 51
0001
1000
0010
0100
0001
0010
1000
0010
,  // measure 52
0001
0000
0100
0000
1000
0000
0100
0001
0010
0000
0100
0000
2000
0000
0000
0000
,  // measure 53
3001
0000
0000
0010
0000
0100
1000
0000
0000
0001
0000
0010
0001
0010
0001
0000
,  // measure 54
0100
0000
0000
0010
0000
1000
0001
0000
0000
0100
0000
0010
1000
0010
1000
0000
,  // measure 55
0100
0000
0000
0010
0000
0001
1000
0000
0000
0100
0000
0010
0001
0010
0001
0000
,  // measure 56
0100
0000
0000
0010
0000
1000
0100
0000
0000
0010
0000
0001
1000
0001
0100
0000
,  // measure 57
0010
0000
0000
1000
0000
0100
0010
0000
0000
0010
0000
0100
1000
0100
1000
0000
,  // measure 58
0010
0000
0000
0100
0000
0001
1000
0000
0000
1000
0000
0100
1000
0100
1000
0000
,  // measure 59
0010
0000
0000
0001
0000
0010
1000
0000
0000
1000
0000
0100
0010
0100
0010
0000
,  // measure 60
0001
0000
0000
0100
0000
0010
1000
0000
0000
1000
0000
0100
0010
0001
1000
0000
,  // measure 61
1001
0000
0000
1000
0000
0001
1000
0000
0000
0001
0000
1000
0001
1000
0001
1000
,  // measure 62
0001
0000
0000
0100
0000
0010
0100
0000
0000
0010
0000
0100
0010
0100
0010
0100
,  // measure 63
0010
0000
0000
0100
0000
0010
0100
0000
0000
0100
0000
0100
0001
0010
0100
1000
,  // measure 64
0002
0000
0000
0000
0000
0003
0000
0000
;

//---------------dance-single - ----------------
#NOTES:
     dance-single:
     :
     Medium:
     5:
     0.278,0.331,0.167,0.014,0.063: // measure 1
0000
0000
0000
0000
,  // measure 2
0000
0000
0000
0000
,  // measure 3
0000
0000
0000
0000
,  // measure 4
0000
0000
0000
0000
,  // measure 5
0001
1000
0100
0000
,  // measure 6
1000
0001
0100
0000
,  // measure 7
0010
1000
0100
0000
,  // measure 8
0010
0001
0100
1000
,  // measure 9
0010
0000
0000
0000
,  // measure 10
1001
0000
0010
0001
,  // measure 11
1000
0010
0100
0001
,  // measure 12
0010
0100
1000
0001
,  // measure 13
0100
0000
0000
0000
,  // measure 14
1001
0000
0010
1000
,  // measure 15
0001
0010
0100
1000
,  // measure 16
0010
0100
0001
1000
,  // measure 17
0100
0000
0000
0000
,  // measure 18
1000
0000
0000
0000
,  // measure 19
0001
0000
0000
0000
,  // measure 20
0010
0010
0010
0010
,  // measure 21
0011
0000
0100
0000
1000
0001
0100
0000
,  // measure 22
1000
0101
0010
1000
,  // measure 23
0001
0010
0100
1000
,  // measure 24
0001
1000
0001
0000
0100
0000
0010
0000
,  // measure 25
1000
0101
1000
0010
,  // measure 26
1100
0001
0010
0100
,  // measure 27
1000
0010
0100
0001
,  // measure 28
1000
0001
1000
0000
0100
0000
0100
0000
,  // measure 29
1010
0000
0001
0000
0010
0001
0100
0000
,  // measure 30
0010
1100
0001
0100
,  // measure 31
1000
0010
0100
0001
,  // measure 32
1000
0001
1000
0000
0010
0000
0100
0000
,  // measure 33
0001
1100
0001
0010
,  // measure 34
0101
1000
0010
0100
,  // measure 35
0001
0010
0100
1000
,  // measure 36
0001
1000
0001
1000
0100
0000
0100
0000
,  // measure 37
1001
0000
0100
0000
0010
0100
0001
0000
,  // measure 38
1010
0000
0100
0000
0001
1000
0100
0000
,  // measure 39
0101
1100
0010
1000
,  // measure 40
0101
0000
0010
0000
1000
0001
0100
0000
,  // measure 41
1001
0000
0100
0000
0010
0100
0001
0000
,  // measure 42
1010
0000
0100
0000
1000
0001
0100
0000
,  // measure 43
0010
1000
0100
0001
,  // measure 44
0010
0000
0001
0000
1000
0100
0001
0000
,  // measure 45
0100
1000
0001
0000
0010
0100
1000
0000
,  // measure 46
0001
1000
0100
0000
1000
0100
0001
0000
,  // measure 47
0100
1100
0001
0101
,  // measure 48
0010
0000
0010
0000
0100
1000
0001
0000
,  // measure 49
1000
0010
0100
0000
0001
1000
0100
0000
,  // measure 50
0010
0001
0100
0010
1000
0000
0110
0000
,  // measure 51
1001
0100
1001
0010
,  // measure 52
1000
0100
0001
0010
,  // measure 53
1001
0000
0000
1000
0000
0000
1000
0000
0000
0000
1000
0000
0000
1000
0000
0000
,  // measure 54
0100
0000
0000
0100
0000
0000
0100
0000
0000
0000
0100
0000
0100
0000
0000
0000
,  // measure 55
0010
0000
0000
0010
0000
0000
0010
0000
0000
0000
0010
0000
0000
0010
0000
0000
,  // measure 56
0001
0000
0000
0001
0000
0000
0001
0000
0000
0000
0001
0000
1000
0000
0000
0000
,  // measure 57
0001
0000
0000
0100
0000
0000
0010
0000
0000
0000
1000
0000
0000
0100
0000
0000
,  // measure 58
0100
0000
0000
1000
0000
0000
0010
0000
0000
0000
0100
0000
0001
0000
1000
0000
,  // measure 59
0010
0000
0000
0010
0000
0000
0010
0000
0000
0000
1000
0000
0000
0001
0000
0000
,  // measure 60
0100
0000
0000
0100
0000
0000
0100
0000
0000
0000
0001
0000
1000
0000
0000
0000
,  // measure 61
0010
0000
0000
1000
0000
0000
0001
0000
0000
0100
0000
0000
0001
0000
1000
0000
,  // measure 62
0001
0000
0000
1000
0000
0000
0001
0000
0000
0010
0000
0000
0001
0000
1000
0000
,  // measure 63
0010
0000
0000
0100
0000
0000
0001
0000
0000
0010
0000
0000
0100
0000
1000
0000
,  // measure 64
2002
0000
0000
0000
0000
3003
0000
0000
;

//---------------dance-single - ----------------
#NOTES:
     dance-single:
     :
     Beginner:
     1:
     0.125,0.153,0.014,0.000,0.000:
0000
0000
0000
0000
,
0000
0000
0000
0000
,
0000
0000
0000
0000
,
0000
0000
0000
0000
,
0001
0000
0001
0000
,
0001
0000
0001
0000
,
1000
0000
1000
0000
,
1000
0000
1000
0000
,
1000
0000
0100
0000
,
0001
0000
0100
0000
,
1000
0000
0100
0000
,
0001
0000
0100
0100
,
0100
0000
0010
0000
,
1000
0000
0100
0000
,
0001
0000
1000
0000
,
0100
0000
1000
1000
,
1000
0000
1000
0000
,
1000
0000
0000
0000
,
0001
0000
0001
0000
,
0010
0000
0010
0000
,
0010
0000
0100
0000
,
0010
0000
0100
0000
,
0001
0000
1000
0000
,
0001
0000
1000
0000
,
0001
0000
0100
0000
,
1000
0000
0100
0000
,
0001
0000
0100
0000
,
1000
0000
0100
0000
,
0010
0010
0000
0000
,
0100
0100
0100
0000
,
1000
0000
1000
0000
,
0001
0001
0001
0000
,
0010
0000
0010
0000
,
0100
0000
0100
0000
,
0001
0000
0001
0000
,
1000
0000
1000
0000
,
0001
0000
0100
0000
,
0010
0000
1000
0000
,
0001
0000
0001
0000
,
1000
0000
1000
0000
,
1000
0000
0010
0000
,
0100
0000
0001
0000
,
1000
0000
0000
0000
,
1000
0000
0000
0000
,
0010
0000
0010
0000
,
0100
0000
0100
0000
,
0001
0000
0001
0000
,
1000
0000
1000
0000
,
0010
0000
0010
0000
,
1000
0000
1000
0000
,
0001
0001
0000
1000
,
1000
0000
1000
0000
,
1000
0000
0100
0000
,
0010
0000
0001
0000
,
0100
0100
0100
0000
,
0010
0010
0010
0000
,
1000
0000
0010
0000
,
0100
0000
0001
0000
,
0010
0010
0010
0000
,
0100
0100
0100
0000
,
1000
0000
0000
0000
,
0000
0000
0010
0010
,
0100
0000
0000
1001
,
1001
0000
0000
0000
;

//---------------dance-single - ----------------
#NOTES:
     dance-single:
     :
     Easy:
     3:
     0.206,0.287,0.076,0.028,0.000: // measure 1
0000
0000
0000
0000
,  // measure 2
0000
0000
0000
0000
,  // measure 3
0000
0000
0000
0000
,  // measure 4
0000
0000
0000
0000
,  // measure 5
0010
0010
1000
0000
,  // measure 6
0001
0001
0100
0000
,  // measure 7
1000
1000
0010
0000
,  // measure 8
0100
0100
0010
0000
,  // measure 9
1000
0000
0001
0000
,  // measure 10
0010
0000
0100
1000
,  // measure 11
0001
0001
0010
0000
,  // measure 12
0100
0000
1000
0001
,  // measure 13
0100
0100
0010
0000
,  // measure 14
1000
0000
0100
0010
,  // measure 15
0001
0001
1000
0000
,  // measure 16
0100
0000
1000
0100
,  // measure 17
1001
0000
0000
0000
,  // measure 18
1000
0000
0000
0000
,  // measure 19
0001
0000
0000
0000
,  // measure 20
0010
0000
0010
0000
,  // measure 21
0010
1000
0100
1000
,  // measure 22
0001
0001
0100
0010
,  // measure 23
1000
0100
1000
0001
,  // measure 24
0100
0000
1000
0100
,  // measure 25
0010
0001
0100
0001
,  // measure 26
1000
1000
0100
0010
,  // measure 27
0001
0100
0001
1000
,  // measure 28
0100
0000
0110
1001
,  // measure 29
0010
1000
0100
1000
,  // measure 30
0001
0001
0100
0010
,  // measure 31
1000
0100
1000
0001
,  // measure 32
0100
0000
1000
0100
,  // measure 33
0010
0001
0100
0001
,  // measure 34
1000
1000
0100
0010
,  // measure 35
0001
0100
0001
1000
,  // measure 36
0100
0000
1001
1001
,  // measure 37
0010
0000
1000
0100
,  // measure 38
0001
0000
1000
0000
,  // measure 39
0010
0000
0100
0001
,  // measure 40
0010
0010
0100
0100
,  // measure 41
1000
0000
0001
0100
,  // measure 42
1000
0000
0001
0000
,  // measure 43
0010
0000
0100
0100
,  // measure 44
0000
0000
1000
0100
,  // measure 45
0001
0100
1000
0100
,  // measure 46
0001
0100
1000
0100
,  // measure 47
0010
0000
0100
1000
,  // measure 48
0010
0010
0100
0100
,  // measure 49
0001
0100
1000
0100
,  // measure 50
0001
0010
1000
0010
,  // measure 51
0100
0000
0010
0010
,  // measure 52
1001
0110
1001
0110
,  // measure 53
1001
0100
0001
0100
,  // measure 54
1000
0010
0001
0010
,  // measure 55
1000
1000
1000
0100
,  // measure 56
0010
0010
0010
0001
,  // measure 57
0100
1000
0100
0001
,  // measure 58
0010
1000
0010
0001
,  // measure 59
0100
1000
0010
0001
,  // measure 60
0010
1000
0100
0001
,  // measure 61
0020
0000
0000
0130
,  // measure 62
0200
0000
1300
0010
,  // measure 63
0100
0000
0000
0100
0000
0000
0010
0000
,  // measure 64
2002
0000
0000
0000
0000
3003
0000
0000
;

//---------------dance-double - Copied from----------------
#NOTES:
     dance-double:
     Copied from:
     Easy:
     3:
     0.183,0.199,0.049,0.014,0.000:
00000000
00000000
00000000
00000000
,
00000000
00000000
00000000
00000000
,
00000000
00000000
00000000
00000000
,
00000000
00000000
00000000
00000000
,
00100000
10000000
01000000
00000000
,
00010000
00001000
00010000
00000000
,
00000010
00000100
00000010
00000000
,
00010000
00000010
00001000
00000000
,
00000010
00000000
00001000
00000000
,
00010000
00000000
00100000
01000000
,
10000000
10000000
00010000
00000000
,
01000000
00000000
00000000
00000000
,
00010000
00000000
00100000
00000000
,
10000000
00000000
00010000
00001000
,
00000010
00000010
00000001
00000000
,
00000100
00000000
00001000
00010000
,
00011000
00000000
00000000
00000000
,
00000100
00000000
00000000
00000000
,
01000000
00000000
00000000
00000000
,
00000010
00000000
00000010
00000000
,
00000010
00001000
00000100
00001000
,
00000001
00000001
00000100
00000000
,
00001000
00000000
00010000
00000000
,
00100000
00000000
10000000
01000000
,
00100000
00010000
01000000
00010000
,
10000000
10000000
01000000
00000000
,
00010000
00000000
00001000
00000000
,
00000010
00000000
00001001
00001001
,
00000010
00000001
00000100
00001000
,
00010000
00010000
00001000
00000000
,
00001000
00000000
00010000
00000000
,
00100000
10000000
01000000
10000000
,
00100000
10000000
01000000
00010000
,
00001000
00001000
00010000
00000000
,
00010000
00000000
00001000
00000000
,
00000010
00000001
00001001
00001001
,
00000100
00000000
00001000
00010000
,
00100000
00000000
10000000
00000000
,
00100000
00000000
01000000
00010000
,
00001000
00001000
00100000
00100000
,
01000000
00000000
00010000
00001000
,
00000010
00000000
00000001
00000000
,
00000100
00000000
00000001
00000001
,
00000000
00000000
00000000
00000000
,
00000010
00000001
00000100
00001000
,
00010000
00100000
10000000
01000000
,
00100000
00000000
00010000
10000000
,
01000000
01000000
00000000
00000000
,
00100000
10000000
01000000
00010000
,
00001000
00000010
00000001
00000100
,
00001000
00000000
00010000
00010000
,
00100000
10000000
01000000
00010000
,
10010000
00010000
10000000
01000000
,
00010000
00001000
00010000
00000000
,
00001000
00000010
00000001
00000100
,
00001000
00000100
00000001
00000010
,
00000010
00000100
00001000
00000100
,
00010000
00001000
00010000
00000000
,
00100000
10000000
01000000
00010000
,
01000000
10000000
00100000
00010000
,
00001000
00000000
00000000
00000100
00000000
00000000
00001000
00000000
,
00010000
00000000
00000000
01000000
00000000
00000000
00010000
00000000
,
00001000
00000000
00000000
00000010
00000000
00000000
00001000
00000000
,
00022000
00000000
00000000
00000000
00000000
00033000
00000000
00000000
;

//---------------dance-double - Copied from----------------
#NOTES:
     dance-double:
     Copied from:
     Medium:
     5:
     0.280,0.331,0.167,0.014,0.069:
00000000
00000000
00000000
00000000
,
00000000
00000000
00000000
00000000
,
00000000
00000000
00000000
00000000
,
00000000
00000000
00000000
00000000
,
00010000
10000000
01000000
00000000
,
00010000
00001000
00000100
00000000
,
00000001
00001000
00000100
00000000
,
00000010
00000001
00000100
00001000
,
00010000
00000000
00000000
00000000
,
01100000
00000000
00100000
10000000
,
01000000
00100000
01000000
00010000
,
00001000
00000100
00000001
00000010
,
00000100
00000000
00000000
00000000
,
00001001
00000000
00000010
00000001
,
00000100
00000010
00000100
00001000
,
00010000
01000000
10000000
00100000
,
01000000
00000000
00000000
00000000
,
10000000
00000000
00000000
00000000
,
00010000
00000000
00000000
00000000
,
00000010
00000010
00000010
00000010
,
00000011
00000000
00000100
00000000
00001000
00010000
00001000
00000000
,
00000100
00000101
00000010
00000001
,
00000100
00001000
00010000
01000000
,
10000000
00100000
10000000
00000000
00010000
00000000
01000000
00000000
,
00010000
11000000
00100000
00010000
,
01010000
00001000
00000100
00000001
,
00000010
00000100
00001000
00010000
,
10000000
01000000
10000000
00000000
00010000
00000000
00010000
00000000
,
10100000
00000000
01000000
00000000
00010000
00001000
00010000
00000000
,
01000000
11000000
00100000
10000000
,
01000000
00010000
00001000
00000100
,
00000001
00000010
00000001
00000000
00001000
00000000
00000100
00000000
,
00001000
00000101
00000010
00000001
,
00001100
00010000
01000000
10000000
,
00010000
00010000
01000000
00100000
,
10000000
01000000
10000000
00000000
00010000
00000000
00010000
00000000
,
00011000
00000000
00001000
00000000
00010000
01000000
10000000
00000000
,
11000000
00000000
00010000
00000000
00100000
00010000
01000000
00000000
,
01010000
00011000
00001000
00000100
,
00000101
00000000
00000010
00000000
00000001
00001000
00000001
00000000
,
00001100
00000000
00001000
00000000
00000010
00010000
00001000
00000000
,
00011000
00000000
00001000
00000000
00010000
01000000
10000000
00000000
,
00100000
10000000
01000000
00010000
,
00001000
00000000
00000100
00000000
00000001
00001000
00000100
00000000
,
00000010
00000001
00000100
00000000
00000001
00000010
00000100
00000000
,
00001000
00000010
00000100
00000000
00001000
00010000
01000000
00000000
,
10000000
10010000
00010000
01010000
,
00100000
00000000
00100000
00000000
00010000
10000000
01000000
00000000
,
00010000
00001000
00000100
00000000
00000001
00001000
00000100
00000000
,
00000010
00000001
00000100
00001000
00010000
00000000
00011000
00000000
,
01010000
00100000
10010000
01000000
,
00010000
00001000
00000100
00000001
,
00001001
00000000
00000000
00000001
00000000
00000000
00001000
00000000
00000000
00000100
00000000
00000000
00010000
00000000
00001000
00000000
,
00100000
00000000
00000000
00010000
00000000
00000000
10000000
00000000
00000000
00100000
00000000
00000000
01000000
00000000
00001000
00000000
,
00010000
00000000
00000000
00010000
00000000
00000000
00010000
00000000
00000000
00000000
00000010
00000000
00000000
00000100
00000000
00000000
,
00000001
00000000
00000000
00000001
00000000
00000000
00000001
00000000
00000000
00000000
00000100
00000000
00000000
00001000
00000000
00000000
,
00100000
00000000
00000000
00010000
00000000
00000000
01000000
00000000
00000000
00000000
00100000
00000000
10000000
00000000
01000000
00000000
,
00010000
00000000
00000000
00001000
00000000
00000000
00010000
00000000
00000000
00000000
00000100
00000000
00001000
00000000
00000100
00000000
,
00000010
00000000
00000000
00000010
00000000
00000000
00000010
00000000
00000000
00000000
00000010
00000000
00000000
00000001
00000000
00000000
,
00001000
00000000
00000000
00001000
00000000
00000000
00001000
00000000
00000000
00000000
00001000
00000000
00000000
00000100
00000000
00000000
,
00010000
00000000
00000000
00010000
00000000
00000000
00010000
00000000
00000000
00100000
00000000
00000000
10000000
00000000
01000000
00000000
,
00010000
00000000
00000000
00010000
00000000
00000000
00010000
00000000
00000000
00001000
00000000
00000000
00000010
00000000
00000001
00000000
,
00000100
00000000
00000000
00001000
00000000
00000000
00010000
00000000
00000000
00001000
00000000
00000000
00010000
00000000
00001000
00000000
,
00022000
00000000
00000000
00000000
00000000
00033000
00000000
00000000
;

//---------------dance-double - Copied from----------------
#NOTES:
     dance-double:
     Copied from:
     Hard:
     6:
     0.394,0.376,0.271,0.007,0.069:
00000000
00000000
00000000
00000000
,
00000000
00000000
00000000
00000000
,
00000000
00000000
00000000
00000000
,
00000000
00000000
00000000
00000000
,
10000000
00010000
10000000
00000000
01100000
00000000
00011000
00000000
,
00000010
00000100
00000010
00000000
00001100
00000000
00000101
00000000
,
00000001
00001000
00000001
00000000
00000101
00000000
00001100
00000000
,
00010000
00001000
00010000
00000000
00011000
00000000
01100000
00000000
,
10010000
00000000
00000000
01000000
01000000
00000000
00000000
00010000
,
00000100
00000001
00000100
00001000
,
00000010
00000000
00010000
00001000
01000000
00000000
00001000
00010000
,
00000100
00000000
00010000
00001000
01000000
00000000
00011000
00000000
,
00001100
00000000
00000100
00001000
00000001
00000000
00000100
00000001
,
00001000
00000000
00000100
00001000
00000001
00000000
00000100
00000000
,
00001000
00000000
00010000
00001000
01000000
00000000
00001000
00010000
,
00000100
00000000
00010000
00001000
01000000
00000000
01010000
00000000
,
01100000
00010000
00010000
00010000
,
00010000
00000000
10000000
00000000
00010000
00000000
10000000
01000000
00000000
00010000
00000000
00000000
00000000
00000000
00001000
00000000
,
00000100
00000000
00000001
00000000
00000010
00000000
00001000
00010000
,
00001000
00000000
00000100
00000000
00000001
00000000
00000100
00000000
00000001
00001000
00000000
00000100
00000000
00000000
00000000
00000000
,
00001100
00000001
00000100
00000000
00001000
00000100
00000001
00000100
,
00001000
00010000
00100000
00000000
10000000
01000000
00100000
10000000
,
00010000
01000000
00010000
00000000
00001000
00000100
00001000
00000000
,
00000100
00000001
00000010
00000001
00001000
00000000
00001001
00000000
,
00001100
00000001
00000100
00000000
00000010
00000100
00000001
00000100
,
00001000
00010000
00001000
00000000
00010000
00001000
00000100
00000001
,
00000010
00000001
00000010
00000000
00000100
00001000
00000100
00000000
,
00010000
01000000
10000000
00000000
01100000
00000000
10010000
00000000
,
11000000
00010000
01000000
00000000
00010000
01000000
10000000
01000000
,
00010000
00001000
00000010
00000000
00000001
00000100
00000010
00000001
,
00001000
00000100
00001000
00000000
00010000
01000000
00010000
00000000
,
01000000
10000000
00100000
10000000
00010000
00000000
10010000
00000000
,
01010000
10000000
01000000
00000000
00100000
01000000
10000000
01000000
,
00010000
00001000
00010000
00000000
00001000
00010000
01000000
10000000
,
00100000
10000000
00100000
00000000
10000000
00010000
10000000
00000000
,
01000000
00010000
00001000
00000100
00000001
00000000
00000110
00000000
,
00001001
00000000
00000100
00000010
00000100
00000000
00000001
00001000
,
00001001
00000000
00001000
00000001
00000100
00000000
00001000
00010000
,
01000000
11000000
10100000
10010000
,
11000000
00000000
10000000
00100000
00000000
10000000
01000000
00010000
,
00001000
00000000
00000100
00000001
00000100
00000000
00000001
00001000
,
00001001
00000000
00000010
00000001
00000010
00000000
00000100
00001000
,
00010000
11000000
10010000
01010000
,
00100000
00000000
10000000
01000000
00000000
10000000
01010000
00000000
,
00100000
10000000
01000000
10000000
00100000
00010000
00001000
00000100
,
00000001
00001000
00000001
00000000
00001000
00000100
00000001
00000100
,
00001000
00001100
00000001
00000101
,
00001000
00000000
00000010
00001000
00000000
00000001
00000100
00000000
,
00000010
00001000
00000100
00000001
00000100
00001000
00010000
00000000
,
10000000
01000000
00100000
00010000
01000000
00100000
01000000
00000000
,
10010000
00000000
00100000
10000000
01000000
00010000
00001000
00000100
,
00000010
00001001
00000110
00001001
,
00000001
00000100
00001000
00000100
00000001
00000100
00001000
00000100
,
00000001
00000010
00001000
00000010
00000001
00000010
00001000
00010000
,
00100000
00000000
00000000
00100000
00000000
00000000
00100000
00000000
00000000
00000000
00100000
00000000
00000000
01000000
00000000
00000000
,
00010000
00000000
00000000
00001000
00000000
00000000
00010000
00000000
00000000
00000000
00001000
00000000
00010000
00000000
00000000
00000000
,
01000000
10000000
01000000
00010000
01000000
10000000
01000000
00010000
,
00100000
10000000
00100000
00010000
00100000
10000000
00100000
00001000
,
00000010
00000000
00000000
00000010
00000000
00000000
00000010
00000000
00000000
00000000
00000010
00000000
00000000
00000001
00000000
00000000
,
00000100
00000000
00000000
00001000
00000000
00000000
00010000
00000000
00000000
00000000
00001000
00000000
00010000
00000000
00000000
00000000
,
00010000
00000000
00000000
01000000
00000000
10000000
00100000
00000000
00000000
00000000
01000000
00000000
00001000
00010000
00001000
00000000
,
00000100
00000000
00000000
00000001
00000000
00000010
00000100
00000000
00000000
00000000
00010000
00000000
00001000
00010000
00001000
00000000
,
00100000
00000000
00000000
00010000
00000000
10000000
00100000
00000000
00000000
00000000
00010000
00000000
00001000
00010000
00001000
00010000
,
00002000
00000000
00000000
00000000
00000000
00003000
00000000
00000000
;

//---------------dance-double - ----------------
#NOTES:
     dance-double:
     :
     Challenge:
     8:
     0.537,0.508,0.208,0.049,0.559:
00000000
00000000
00000000
00000000
,
00000000
00000000
00000000
00000000
,
00000000
00000000
00000000
00000000
,
00000000
00000000
00000000
00000000
,
10000000
00000000
00000000
00010000
00000000
00000000
01000000
00000000
00000000
00000000
00001000
00000000
00010000
00000000
00001000
00000000
,
00000001
00000000
00000000
00000001
00000000
00000000
00000001
00000000
00000000
00000000
00000001
00000000
00001000
00000000
00010000
00000000
,
00100000
00000000
00000000
00100000
00000000
00000000
00100000
00000000
00000000
00000000
10000000
00000000
00000000
00000000
01000000
00000000
,
00010000
00000000
00000000
00010000
00000000
00000000
00010000
00000000
00000000
00000000
00010000
00000000
00001000
00000000
00000100
00000000
,
00000001
00000100
00000001
00000100
00000010
00000000
00000100
00000000
00000001
00000000
00001000
00000000
00000100
00000000
00010000
00000000
,
00100000
01000000
00100000
01000000
00010000
00000000
00010000
00000000
01000000
00000000
00001000
00000000
00010000
00000000
00000010
00000000
,
00001000
00000010
00001000
00000010
00000100
00000000
00000001
00000000
00000010
00000000
00000100
00000000
00010000
00000000
00001000
00000000
,
00100000
00010000
00100000
00010000
01000000
00000000
10000000
00000000
01000000
00000000
00010000
00000000
00001000
00000000
00000100
00000000
,
00000001
00000100
00000001
00000100
00000010
00000000
00000100
00000000
00010000
00000000
00001000
00000000
00100000
00000000
00010000
00000000
,
10000000
00100000
10000000
00100000
00010000
00000000
00001000
00000000
00010000
00000000
00000100
00000000
00000010
00000000
00000001
00000000
,
00001000
00000001
00001000
00000001
00000010
00000000
00000100
00000000
00010000
00000000
00001000
00000000
00100000
00000000
00010000
00000000
,
10000000
00100000
10000000
00100000
00010000
00000000
00001000
00000000
00000100
00000000
00001000
00000000
00011000
00000000
00000000
00000000
,
01010000
01000000
10000000
00000000
01000000
10000000
00100000
00000000
,
10100000
00000000
00100000
00000000
00010000
00000000
00001000
00000100
00000000
00001000
00000100
00000000
00000010
00000000
00000001
00000000
,
00000011
00000100
00001000
00000000
00000100
00001000
00010000
00000000
,
00110000
00000000
00010000
00000000
10000000
00000000
00100000
01000000
00000000
00010000
01000000
00000000
01000000
00000000
00100000
00000000
,
10000000
00100000
00010000
00100000
10000000
01000000
00010000
01000000
,
10000000
01000000
00010000
00001000
00000100
00000001
00000011
00000000
,
00000010
00000001
00000010
00001000
00000010
00000001
00000100
00001000
,
00010000
00100000
10000000
00010000
10000000
01000000
01100000
00000000
,
01000000
00100000
00010000
00100000
01000000
10000000
01000000
00100000
,
00001000
00010000
00001000
00000100
00000001
00000010
00000110
00000000
,
00000100
00000010
00000001
00000100
00001000
00000100
00000001
00000100
,
00001000
00010000
00100000
10000000
00010000
10000000
11000000
00000000
,
10000000
01000000
10000000
00000000
00100000
00000000
01000000
00000000
00010000
01000000
00010000
00000000
00100000
00000000
00001000
00000000
,
00010000
00001000
00010000
00000000
00000100
00001000
00000100
00000000
00000010
00000001
00000010
00000000
00000011
00000000
00000000
00000000
,
00000010
00000001
00000010
00000000
00000001
00000000
00000100
00000000
00001000
00000100
00001000
00000000
00010000
00000000
00001000
00000000
,
00010000
00001000
00010000
00000000
00001000
00100000
00010000
00000000
10000000
00010000
10000000
00000000
10010000
00000000
00000000
00000000
,
10000000
00100000
01000000
00000000
00001000
00000000
00010000
00000000
00000100
00001000
00000010
00000000
00000100
00000000
00000001
00000000
,
00000010
00000100
00001000
00000000
00000100
00010000
00001000
00000000
00100000
00010000
10000000
00000000
10100000
00000000
00000000
00000000
,
01000000
00001000
00010000
00000000
00000100
00000000
00001000
00000000
00000010
00000100
00000001
00000000
00000010
00000000
00000100
00000000
,
00010000
00001000
00100000
00000000
00010000
10000000
00100000
00000000
01000000
00010000
10000000
00000000
10010000
00000000
00000000
00000000
,
10010000
00000000
00000000
10000000
00000000
00000000
10000000
00000000
00000000
00100000
00000000
00000000
00010000
00001000
00010000
00001000
,
00010000
00000000
00000000
00001000
00000000
00000000
00000010
00000000
00000000
00000001
00000000
00000000
00001000
00000001
00000100
00000000
,
00000110
00000000
00000000
00000010
00000000
00000000
00010000
00000000
00000000
00001000
00000000
00000000
00100000
00010000
00100000
00010000
,
00100000
00000000
00000000
10000000
00000000
00000000
00100000
00000000
00000000
00001000
00000000
00000000
00010000
00001000
00000100
00000000
,
00000101
00000000
00000000
00000001
00000000
00000000
00000100
00000000
00000000
00001000
00000000
00000000
00010000
00001000
00010000
00001000
,
00010000
00000000
00000000
00100000
00000000
00000000
10000000
00000000
00000000
01000000
00000000
00000000
00010000
00001000
00010000
00000000
,
00010100
00000000
00000000
00000010
00000000
00000000
00000001
00000000
00000000
00000100
00000000
00000000
00000010
00001000
00000010
00001000
,
00000100
00000000
00000000
00010000
00000000
00000000
00001000
00000000
00000000
00100000
00000000
00000000
00010000
10000000
00010000
00000000
,
10010000
00000000
00000000
10100000
00000000
00000000
01100000
00000000
00000000
00110000
00000000
00000000
00100000
00001000
00010000
00001000
,
00020000
00000000
00000000
00030100
00000000
00000000
00002000
00000000
00000000
00003010
00000000
00000000
00000100
00000001
00001000
00000000
,
00001001
00000000
00000000
00001100
00000000
00000000
00011000
00000000
00000000
00101000
00000000
00000000
00100000
00010000
10000000
00010000
,
00200000
00000000
00000000
01300000
00000000
00000000
20000000
00000000
00000000
30100000
00000000
00000000
00010000
00001000
00010000
00000000
,
00011000
00000000
00000000
00001100
00000000
00000000
00000110
00000000
00000000
00000011
00000000
00000000
00000100
00000010
00001000
00000010
,
00000200
00000000
00000000
00001300
00000000
00000000
00020000
00000000
00000000
00130000
00000000
00000000
10000000
01000000
00100000
01000000
,
10000000
00100000
00010000
00001000
00000010
00000001
00001000
00000000
,
00000001
00000000
00000100
00000000
00001000
00000000
00010000
01000000
10000000
00000000
00010000
00000000
10010000
00000000
00000000
00000000
,
10000000
00000000
00000000
01000000
00000000
01000000
10000000
00000000
00000000
00010000
00000000
00010000
10000000
00010000
01000000
00010000
,
00100000
00000000
00000000
00001000
00000000
00001000
00010000
00000000
00000000
00000010
00000000
00000010
00001000
00000001
00000100
00000001
,
00001000
00000000
00000000
00000100
00000000
00000100
00000010
00000000
00000000
00001000
00000000
00001000
00010000
00001000
00100000
00010000
,
10000000
00000000
00000000
00100000
00000000
00100000
10000000
00000000
00000000
01000000
00000000
01000000
00010000
00001000
00010000
00000100
,
00001000
00000000
00000000
00000010
00000000
00000010
00000100
00000000
00000000
00000001
00000000
00000001
00000010
00001000
00010000
00001000
,
00000010
00000000
00000000
00000001
00000000
00000001
00000100
00000000
00000000
00001000
00000000
00001000
00010000
01000000
10000000
01000000
,
00010000
00000000
00000000
00001000
00000000
00001000
00000010
00000000
00000000
00000001
00000000
00000001
00000100
00001000
00000100
00000001
,
00000100
00000000
00000000
00001000
00000000
00001000
00010000
00000000
00000000
00001000
00000000
00001000
00100000
00010000
10000000
00100000
,
01000000
00000000
00000000
00010000
00000000
00100000
01000000
00000000
00000000
10000000
00000000
00100000
01000000
00010000
01000000
00100000
,
01000000
00000000
00000000
00010000
00000000
00100000
00001000
00000000
00000000
00010000
00000000
00000100
00001000
00000100
00010000
00000100
,
00001000
00000000
00000000
00000010
00000000
00000100
00000001
00000000
00000000
00000010
00000000
00001000
00010000
00001000
00010000
00001000
,
00020000
00000000
00000000
00000000
00000000
00030000
00000000
00000000
;
