#TITLE:Illegal Function Call;
#SUBTITLE:;
#ARTIST:U1-ASAMi;
#TITLETRANSLIT:;
#SUBTITLETRANSLIT:;
#ARTISTTRANSLIT:;
#GENRE:;
#CREDIT:Silverhawke;
#BANNER:Illegal Function Call.png;
#BACKGROUND:Illegal Function Call-bg.png;
#LYRICSPATH:;
#CDTITLE:;
#MUSIC:Illegal Function Call.ogg;
#OFFSET:-0.028000;
#SAMPLESTART:3.705000;
#SAMPLELENGTH:15.000000;
#SELECTABLE:YES;
#BPMS:0.000000=260.000000
;
#DISPLAYBPM:*;
#STOPS:
;
#BGCHANGES:0.000=Illegal Function Call.avi=1.000=1=0=0=StretchNoLoop==CrossFade==,
99999=-nosongbg-=1.000=0=0=0 // don't automatically add -songbackground-
;
#KEYSOUNDS:;
#ATTACKS:;

//---------------dance-single - ----------------
#NOTES:
     dance-single:
     :
     Hard:
     10:
     0.810422,0.994661,0.476787,0.016162,0.060609,702.000000,643.000000,59.000000,2.000000,0.000000,0.000000,0.810422,0.994661,0.476787,0.016162,0.060609,702.000000,643.000000,59.000000,2.000000,0.000000,0.000000:
0000
0000
0000
0000
,
0000
0000
0000
0000
,
0000
0000
0000
0000
,
0000
0000
0000
0000
,
0010
0000
1000
0000
0100
0010
0100
0000
,
1000
0000
0010
0000
0100
0001
0100
0000
,
0001
0000
1000
0000
0100
0010
0100
0000
,
1000
0010
0001
0010
,
1000
0000
0001
0000
0010
0100
0010
0000
,
0001
0000
1000
0000
0010
0100
0010
0000
,
1000
0000
0100
0000
0010
0001
0010
0000
,
0100
1000
0010
0001
,
0010
0000
1000
0000
0001
0100
0001
0000
,
0010
0000
0100
0000
1000
0001
1000
0000
,
0100
0000
0010
0000
0001
0100
0001
0000
,
1000
0010
0001
0010
,
0100
0000
0001
0000
1000
0100
1000
0000
,
0010
0000
0100
0000
0001
1000
0001
0000
,
0010
0100
1000
0000
0010
0100
0001
0000
,
1000
0100
0010
0001
1000
0010
0100
0000
,
0001
0000
0001
0000
1000
0001
0000
0001
,
0000
0001
1000
0000
0010
0000
0100
0000
,
0001
0000
0001
0000
1000
0001
0000
0001
,
0000
0001
0100
0000
0010
0000
0100
0000
,
0001
0010
0100
1000
,
0001
0100
0010
1000
,
0001
0100
0001
0000
1000
0100
1000
0000
,
0001
0000
0001
0010
0000
0000
0100
1000
0100
1000
0000
0000
,
0001
0000
0001
0100
0000
0100
0010
0000
,
1000
0100
1000
0000
0001
0100
0001
0000
,
1000
0000
1000
0010
0000
0010
0100
0000
,
0001
0010
0001
0010
0100
1000
0100
0000
,
1000
0000
1000
0001
0000
0001
0100
0000
,
0010
1000
0010
0000
0100
0001
0100
0000
,
0001
0000
0001
0010
0000
0010
0100
0000
,
1000
0010
1000
0010
0100
0001
0100
0000
,
0001
0010
0100
0010
0001
0000
1000
0100
,
0010
0100
1000
0000
0001
0100
0010
0100
,
0001
0000
1000
0010
0100
0010
1000
0000
,
0001
0010
0001
0010
0100
1000
0001
0000
,
1000
0010
0100
0010
1000
0000
0001
0100
,
0010
0100
0001
0000
1000
0100
0010
0100
,
1000
0000
0001
0010
0100
0010
0001
0000
,
1000
0010
0100
0001
0010
0100
0010
0001
,
1000
0000
1000
0000
0100
0010
0000
0010
,
0000
0010
0100
0000
1000
0000
0010
0000
,
1000
0000
1000
0000
0100
0010
0000
0010
,
0000
0010
0100
0000
1000
0000
0100
0000
,
0001
0000
0000
0000
0001
0000
0010
0000
0000
0000
0000
0000
0100
0000
0000
1000
0000
0000
0000
0000
0000
0000
0000
0000
,
1000
1000
0010
0000
0100
0001
0100
0001
,
0100
0010
0100
0000
0001
1000
0001
0000
,
1000
0100
0010
0001
0010
0100
1000
0001
,
0100
0000
0000
0010
0000
1000
0000
0100
,
0000
0010
0000
0000
0100
0000
1000
0000
,
0001
0000
0000
0100
0000
0010
0000
0100
,
0000
0001
0000
0000
1000
0000
0100
0000
,
0010
0010
0010
0010
,
0010
0000
0010
0000
0010
0000
0010
0001
,
0100
0100
0100
0100
,
0100
0000
0100
0000
0100
0000
0100
0001
,
0010
0000
0010
0001
0000
0001
0100
0000
,
0100
0010
0000
0010
1000
0000
1000
0100
,
0000
0100
0010
0000
0010
0100
0000
0100
,
1000
0000
1000
0001
0000
0001
0100
0010
,
1000
0000
1000
0100
0000
0100
0010
0000
,
0010
0001
0000
0001
0100
0000
0100
0010
,
0000
0010
1000
0000
1000
0100
0000
0100
,
0010
0000
0000
0001
0000
0000
0010
0000
0100
0000
0000
1000
0000
0000
0100
0000
,
0010
0000
0010
0001
0000
0001
0100
0000
,
0100
0010
0000
0010
1000
0000
1000
0100
,
0000
0100
0010
0000
0010
0100
0000
0100
,
1000
0000
0000
0010
0000
0000
1000
0000
0001
0000
0000
0010
0000
0000
0001
0000
,
1000
0000
0010
1000
0000
0001
0010
0000
,
0100
1000
0000
0001
0100
0000
0010
0100
,
0000
0001
0010
0000
0100
1000
0000
0010
,
0100
0000
0000
0001
0000
0000
0010
0000
0100
0000
0000
1000
0000
0000
0010
0000
,
0100
0001
0100
0010
0100
0000
0001
0010
,
0001
1000
0001
0000
1000
0100
1000
0010
,
1000
0000
0010
0100
0010
1000
0010
0000
,
1000
0100
0010
0001
0010
0100
1000
0001
,
0100
0010
0100
1000
0100
0000
0001
0010
,
0001
1000
0001
0000
0010
1000
0010
0100
,
0010
0000
0001
1000
0001
0100
0001
0000
,
1000
0100
0010
0001
0100
0010
1000
0100
,
0010
0011
0001
0101
,
0100
0110
0010
1010
,
1000
1100
0100
0110
,
0010
0011
0001
1001
,
0220
0000
0000
0000
,
0000
0000
0000
0000
,
0000
0000
0000
0000
,
0000
0000
0000
0000
,
0000
0000
0000
0000
,
0000
0000
0000
0330
,
1000
1100
0001
0101
,
1000
0000
1010
0000
0001
0000
0011
0010
,
0100
1100
0010
0011
,
1000
0000
1010
0000
0001
0100
0110
0010
,
1000
0101
0010
1100
,
0001
0000
0110
0000
1000
0000
0011
0010
,
0100
1010
0100
0011
,
1000
0000
0101
0000
0010
1000
1100
0100
,
0010
0101
0010
1100
,
0001
0000
0110
0000
1000
0000
0110
0010
,
0001
1100
0010
0101
,
1000
0000
0110
0000
0001
0100
0110
0010
,
1000
0101
0010
1100
,
0010
0000
0101
0000
0010
0000
1100
0100
,
0010
0101
0010
1100
,
0001
0000
1010
0000
0100
0001
0011
0010
,
0100
1100
0000
1010
0000
0011
0000
0101
,
0000
1010
0000
1100
0000
0101
0000
0001
,
0010
0100
0000
1001
0000
1010
0000
0110
,
0000
0101
0000
1001
0000
0011
0000
0010
,
0100
1000
0100
0010
0001
0100
0010
0000
,
1000
0000
0110
0000
0001
0000
1100
0010
,
0001
1100
0010
0101
,
0010
0000
1001
0000
0100
0010
1000
0010
,
0100
0001
0100
0001
1000
0100
1000
0100
,
0010
0001
0010
0001
1000
0010
1000
0010
,
0100
0001
0100
0001
1000
0001
1000
0001
,
0010
0100
0010
0100
1000
0010
1000
0010
,
0100
0001
0010
0100
1000
0010
0100
0010
,
1000
0100
0010
0001
0100
0010
0100
0001
,
0010
0100
1000
0100
0001
0100
1000
0100
,
0010
0001
0100
1000
0100
0001
0100
0010
,
1000
0000
0000
0000
,
0000
0000
0000
0000
,
0000
0000
0000
0000
0000
0000
0000
0000
0000
0000
0000
0000
0000
0000
0100
0000
0000
0000
0000
0000
0000
0000
0000
0010
0000
0000
0000
0000
0000
0000
0000
0000
,
0000
0000
0000
0000
0000
0000
0000
0100
0000
0000
0000
0000
0000
1000
0000
0000
0000
0000
0001
0000
0000
0000
0000
0000
0000
0000
0000
0000
0000
0000
0000
0000
;

//---------------dance-single - ----------------
#NOTES:
     dance-single:
     :
     Medium:
     8:
     0.477941,0.570856,0.129298,0.024243,0.008081,414.000000,398.000000,16.000000,3.000000,0.000000,0.000000,0.477941,0.570856,0.129298,0.024243,0.008081,414.000000,398.000000,16.000000,3.000000,0.000000,0.000000:
0000
0000
0000
0000
,
0000
0000
0000
0000
,
0000
0000
0000
0000
,
0000
0000
0000
0000
,
1000
0100
0010
0001
,
0010
0100
1000
0001
,
1000
0100
0010
0001
,
1000
0000
0001
0000
0010
0100
0010
0000
,
0001
0100
0010
1000
,
0001
1000
0010
0100
,
0001
0100
0010
1000
,
0001
0000
1000
0000
0010
0100
0010
0000
,
1000
0010
0100
0001
,
1000
0001
0100
0010
,
1000
0010
0100
0001
,
1000
0000
0001
0000
0100
0010
0100
0000
,
0001
0010
0100
1000
,
0001
1000
0100
0010
,
0001
0010
0100
1000
,
0001
1000
0100
0010
,
0001
0000
0101
0000
,
1000
0100
0010
0000
,
0001
0000
1001
0000
,
1000
0010
0100
0000
,
0010
0000
1010
0000
,
0100
0001
1000
0000
,
0100
0000
0011
0000
,
1010
0000
1001
0000
,
1000
0000
0000
1000
0000
0000
1000
0000
,
0001
0000
0100
0000
,
0001
0000
0000
0001
0000
0000
0001
0000
,
1000
0000
0100
0000
,
1000
0000
0000
0010
0000
0000
0100
0000
,
0001
0000
1000
1000
,
0100
0000
0000
0010
0000
0000
0100
0000
,
1000
0000
0001
0100
,
0010
0100
0010
0000
,
0100
0010
0000
0100
,
0010
0000
0000
0100
0000
0010
0000
0000
,
0100
0010
1000
0000
,
0001
1000
0001
0000
,
1000
0001
0000
1000
,
0001
0000
0000
1000
0000
0001
0000
0000
,
1000
0001
0100
0000
,
0010
0000
1010
0000
,
1000
0001
0100
0000
,
0001
0000
0011
0000
,
0100
1000
0001
0000
,
1000
0000
0101
0000
,
0010
1000
0100
0000
,
0010
0001
0010
0001
,
1000
0001
1000
0001
,
0200
0000
0000
0000
,
0000
0000
0000
0000
,
0310
0000
0010
0000
,
0010
0000
0010
0000
,
0002
0100
0100
0103
,
0001
0100
0001
0100
,
0001
1000
0010
1000
,
0010
0100
0001
1000
,
0010
0000
0000
0010
0000
0000
0010
0000
,
0000
0010
0000
0000
0100
0000
0000
0100
,
0000
0000
0100
0000
0000
0100
0000
0000
,
0001
1000
1100
0000
,
1000
0000
0000
1000
0000
0000
0001
0000
,
0000
0001
0000
0000
0100
0000
0000
0100
,
0000
0000
0010
0000
0000
0010
0000
0000
,
1000
0001
0011
0000
,
0010
0000
0000
0010
0000
0000
0100
0000
,
0000
0100
0000
0000
1000
0000
0000
1000
,
0000
0000
0001
0000
0000
0001
0000
0000
,
0100
0010
1010
0000
,
0100
0000
0000
0100
0000
0000
0001
0000
,
0000
0001
0000
0000
1000
0000
0000
1000
,
0000
0000
0100
0000
0000
0100
0000
0000
,
0010
0001
1001
0000
,
1000
0000
0000
0010
0000
0000
1000
0000
,
0000
0001
0000
0000
0010
0000
0000
0001
,
0000
0000
1000
0000
0000
0100
0000
0000
,
1000
0001
0101
0000
,
0010
0000
0000
1000
0000
0000
0100
0000
,
0000
0010
0000
0000
0001
0000
0000
0100
,
0000
0000
0010
0000
0000
1000
0000
0000
,
0100
0010
0011
0000
,
1000
0100
1000
0100
,
0010
0001
0010
0011
,
0001
0100
0001
0100
,
0010
1000
0010
1000
,
0002
0000
0000
0000
,
0000
0000
0000
0000
,
0000
0000
0000
0000
,
0000
0000
0000
0000
,
0000
0000
0000
0000
,
0000
0000
0000
0003
,
1000
0100
0001
0100
,
1000
0100
0001
0100
,
1000
0010
0001
0010
,
1000
0000
0001
0000
1000
0000
0100
0010
,
0100
1000
0001
0100
,
1000
0100
0001
0100
,
1000
0100
0001
0010
,
1000
0000
0010
0000
0001
1000
0001
1000
,
0001
0010
1000
0010
,
0001
0010
1000
0010
,
0001
0100
1000
0100
,
0001
0000
0100
0000
0010
0000
1000
0001
,
1000
0100
0001
0100
,
1000
0100
0001
0100
,
1000
0010
0001
0010
,
1000
0000
0010
0000
0100
0001
0100
0001
,
0000
1000
0000
1000
0000
0001
0000
0001
,
0000
0100
0000
0100
0000
0010
0000
0010
,
0000
1000
0000
0001
0000
1000
0000
0001
,
0000
0100
0000
0010
0000
0100
0000
0001
,
1000
0000
0001
1000
0001
0000
1000
0000
,
0100
0010
0001
1000
,
0010
0100
0001
0010
,
0100
0000
1000
0000
0001
1000
0001
0000
,
1000
0100
0010
0001
,
0100
1000
0100
0001
,
1000
0100
0010
0001
,
1000
0010
0001
0010
,
1000
0100
0010
0001
,
0100
1000
0001
1000
,
0100
0001
0010
0100
,
0001
1000
0001
0100
,
1000
0000
0000
0000
,
0000
0001
0000
0000
0000
0000
0000
0000
0000
0000
0000
0000
0000
0000
0000
0000
,
0000
0000
0000
0000
0000
0000
0000
1000
0000
0000
0000
0000
0000
0000
0000
0000
;

//---------------dance-single - ----------------
#NOTES:
     dance-single:
     :
     Easy:
     7:
     0.333635,0.407289,0.032325,0.024243,0.000000,289.000000,285.000000,4.000000,3.000000,0.000000,0.000000,0.333635,0.407289,0.032325,0.024243,0.000000,289.000000,285.000000,4.000000,3.000000,0.000000,0.000000:
0000
0000
0000
0000
,
0000
0000
0000
0000
,
0000
0000
0000
0000
,
0000
0000
0000
0000
,
1000
0000
0001
0000
,
1000
0100
1000
0000
,
0001
0000
1000
0000
,
0001
0100
0001
0000
,
1000
0000
0001
0000
,
1000
0010
1000
0000
,
0001
0000
1000
0000
,
0001
0010
0001
0000
,
1000
0000
0001
0000
,
0100
0010
0100
0000
,
0001
0000
1000
0000
,
0100
0010
0100
0000
,
1000
0000
0010
0000
,
0100
0001
0100
0000
,
0001
0000
0010
0000
,
0100
1000
0100
0000
,
0010
0000
0001
0000
,
0100
0000
0010
0000
,
1000
0000
0100
0000
,
0001
0000
0010
0000
,
1000
0000
0100
0000
,
0010
0000
0001
0000
,
0100
0000
1000
0000
,
0010
0000
0001
0000
,
1000
0000
1000
0000
,
0001
0100
0001
0100
,
0001
0000
0001
0000
,
1000
0100
1000
0100
,
1000
0000
1000
0000
,
0010
0100
0010
0100
,
0010
0000
0010
0000
,
1000
0001
1000
0001
,
0100
0000
0100
0000
,
0010
1000
0100
0000
,
0010
0001
0100
0000
,
0010
0000
0100
0000
,
0001
0000
1000
0000
,
0100
1000
0010
0000
,
0100
0001
0010
0000
,
0100
0000
1000
0000
,
0001
0000
0100
0000
,
0010
0000
1000
0000
,
0100
0000
0001
0000
,
0010
0000
1000
0000
,
0001
0000
0100
0000
,
1000
0000
0010
0000
,
0001
0000
1000
0000
,
0100
0000
0010
0000
,
0002
0000
0100
0000
,
0000
0000
0100
0000
,
0000
0000
0100
0000
,
0000
0000
0100
0000
,
2003
0000
0100
0000
,
0100
0000
0100
0000
,
0100
0000
0100
0000
,
0100
0000
0100
0000
,
3100
0000
1000
0000
,
0001
1000
0100
0000
,
0010
0000
0001
0000
,
0100
0010
1000
0000
,
0001
0000
1000
0000
,
0010
0100
0001
0000
,
0010
0000
0100
0000
,
1000
0001
0100
0000
,
0010
0000
1000
0000
,
0001
0010
0100
0000
,
1000
0000
0010
0000
,
0100
0001
1000
0000
,
0010
0000
1000
0000
,
0001
0100
0010
0000
,
0100
0000
0001
0000
,
0010
0100
1000
0000
,
0001
0000
0100
0000
,
0010
1000
0001
0000
,
0100
0000
0001
0000
,
0010
0100
1000
0000
,
0010
0000
0100
0000
,
0001
1000
0100
0000
,
1000
0000
0010
0000
,
0100
0001
0010
0000
,
1000
0100
0001
0000
,
1000
0100
0001
0000
,
0001
0100
1000
0000
,
0001
0100
1000
0000
,
0002
0000
0000
0000
,
0000
0000
0000
0000
,
0000
0000
0000
0000
,
0000
0000
0000
0000
,
0000
0000
0000
0000
,
0000
0000
0000
0003
,
1000
0000
0100
0000
,
1000
0000
0100
0000
,
0010
0000
0001
0000
,
0010
0001
0100
0000
,
0001
0000
0100
0000
,
0010
0000
1000
0000
,
0010
0000
1000
0000
,
0100
0010
0001
0000
,
1000
0000
0010
0000
,
0100
0000
0001
0000
,
0010
0000
0100
0000
,
1000
0001
1000
0000
,
0010
0000
0100
0000
,
0001
0000
0010
0000
,
0100
0000
1000
0000
,
0001
0100
0010
0100
,
0000
0001
0000
0101
,
0000
1000
0000
1100
,
0000
0001
0000
0011
,
0000
1000
0000
1010
,
0000
0001
1000
0000
,
0001
0000
0010
0000
,
0100
1000
0001
0000
,
0100
0010
0100
0010
,
1000
0001
0100
0000
,
0001
1000
0100
0000
,
0010
0001
0100
0000
,
0010
1000
0001
0000
,
0100
0010
1000
0001
,
0100
0010
1000
0000
,
0100
0010
0001
0100
,
1000
0010
0100
0000
,
0001
0000
0000
0000
;

//---------------dance-single - ----------------
#NOTES:
     dance-single:
     :
     Beginner:
     2:
     0.151233,0.254556,0.000000,0.024243,0.000000,131.000000,131.000000,0.000000,3.000000,0.000000,0.000000,0.151233,0.254556,0.000000,0.024243,0.000000,131.000000,131.000000,0.000000,3.000000,0.000000,0.000000:
0000
0000
0000
0000
,
0000
0000
0000
0000
,
0000
0000
0000
0000
,
0000
0000
0000
0000
,
0001
0000
0000
0000
,
1000
0000
0000
0000
,
0001
0000
0000
0000
,
1000
0000
0000
0000
,
0010
0000
0000
0000
,
0100
0000
0000
0000
,
0010
0000
0000
0000
,
0100
0000
0000
0000
,
0001
0000
0000
0000
,
1000
0000
0000
0000
,
0001
0000
0000
0000
,
1000
0000
0000
0000
,
0010
0000
0000
0000
,
0100
0000
0000
0000
,
0010
0000
0000
0000
,
0100
0000
0000
0000
,
0001
0000
0000
0000
,
0000
0000
0000
0000
,
0010
0000
0000
0000
,
0000
0000
0000
0000
,
0100
0000
0000
0000
,
0000
0000
0000
0000
,
1000
0000
1000
0000
,
1000
0000
0000
0000
,
0001
0000
0001
0000
,
0001
0000
0000
0000
,
0100
0000
0100
0000
,
0100
0000
0000
0000
,
0010
0000
0010
0000
,
0010
0000
0000
0000
,
1000
0000
1000
0000
,
1000
0000
0000
0000
,
0001
0000
0000
0000
,
0001
0000
0000
0000
,
0001
0000
0000
0000
,
0001
0000
0000
0000
,
1000
0000
0000
0000
,
1000
0000
0000
0000
,
1000
0000
0000
0000
,
1000
0000
0000
0000
,
0100
0000
0000
0000
,
0000
0000
0000
0000
,
0100
0000
0000
0000
,
0000
0000
0000
0000
,
0100
0000
0000
0000
,
0000
0000
0000
0000
,
0100
0000
0000
0000
,
0100
0000
0000
0000
,
0200
0000
0000
0000
,
0000
0000
0000
0000
,
0300
0000
0000
0000
,
0000
0000
0000
0000
,
0020
0000
0000
0000
,
0000
0000
0000
0000
,
0030
0000
0000
0000
,
0000
0000
0000
0000
,
0001
0000
0000
0001
,
0000
0000
0001
0000
,
0000
0001
0000
0000
,
0001
0000
0000
0000
,
1000
0000
0000
1000
,
0000
0000
1000
0000
,
0000
1000
0000
0000
,
1000
0000
0000
0000
,
0010
0000
0000
0010
,
0000
0000
0010
0000
,
0000
0010
0000
0000
,
0010
0000
0000
0000
,
0100
0000
0000
0100
,
0000
0000
0100
0000
,
0000
0100
0000
0000
,
0100
0000
0000
0000
,
0001
0000
0000
0001
,
0000
0000
0001
0000
,
0000
0001
0000
0000
,
0001
0000
0000
0000
,
0010
0000
0000
0010
,
0000
0000
0010
0000
,
0000
0010
0000
0000
,
0010
0000
0000
0000
,
0100
0000
0000
0000
,
0100
0000
0000
0000
,
1000
0000
0000
0000
,
1000
0000
0000
0000
,
0002
0000
0000
0000
,
0000
0000
0000
0000
,
0000
0000
0000
0000
,
0000
0000
0000
0000
,
0000
0000
0000
0000
,
0000
0000
0003
0000
,
1000
0000
1000
0000
,
1000
0000
0000
0000
,
0001
0000
0001
0000
,
0001
0000
0000
0000
,
0100
0000
0100
0000
,
0100
0000
0000
0000
,
0010
0000
0010
0000
,
0010
0000
0000
0000
,
1000
0000
1000
0000
,
0001
0000
0000
0000
,
0001
0000
0001
0000
,
1000
0000
0000
0000
,
0010
0000
0010
0000
,
0100
0000
0000
0000
,
0100
0000
0100
0000
,
0010
0000
0000
0000
,
1000
0000
0000
0000
,
0100
0000
0000
0000
,
0010
0000
0000
0000
,
0001
0000
0000
0000
,
1000
0000
1000
0000
,
1000
0000
0000
0000
,
0100
0000
0000
0000
,
0010
0000
0000
0000
,
0001
0000
0001
0000
,
0001
0000
0000
0000
,
0100
0000
0100
0000
,
0100
0000
0000
0000
,
0010
0000
0010
0000
,
0010
0000
0000
0000
,
1000
0000
1000
0000
,
1000
0000
1000
0000
,
0001
0000
0000
0000
;

//---------------dance-double - ----------------
#NOTES:
     dance-double:
     :
     Hard:
     10:
     0.767708,0.889960,0.355570,0.008081,0.068690,665.000000,621.000000,44.000000,1.000000,0.000000,0.000000,0.767708,0.889960,0.355570,0.008081,0.068690,665.000000,621.000000,44.000000,1.000000,0.000000,0.000000:
00000000
00000000
00000000
00000000
,
00000000
00000000
00000000
00000000
,
00000000
00000000
00000000
00000000
,
00000000
00000000
00000000
00000000
,
10000000
00000000
00010000
00000000
01000000
00100000
01000000
00000000
,
00001000
00000000
00010000
00000000
00000100
00000010
00000100
00000000
,
00001000
00000000
00000001
00000000
00000100
00000010
00000100
00000000
,
00000001
00000100
00001000
00010000
,
00100000
00000000
10000000
00000000
00010000
01000000
00010000
00000000
,
00100000
00000000
00001000
00000000
00010000
00000010
00010000
00000000
,
00000100
00000000
00001000
00000000
00000010
00000100
00000010
00000000
,
00001000
00000100
00000001
00000100
,
00001000
00000000
00000010
00000000
00010000
00001000
00010000
00000000
,
00001000
00000000
01000000
00000000
00100000
10000000
00100000
00000000
,
01000000
00000000
00001000
00000000
00010000
00000100
00010000
00000000
,
00000010
00000100
00001000
00000100
,
00000001
00000000
00000010
00000000
00000100
00010000
00000100
00000000
,
00010000
00000000
00001000
00000000
01000000
00010000
01000000
00000000
,
00010000
00100000
00010000
00000000
00100000
01000000
00100000
00000000
,
01000000
10000000
00010000
00100000
01000000
10000000
01000000
00100000
,
00010000
00000000
01010000
00000000
,
10000000
01000000
00100000
00010000
,
00001000
00000000
00001100
00000000
,
00000010
00000001
00000100
00000010
,
00001000
00000000
00000101
00000000
,
00000010
00010000
00001000
01000000
,
00010000
00010000
10000000
10000000
,
01000000
00000000
01000000
00100000
00000000
00000000
00001000
00010000
00001000
00010000
00000000
00000000
,
00000100
00000000
00001000
00000100
00000000
00000100
00000010
00000000
,
00000001
00000100
00000001
00000100
00000010
00001000
00000010
00000000
,
00010000
00000000
00001000
01000000
00000000
01000000
00010000
00000000
,
00100000
01000000
00100000
01000000
10000000
00010000
10000000
00000000
,
01000000
00000000
00100000
00001000
00000000
00001000
00010000
00000000
,
00000100
00001000
00000100
00001000
00000010
00000100
00000010
00000000
,
00000100
00000000
00000001
00000100
00000000
00000100
00001000
00000000
,
00010000
00001000
00010000
00001000
01000000
00100000
01000000
00000000
,
00100000
10000000
00100000
00000000
01000000
00000000
00010000
00100000
,
00010000
00000000
00100000
00000000
00001000
00010000
00001000
00000000
,
00010000
00000000
00000100
00001000
00000100
00000000
00001000
00000000
,
00000010
00000100
00000001
00000000
00000010
00000100
00001000
00000000
,
00000001
00000100
00000001
00000000
00001000
00000000
00000100
00010000
,
00000100
00000000
00001000
00000000
01000000
00010000
01000000
00000000
,
00100000
00000000
00010000
01000000
00010000
00000000
10000000
00000000
,
00100000
01000000
00010000
00000000
00100000
01000000
10000000
00000000
,
00010000
00000000
01000000
00000000
00001000
00010000
00000000
00010000
,
00000000
00000100
00001000
00000010
,
00000100
00000000
00000001
00000000
00000010
00000100
00000000
00000100
,
00000000
00010000
00001000
01000000
,
00100000
00000000
00000000
00000000
10000000
00000000
00000000
00000000
00000000
00000000
00000000
00000000
01000000
00000000
00000000
00100000
00000000
00000000
00000000
00000000
00000000
00000000
00000000
00000000
,
00001000
00010000
00010000
00000000
00000100
00001000
00000100
00001000
,
00000010
00000010
00000100
00000000
00000001
00001000
00000001
00000000
,
00001000
00000100
00000010
00000001
00000010
00000100
00010000
00001000
,
00010000
00000000
00000000
00001000
00000000
00010000
00000000
00100000
,
00000000
01000000
00000000
00000000
00010000
00000000
10000000
00000000
,
01000000
00000000
00000000
00010000
00000000
00001000
00000000
00010000
,
00000000
00100000
00000000
00000000
00010000
00000000
00001000
00000000
,
00000100
00000100
00000100
00000100
,
00000100
00000000
00000100
00000000
00000100
00000000
00000100
00000001
,
00001000
00001000
00001000
00001000
,
00001000
00000000
00001000
00000000
00001000
00000000
00001000
00000100
,
00010000
00000000
00001000
01000000
00000000
00001000
01000000
00000000
,
00100000
01000000
00000000
00100000
01000000
00000000
00100000
10000000
,
00000000
00100000
10000000
00000000
01000000
10000000
00000000
01000000
,
10000000
00000000
00010000
01000000
00000000
00010000
00100000
00001000
,
00010000
00000000
00000100
00010000
00000000
00000100
00010000
00000000
,
00000010
00010000
00000000
00000010
00010000
00000000
00000010
00000100
,
00000000
00000010
00000100
00000000
00000001
00000100
00000000
00000001
,
00000100
00000000
00000000
00000010
00000000
00000000
00000010
00000000
00000100
00000000
00000000
00000001
00000000
00000000
00000001
00000000
,
00001000
00000000
00000100
00010000
00000000
00000100
00010000
00000000
,
00001000
01000000
00000000
00001000
01000000
00000000
00010000
00100000
,
00000000
00010000
00100000
00000000
01000000
10000000
00000000
01000000
,
10000000
00000000
00000000
01000000
00000000
00000000
01000000
00000000
00100000
00000000
00000000
00001000
00000000
00000000
00001000
00000000
,
00010000
00000000
00000010
00001000
00000000
00000010
00001000
00000000
,
00000010
00000100
00000000
00000010
00000100
00000000
00000001
00000010
,
00000000
00000001
00000010
00000000
00000100
00001000
00000000
00000100
,
00001000
00000000
00000000
00000100
00000000
00000000
00000100
00000000
00010000
00000000
00000000
00001000
00000000
00000000
00001000
00000000
,
01000000
00010000
01000000
00010000
01000000
00000000
00010000
01000000
,
00010000
01000000
00010000
00000000
01000000
00001000
01000000
00001000
,
01000000
00000000
00001000
00010000
00001000
00010000
00001000
00000000
,
00010000
00000000
00000000
00000100
00000000
00000000
00000010
00000000
00000001
00000000
00000000
00000100
00000000
00000000
00000010
00000000
,
00010000
00001000
00010000
00001000
00010000
00000000
00001000
01000000
,
00001000
01000000
00001000
00000000
01000000
00100000
01000000
00100000
,
01000000
00000000
00100000
10000000
00100000
10000000
00100000
00000000
,
10000000
01000000
00100000
00001000
00010000
00001000
00100000
01000000
,
10000000
11000000
01000000
01100000
,
00100000
00000000
00101000
00000000
00001000
00000000
00010000
00000100
,
00001000
00001010
00000010
00000110
,
00000100
00000101
00000001
00001001
,
00002000
00000000
00000000
00000000
,
00000000
00000000
00000000
00000000
,
00000000
00000000
00000000
00000000
,
00000000
00000000
00000000
00000000
,
00000000
00000000
00000000
00000000
,
00000000
00000000
00000000
00000000
,
00103000
10100000
10000000
11000000
,
01000000
00000000
01100000
00000000
00100000
00000000
00100000
00001000
,
00010000
00010100
00000100
00000110
,
00000010
00000000
00000011
00000000
00000001
00000100
00000010
00000100
,
00001000
00011000
00010000
01010000
,
01000000
00000000
11000000
00000000
10000000
00000000
10000000
00100000
,
01000000
01010000
00010000
00110000
,
00100000
00000000
00101000
00000000
00001000
00010000
00001000
00000100
,
00000010
00001010
00001000
00001001
,
00000001
00000000
00000011
00000000
00000010
00000000
00000010
00000100
,
00010000
00011000
00001000
01001000
,
01000000
00000000
01100000
00000000
00100000
10000000
00010000
10000000
,
01000000
01010000
00010000
00011000
,
00001000
00000000
00001010
00000000
00000010
00000000
00000001
00000100
,
00001000
00011000
00010000
00110000
,
00100000
00000000
10100000
00000000
10000000
00010000
10000000
01000000
,
00010000
00001000
00000000
00001100
00000000
00000100
00000000
00000110
,
00000000
00000010
00000000
00010010
00000000
00010000
00000000
00010000
,
00001000
01000000
00000000
01100000
00000000
00100000
00000000
10100000
,
00000000
10000000
00000000
11000000
00000000
01000000
00000000
01000000
,
00100000
00001000
00010000
00000100
00000010
00000001
00000100
00000000
,
00000010
00000000
00001010
00000000
00001000
00000000
00001000
00000100
,
00010000
00011000
00001000
01001000
,
01000000
00000000
01100000
00000000
00100000
10000000
00010000
10000000
,
01000000
00100000
01000000
00100000
01000000
10000000
01000000
10000000
,
00010000
01000000
00010000
01000000
00010000
00100000
00010000
00100000
,
00001000
00010000
00001000
00010000
00001000
00000100
00001000
00000100
,
00000010
00001000
00000010
00001000
00000010
00000100
00000010
00000100
,
00000001
00000010
00000100
00001000
00000100
00000010
00000100
00010000
,
00001000
01000000
00001000
01000000
00100000
10000000
00100000
01000000
,
00001000
00100000
00001000
00100000
01000000
00010000
00001000
00010000
,
00001000
00000010
00000001
00001000
00000001
00000100
00001000
00000100
,
00000001
00000000
00000000
00000000
,
00000000
00000000
00000000
00000000
,
00000000
00000000
00000000
00000000
00000000
00000000
00000000
00000000
00000000
00000000
00000000
00000000
00000000
00000000
00000100
00000000
00000000
00000000
00000000
00000000
00000000
00000000
00000000
00000010
00000000
00000000
00000000
00000000
00000000
00000000
00000000
00000000
,
00000000
00000000
00000000
00000000
00000000
00000000
00000000
00010000
00000000
00000000
00000000
00000000
00000000
00001000
00000000
00000000
00000000
00000000
00010000
00000000
00000000
00000000
00000000
00000000
00000000
00000000
00000000
00000000
00000000
00000000
00000000
00000000
;

//---------------dance-double - ----------------
#NOTES:
     dance-double:
     :
     Medium:
     8:
     0.464088,0.570856,0.080811,0.016162,0.004041,402.000000,392.000000,10.000000,2.000000,0.000000,0.000000,0.464088,0.570856,0.080811,0.016162,0.004041,402.000000,392.000000,10.000000,2.000000,0.000000,0.000000:
00000000
00000000
00000000
00000000
,
00000000
00000000
00000000
00000000
,
00000000
00000000
00000000
00000000
,
00000000
00000000
00000000
00000000
,
00000001
00000010
00000100
00000000
,
00001000
00000010
00000100
00000000
,
00000001
00000010
00001000
00010000
,
00100000
10000000
00010000
00000000
,
10000000
00100000
01000000
00000000
,
00010000
00100000
01000000
00000000
,
10000000
00100000
00010000
00001000
,
00000010
00000001
00001000
00000000
,
00000001
00000100
00001000
00000000
,
00001000
00000100
00000001
00000000
,
00000001
00000100
00001000
00010000
,
01000000
10000000
00010000
00000000
,
10000000
01000000
00010000
00000000
,
00010000
01000000
10000000
00000000
,
10000000
01000000
00010000
00001000
,
00000100
00000001
00001000
00000001
,
00000010
00000000
00000110
00000000
,
00000100
00010000
00001000
00000000
,
00100000
00000000
00110000
00000000
,
00010000
01000000
00100000
00000000
,
10000000
00000000
10010000
00000000
,
00010000
00100000
00001000
00000000
,
00010000
00000000
00010010
00000000
,
00000010
00001000
00000100
00000000
,
00000010
00000000
00000000
00000001
00000000
00000000
00000010
00000000
,
00000100
00010000
00001000
00010000
,
00001000
00000000
00000000
00100000
00000000
00000000
00010000
00000000
,
01000000
00100000
01000000
00100000
,
10000000
00000000
00000000
00010000
00000000
00000000
00100000
00000000
,
00001000
00010000
00000010
00001000
,
00000100
00000000
00000000
00000010
00000000
00000000
00000001
00000000
,
00001000
00000010
00010000
00001000
,
00100000
00010000
00010000
00000000
,
01000000
01000000
00000000
00100000
,
00100000
00000000
00010000
00010000
,
00001000
00000100
00000010
00000000
,
00001000
00000001
00000001
00000000
,
00000010
00000010
00000000
00000100
,
00000100
00000000
00010000
00010000
,
00001000
00100000
01000000
10000000
,
00010000
00000000
00110000
00000000
,
00100000
00001000
00010000
00001000
,
00000010
00000000
00000110
00000000
,
00001000
00000010
00000001
00000010
,
00010000
00000000
00011000
00000000
,
00001000
00100000
01000000
10000000
,
00100000
00000000
01100000
00000000
,
01000000
00010000
00100000
00001000
,
00020000
00000000
00000010
00000000
,
00000000
00000000
00000010
00000000
,
00000000
00000000
00000010
00000000
,
00000000
00000000
00030010
00000000
,
00001000
00000001
00001000
00000001
,
00000010
00000100
00000010
00000100
,
00010000
00001000
00010000
00001000
,
00100000
01000000
00100000
01000000
,
10000000
00000000
00000000
00100000
00000000
00000000
01000000
00000000
,
00000000
00100000
00000000
00000000
10000000
00000000
00000000
00010000
,
00000000
00000000
00100000
00000000
00000000
00001000
00000000
00000000
,
00010000
00000000
00000000
00000010
00000000
00000000
00000100
00000000
,
00000001
00000000
00000000
00000010
00000000
00000000
00000100
00000000
,
00000000
00000010
00000000
00000000
00000001
00000000
00000000
00000010
,
00000000
00000000
00001000
00000000
00000000
00010000
00000000
00000000
,
00001000
00000000
00000000
00100000
00000000
00000000
00010000
00000000
,
01000000
00000000
00000000
00100000
00000000
00000000
10000000
00000000
,
00000000
00010000
00000000
00000000
10000000
00000000
00000000
00100000
,
00000000
00000000
00010000
00000000
00000000
00001000
00000000
00000000
,
00000100
00000000
00000000
00000001
00000000
00000000
00001000
00000000
,
00000001
00000000
00000000
00000010
00000000
00000000
00000100
00000000
,
00000000
00010000
00000000
00000000
00001000
00000000
00000000
00100000
,
00000000
00000000
00010000
00000000
00000000
01000000
00000000
00000000
,
00100000
00000000
00000000
10000000
00000000
00000000
00010000
00000000
,
01000000
00000000
00000000
00100000
00000000
00000000
00010000
00000000
,
00000000
00100000
00000000
00000000
10000000
00000000
00000000
00010000
,
00000000
00000000
00100000
00000000
00000000
00001000
00000000
00000000
,
00010000
00000000
00000000
00000010
00000000
00000000
00001000
00000000
,
00000100
00000000
00000000
00000010
00000000
00000000
00000001
00000000
,
00000000
00000010
00000000
00000000
00001000
00000000
00000000
00010000
,
00000000
00000000
00100000
00000000
00000000
01000000
00000000
00000000
,
00010000
00000000
00000000
10000000
00000000
00000000
01000000
00000000
,
00100000
00001000
00010000
00000010
,
00001000
00000100
00000010
00000011
,
00000001
00001000
00000010
00010000
,
00001000
00100000
00010000
01010000
,
20000000
00000000
00000000
00000000
,
00000000
00000000
00000000
00000000
,
00000000
00000000
00000000
00000000
,
00000000
00000000
00000000
00000000
,
00000000
00000000
00000000
00000000
,
00000000
00000000
30000000
00000000
,
00010000
00100000
00001000
00100000
,
00010000
00100000
00001000
00010000
,
00001000
00000010
00000100
00001000
,
00000100
00000000
00000010
00000000
00000100
00000010
00000100
00000000
,
00001000
00000010
00000100
00000010
,
00001000
00000010
00000100
00001000
,
00010000
00001000
00100000
00001000
,
00010000
00000000
00001000
00000000
01000000
00010000
01000000
00000000
,
00100000
10000000
01000000
10000000
,
00100000
10000000
01000000
00100000
,
00001000
00010000
00000010
00010000
,
00001000
00000000
00010000
00000000
00000010
00000100
00000010
00000000
,
00001000
00000100
00000010
00000100
,
00001000
00000100
00000010
00000001
,
00000100
00000010
00000100
00000001
,
00000100
00000000
00000010
00000000
00001000
00000001
00001000
00000000
,
00000001
00000010
00000000
00000010
00000000
00000100
00000000
00000100
,
00000000
00010000
00000000
00010000
00000000
00001000
00000000
00001000
,
00000000
00100000
00000000
00100000
00000000
00010000
00000000
00010000
,
00000000
01000000
00000000
01000000
00000000
00100000
00000000
00100000
,
10000000
00000000
00010000
10000000
00010000
00000000
10000000
00000000
,
00100000
00100000
01000000
01000000
,
00001000
00001000
00010000
00010000
,
00000010
00000000
00000010
00000000
00001000
00000001
00001000
00000000
,
00000001
00000010
00000100
00001000
,
00000100
00000010
00000001
00000010
,
00001000
00010000
00001000
00100000
,
01000000
10000000
01000000
00100000
,
00010000
10000000
00100000
01000000
,
00100000
01000000
00001000
00010000
,
00001000
00010000
00000010
00000100
,
00000010
00000100
00000001
00001000
,
00000100
00000000
00000000
00000000
,
00000000
00000010
00000000
00000000
00000000
00000000
00000000
00000000
,
00000000
00000000
00000000
00000000
00000000
00000000
00000000
00000001
00000000
00000000
00000000
00000000
00000000
00000000
00000000
00000000
;

//---------------dance-double - ----------------
#NOTES:
     dance-double:
     :
     Easy:
     6:
     0.297848,0.356378,0.000000,0.024243,0.000000,258.000000,258.000000,0.000000,3.000000,0.000000,0.000000,0.297848,0.356378,0.000000,0.024243,0.000000,258.000000,258.000000,0.000000,3.000000,0.000000,0.000000:
00000000
00000000
00000000
00000000
,
00000000
00000000
00000000
00000000
,
00000000
00000000
00000000
00000000
,
00000000
00000000
00000000
00000000
,
00010000
00000000
00010000
00000000
,
00001000
00000000
00001000
00000000
,
01000000
00000000
01000000
00000000
,
00100000
10000000
00100000
00000000
,
01000000
00000000
01000000
00000000
,
00001000
00000000
00001000
00000000
,
00010000
00000000
00010000
00000000
,
00000100
00000010
00000100
00000000
,
00000010
00000000
00000010
00000000
,
00000001
00000000
00000001
00000000
,
00001000
00000000
00001000
00000000
,
00000100
00010000
00000100
00000000
,
00010000
00000000
00010000
00000000
,
00001000
00000000
00001000
00000000
,
01000000
00000000
01000000
00000000
,
00100000
10000000
00100000
00000000
,
01000000
00000000
00010000
00000000
,
00100000
00000000
01000000
00000000
,
10000000
00000000
01000000
00000000
,
00100000
00000000
00001000
00000000
,
00010000
00000000
00001000
00000000
,
00010000
00000000
00000100
00000000
,
00001000
00000000
00000010
00000000
,
00000100
00000001
00000100
00000000
,
00000010
00000000
00000010
00000000
,
00000010
00000100
00000001
00000000
,
00000010
00000000
00000010
00000000
,
00000010
00000100
00010000
00000000
,
00001000
00000000
00001000
00000000
,
00001000
01000000
00100000
00000000
,
10000000
00000000
10000000
00000000
,
10000000
01000000
00100000
00000000
,
00010000
00000000
10000000
00000000
,
00010000
00000000
01000000
00000000
,
00001000
00000000
00010000
00000000
,
00000100
00001000
00000100
00000000
,
00000010
00000000
00000001
00000000
,
00000100
00000000
00000001
00000000
,
00000010
00000000
00000100
00000000
,
00010000
00001000
00010000
00000000
,
00001000
00000000
00000000
00000000
,
01000000
00100000
10000000
00100000
,
01000000
00000000
00000000
00000000
,
00001000
00010000
00000100
00010000
,
00001000
00000000
00000000
00000000
,
00000100
00000010
00001000
00000010
,
00000100
00000000
00000000
00000000
,
00000001
00000010
00000100
00000010
,
00000002
00000000
00000000
00000000
,
00000000
00000000
00000000
00000000
,
00000000
00000000
00000000
00000000
,
00000000
00000000
00000003
00000000
,
00002000
00000000
00000000
00000000
,
00000000
00000000
00000000
00000000
,
00000000
00000000
00000000
00000000
,
00000000
00000000
00003000
00000000
,
00010000
00000000
10000000
00000000
,
00010000
00000000
10000000
00000000
,
01000000
00000000
00100000
00000000
,
01000000
00000000
00100000
00001000
,
00010000
00000000
00001000
00000000
,
00010000
00000000
00001000
00000000
,
00010000
00000000
00000100
00000000
,
00010000
00000000
00000100
00001000
,
00000010
00000000
00000100
00000000
,
00000010
00000000
00000100
00000000
,
00000001
00000000
00001000
00000000
,
00000001
00000000
00001000
00000100
,
00000010
00000000
00000001
00000000
,
00000010
00000000
00000001
00000000
,
00001000
00000000
00000100
00000000
,
00001000
00000000
00000100
00010000
,
00001000
00000000
01000000
00000000
,
00001000
00000000
01000000
00000000
,
00010000
00000000
10000000
00000000
,
00010000
00000000
10000000
01000000
,
00100000
00000000
00001000
00000000
,
00100000
00000000
00001000
00000000
,
00010000
00000000
00000100
00000000
,
00010000
00000000
00000100
00000010
,
00000001
00000000
00001000
00000000
,
00000001
00001000
00000001
00000000
,
00001000
00000000
00000001
00000000
,
00000100
00000010
00010000
00000000
,
00002000
00000000
00000000
00000000
,
00000000
00000000
00000000
00000000
,
00000000
00000000
00000000
00000000
,
00000000
00000000
00000000
00000000
,
00000000
00000000
00000000
00000000
,
00000000
00000000
00003000
00000000
,
01000000
00000000
00100000
00000000
,
10000000
01000000
00100000
00000000
,
00001000
00000000
00010000
00000000
,
00000100
00000000
00001000
00000000
,
00000010
00000000
00000100
00000000
,
00000001
00001000
00000001
00000000
,
00000010
00000000
00000100
00000000
,
00010000
00000000
00001000
00000000
,
00100000
00000000
01000000
00000000
,
00100000
00010000
10000000
00000000
,
00100000
00000000
01000000
00000000
,
00001000
00000000
00010000
00000000
,
00000100
00000000
00000010
00000000
,
00000001
00001000
00000001
00000000
,
00000100
00000000
00000010
00000000
,
00010000
00001000
00010000
00000000
,
00000000
01000000
00000000
00000000
00000000
01000000
00000000
00000000
,
00000000
00100000
00000000
00000000
00000000
00100000
00000000
00000000
,
00000000
00010000
00000000
00000000
00000000
00010000
00000000
00000000
,
00000000
10000000
00000000
00000000
00000000
10000000
00000000
00000000
,
10000000
00000000
01000000
00000000
,
00100000
00001000
00010000
00000000
,
00000100
00000000
00001000
00000000
,
00000010
00000100
00000001
00000000
,
00001000
00000100
00001000
00000000
,
00000100
00010000
00000100
00000000
,
00010000
00001000
00010000
00000000
,
00001000
01000000
00001000
00000000
,
01000000
00100000
01000000
00000000
,
00100000
10000000
00100000
00000000
,
10000000
01000000
10000000
00000000
,
01000000
00010000
01000000
00000000
,
00010000
00000000
00000000
00000000
;

//---------------dance-single - ----------------
#NOTES:
     dance-single:
     :
     Challenge:
     11:
     0.886616,1.099363,0.492949,0.016162,0.117176,768.000000,707.000000,61.000000,2.000000,0.000000,0.000000,0.886616,1.099363,0.492949,0.016162,0.117176,768.000000,707.000000,61.000000,2.000000,0.000000,0.000000:
0000
0000
0000
0000
,
0000
0000
0000
0000
,
0000
0000
0000
0000
,
0000
0000
0000
0000
,
0001
0100
0010
0100
0001
0000
0010
0000
,
0100
1000
0001
1000
0100
0000
0010
0000
,
0001
1000
0010
0100
0001
0000
0010
0000
,
0100
1000
0001
0000
0100
0010
1000
0100
,
0010
0001
1000
0001
0010
0000
0100
0000
,
1000
0010
0100
0010
1000
0000
0001
0000
,
0010
0100
1000
0001
0100
0000
0010
0000
,
0100
0001
0100
0000
0010
1000
0001
0010
,
0100
1000
0001
1000
0100
0000
0010
0000
,
0001
0100
0010
0100
0001
0000
1000
0000
,
0100
0010
0001
1000
0010
0000
0100
0000
,
0001
0010
0001
0000
1000
0010
0100
0001
,
0010
0100
1000
0001
0100
0000
0010
0000
,
0100
0001
1000
0001
0010
0000
0100
0000
,
1000
0010
1000
0000
0001
0100
0001
0000
,
1000
0100
0000
0100
0010
0000
0010
0001
0000
0001
1000
0000
,
1000
0000
0010
0000
0100
0000
0001
0010
,
0100
1100
0110
0011
,
1001
0000
1000
0000
0010
0000
0100
0001
,
1000
1010
0110
0101
,
1001
0000
1000
0000
0010
0000
0100
0001
,
0010
0110
1100
1001
,
0101
0100
0010
0100
,
0001
0000
0001
1000
0000
0000
0001
0010
0100
1000
0000
0000
,
0001
0100
0001
1000
0100
1000
0001
0010
,
0100
1000
0100
1000
0001
0100
0001
0100
,
0010
1000
0010
0100
0001
0100
0010
1000
,
0001
0010
0100
0010
0001
0010
0100
0100
,
1000
0010
0100
0001
0010
0100
1000
0010
,
0100
0001
1000
0001
1000
0100
0010
0100
,
0010
0001
0100
0010
1000
0100
0010
0001
,
1000
0010
1000
0010
0100
0100
0100
0100
,
0001
1000
0100
1000
0100
0000
0010
0001
,
1000
0001
0010
0000
0100
1000
0001
1000
,
0010
0000
0100
0001
1000
0000
0100
0010
,
0001
0000
1000
0000
0010
0100
0001
1000
,
0100
0010
0001
1000
0001
0010
0100
1000
,
0001
1000
0010
0000
0100
0001
1000
0001
,
0010
0000
0100
1000
0001
0000
0100
0010
,
1000
0100
0000
0100
0010
0000
0010
0001
0000
0001
1000
0000
,
1000
0000
0010
0000
0100
0001
1000
0000
,
0100
0110
0011
1001
,
1010
0000
0100
0000
0001
0010
0100
0000
,
1000
1010
0110
0101
,
0011
0000
0000
0000
0100
0000
1000
0000
0000
0000
0000
0000
0001
0000
0000
0100
0000
0000
1000
0000
0000
0000
0000
0000
,
0100
0100
0110
0000
0001
1000
0001
1000
,
0001
0001
0010
0000
0100
0100
1000
0000
,
0001
0100
1000
0100
0010
1000
0100
0010
,
0002
0000
0000
0000
,
0000
0000
0000
0000
,
0000
0000
0000
0000
,
0000
0000
0000
0003
,
1000
1000
1000
1000
,
1000
0000
1000
0000
1000
0000
1000
1000
,
1000
1000
1000
1000
,
1000
0000
1000
0000
1000
1000
1000
1000
,
1000
0000
0001
0100
0000
0100
0010
0000
,
0010
1000
0000
1000
0100
0000
0100
0010
,
0000
0010
1000
0000
1000
0010
0000
0010
,
0001
0000
0001
0100
0000
0100
0010
1000
,
0001
0000
0001
0010
0000
0010
0100
0000
,
0100
1000
0000
1000
0010
0000
0010
0001
,
0000
0001
0010
0000
0010
0100
0000
0100
,
0001
0000
0000
0010
0000
0000
0100
0000
1000
0000
0000
0010
0000
0000
0100
0000
,
0001
0000
0001
1000
0000
1000
0100
0000
,
0100
0001
0000
0001
0100
0000
0100
0010
,
0000
0010
0001
0000
0001
1000
0000
1000
,
0010
0000
0000
0100
0000
0000
0001
0000
0010
0000
0000
0100
0000
0000
1000
0000
,
0001
0000
0001
0100
0000
0100
0010
0000
,
0010
1000
0000
1000
0001
0000
0001
0010
,
0000
0010
0100
0000
0100
0001
0000
0001
,
0100
0000
0000
1000
0000
0000
0010
0000
0100
0000
0000
0001
0000
0000
0010
0000
,
0100
1000
0010
0100
0001
0010
0100
1000
,
0010
0100
0001
0010
0100
1000
0010
0100
,
0001
0010
0100
1000
0010
0100
0001
0010
,
0100
0000
0000
1000
0000
0000
0001
0000
0100
0000
0000
0001
0000
0000
1000
0000
,
0010
0100
0001
0010
0100
1000
0010
0100
,
0001
0010
0100
1000
0010
0100
0001
0010
,
0100
1000
0010
0100
0001
0010
0100
1000
,
0010
0100
0001
0010
0100
1000
0010
0100
,
0001
0011
0010
0110
,
0100
0000
1100
0000
1000
0000
1010
0010
,
0100
0101
0001
0011
,
0010
0000
0110
0000
0100
1000
1001
0001
,
0200
0000
0000
0000
,
0000
0000
0000
0000
,
0000
0000
0000
0000
,
0000
0000
0000
0000
,
0000
0000
0000
0000
,
0000
0000
0000
0300
,
0001
1010
0001
0110
,
1000
0000
0101
0000
0010
0000
1100
0010
,
0001
0110
1000
0101
,
0010
0000
1100
0000
0010
0001
1100
0010
,
0100
1001
0010
0101
,
1000
0000
0110
0000
0001
0000
0110
1000
,
0001
1010
0100
0011
,
1000
0000
0110
0000
0001
0100
1010
0001
,
0010
1100
0010
0101
,
1000
0000
0110
0000
0001
0000
1010
0001
,
0100
1001
0010
1100
,
0001
0000
0110
0000
1000
0010
0101
1000
,
0100
0011
1000
0110
,
0001
0000
1010
0000
0100
0000
1001
0010
,
0100
0011
0100
1010
,
0001
0000
0110
0000
1000
0100
0011
1000
,
0001
0100
0001
0100
0010
0100
0010
0100
,
1000
0100
1000
0100
0100
0100
0100
0100
,
0001
0010
0001
0010
0100
0010
0100
0010
,
1000
0010
1000
0010
0010
0010
0010
0010
,
0001
0100
0010
0100
0001
1000
0010
1000
,
0100
0010
0001
1000
0001
0010
0100
1000
,
0010
0100
0001
1000
0100
0010
0001
0010
,
0100
1000
0100
0001
0100
0010
0001
1000
,
0010
0100
0010
0001
0010
0100
1000
0001
,
0010
0100
1000
0100
0001
0100
0100
0100
,
0010
1000
0001
0010
0100
1000
0010
1000
,
0100
0010
0001
1000
0010
0100
0100
0100
,
0001
0010
0100
0100
0001
0010
0100
0100
,
0010
1000
0100
0100
0010
1000
0100
0100
,
0010
1000
0010
0000
0100
0000
0001
0000
0100
0010
0100
0000
0001
0000
1000
0000
,
0100
0010
0100
0000
1000
0000
0001
0000
0010
0001
0010
0000
0100
0000
1000
0000
,
0001
0000
0000
0000
,
0000
0000
0000
0000
,
0000
0000
0000
0000
0000
0000
0000
0000
0000
0000
0000
0000
0000
0000
0100
0000
0000
0000
0000
0000
0000
0000
0000
0010
0000
0000
0000
0000
0000
0000
0000
0000
,
0000
0000
0000
0000
0000
0000
0000
0100
0000
0000
0000
0000
0000
0001
0000
0000
0000
0000
1000
0000
0000
0000
0000
0000
0000
0000
0000
0000
0000
0000
0000
0000
;

//---------------dance-double - ----------------
#NOTES:
     dance-double:
     :
     Challenge:
     11:
     0.865836,0.916401,0.436381,0.016162,0.016162,750.000000,696.000000,54.000000,2.000000,0.000000,0.000000,0.865836,0.916401,0.436381,0.016162,0.016162,750.000000,696.000000,54.000000,2.000000,0.000000,0.000000:
// measure 0
00000000
00000000
00000000
00000000
,  // measure 1
00000000
00000000
00000000
00000000
,  // measure 2
00000000
00000000
00000000
00000000
,  // measure 3
00000000
00000000
00000000
00000000
,  // measure 4
00000001
00000100
00000010
00000100
00000001
00000000
00001000
00000000
,  // measure 5
00000010
00010000
00001000
00010000
00001000
01000000
00100000
00000000
,  // measure 6
10000000
01000000
00100000
01000000
10000000
00000000
00100000
00000000
,  // measure 7
01000000
00001000
00010000
00001000
00010000
00000010
00000100
00000000
,  // measure 8
00000001
00000010
00000100
00000010
00000001
00000000
00001000
00000000
,  // measure 9
00000100
00010000
00001000
00010000
00001000
00100000
01000000
00000000
,  // measure 10
10000000
00100000
01000000
00100000
10000000
00000000
01000000
00000000
,  // measure 11
00100000
00001000
00100000
00000000
00001000
00010000
00000100
00001000
,  // measure 12
00000001
00000100
00000010
00000100
00000001
00000000
00001000
00000000
,  // measure 13
00000100
00010000
00001000
00100000
00010000
00000000
10000000
00000000
,  // measure 14
01000000
00100000
00010000
10000000
00100000
00000000
01000000
00000000
,  // measure 15
00001000
00100000
00010000
01000000
00001000
00010000
00000010
00000100
,  // measure 16
00000001
00000010
00000100
00000010
00000001
00000000
00001000
00000000
,  // measure 17
00000010
00010000
00001000
01000000
00010000
10000000
00100000
00000000
,  // measure 18
10000000
01000000
00000000
01010000
00000000
00011000
00000000
00001000
,  // measure 19
00000010
00000110
00000000
00001001
00000000
00000001
00001000
00000000
,  // measure 20
00000100
00010000
00001000
00100000
,  // measure 21
00010000
01010000
01100000
10100000
,  // measure 22
10010000
10000000
01000000
00010000
,  // measure 23
00001000
00001100
00000110
00001010
,  // measure 24
00001001
00000001
00000010
00001000
,  // measure 25
00010000
00110000
10100000
10010000
,  // measure 26
11000000
01000000
00100000
00001000
,  // measure 27
00010000
00000000
00010000
00000100
00000000
00000000
00001000
00000010
00000100
00000001
00000000
00000000
,  // measure 28
00001000
00000100
00001000
00000001
00000100
00000001
00001000
00000010
,  // measure 29
00010000
00001000
00100000
00010000
10000000
01000000
00010000
00001000
,  // measure 30
00100000
00010000
10000000
00100000
10000000
00010000
00100000
00001000
,  // measure 31
00010000
00000100
00000010
00000001
00000100
00001000
00010000
00000010
,  // measure 32
00000100
00000001
00000010
00001000
00010000
00100000
10000000
00010000
,  // measure 33
10000000
01000000
00100000
00010000
01000000
00100000
10000000
01000000
,  // measure 34
00010000
00001000
00000100
00000001
00001000
00000010
00000100
00000001
,  // measure 35
00001000
00000010
00010000
00001000
00100000
00010000
10000000
00100000
,  // measure 36
01000000
00001000
00010000
00001000
00010000
00000000
00100000
10000000
,  // measure 37
00010000
10000000
00100000
00000000
01000000
00001000
00010000
00000100
,  // measure 38
00000010
00000000
00000100
00001000
00000001
00000000
00000010
00001000
,  // measure 39
00010000
00000100
00000010
00000000
00000001
00000100
00001000
00010000
,  // measure 40
01000000
10000000
00100000
01000000
00010000
10000000
01000000
00100000
,  // measure 41
00010000
00001000
00000100
00000000
00000010
00000001
00001000
00000001
,  // measure 42
00000100
00000000
00000010
00010000
00001000
00100000
00010000
10000000
,  // measure 43
01000000
10000000
00100000
01000000
00001000
00010000
00000100
00001000
,  // measure 44
00000010
00000100
00000001
00001000
,  // measure 45
00001100
00010100
00011000
01001000
,  // measure 46
00010000
00100000
01000000
10000000
,  // measure 47
00010000
01010000
01001000
00011000
,  // measure 48
00010100
00000000
00000000
00000000
00000010
00000000
00000001
00000000
00000000
00000000
00000000
00000000
00000100
00000000
00000000
00000100
00000000
00000000
00000000
00000000
00000000
00000000
00000000
00000000
,  // measure 49
00001000
00010000
00100000
00000000
00010000
00001000
00000010
00000001
,  // measure 50
00001000
00000010
00000100
00000000
00001000
01000000
00100000
10000000
,  // measure 51
00010000
00100000
01000000
10000000
00010000
01000000
00100000
01000000
,  // measure 52
00002000
00000000
00000000
00000000
,  // measure 53
00000000
00000000
00000000
00000000
,  // measure 54
00000000
00000000
00000000
00000000
,  // measure 55
00000000
00000000
00000000
00003000
,  // measure 56
00010000
00010000
00010000
00010000
,  // measure 57
00000100
00000000
00000100
00000000
00000100
00000000
00001000
00000010
,  // measure 58
00001000
00001000
00001000
00001000
,  // measure 59
00000001
00000000
00000001
00000000
00000001
00000000
00000010
00000100
,  // measure 60
00000010
00000000
00000001
00000100
00000000
00000100
00000010
00000000
,  // measure 61
00000010
00001000
00000000
00001000
00000100
00000000
00000100
00000010
,  // measure 62
00000000
00000010
00001000
00000000
00001000
00010000
00000000
00010000
,  // measure 63
00100000
00000000
00100000
10000000
00000000
10000000
00010000
01000000
,  // measure 64
00100000
00000000
10000000
01000000
00000000
01000000
00100000
00000000
,  // measure 65
00100000
00010000
00000000
00010000
01000000
00000000
01000000
00100000
,  // measure 66
00000000
00100000
00010000
00000000
00010000
00001000
00000000
00001000
,  // measure 67
00000010
00000000
00000010
00000001
00000100
00000010
00001000
00000100
,  // measure 68
00000010
00000000
00000010
00000001
00000000
00000001
00000100
00000000
,  // measure 69
00000100
00001000
00000000
00001000
00010000
00000000
00010000
01000000
,  // measure 70
00000000
01000000
10000000
00000000
10000000
00010000
00000000
00010000
,  // measure 71
00100000
01000000
10000000
00100000
01000000
00010000
00100000
01000000
,  // measure 72
10000000
00000000
00100000
10000000
00000000
10000000
01000000
00000000
,  // measure 73
01000000
00010000
00000000
00010000
00001000
00000000
00001000
00000100
,  // measure 74
00000000
00000100
00000001
00000000
00000001
00001000
00000000
00001000
,  // measure 75
00000010
00000100
00000001
00000010
00000100
00001000
00000010
00000100
,  // measure 76
00000001
00000010
00001000
00010000
00000100
00010000
00001000
01000000
,  // measure 77
00001000
00010000
00100000
10000000
01000000
10000000
00100000
00010000
,  // measure 78
00001000
01000000
00001000
00010000
00000100
00010000
00001000
00000010
,  // measure 79
00000001
00000100
00000010
00001000
00010000
01000000
00100000
00000000
,  // measure 80
10000000
00100000
00010000
00001000
01000000
00001000
00010000
00000100
,  // measure 81
00010000
00001000
00000010
00000001
00000100
00000001
00000010
00001000
,  // measure 82
00010000
00000100
00010000
00001000
01000000
00001000
00010000
00100000
,  // measure 83
10000000
01000000
00100000
00010000
00001000
00000100
00000010
00000000
,  // measure 84
00000001
00000011
00000010
00000110
,  // measure 85
00000100
00000000
00010100
00000000
00010000
00000000
00011000
00001000
,  // measure 86
00100000
00110000
00010000
01010000
,  // measure 87
01000000
00000000
01100000
00000000
00100000
00000000
10000000
01000000
,  // measure 88
00020000
00000000
00000000
00000000
,  // measure 89
00000000
00000000
00000000
00000000
,  // measure 90
00000000
00000000
00000000
00000000
,  // measure 91
00000000
00000000
00000000
00000000
,  // measure 92
00000000
00000000
00000000
00000000
,  // measure 93
00000000
00000000
00000000
00030000
,  // measure 94
00001000
00000101
00000010
00001100
,  // measure 95
00000010
00000000
00010100
00000000
00001000
00000000
00100000
00010000
,  // measure 96
10000000
01100000
10000000
01010000
,  // measure 97
00100000
00000000
00011000
00000000
00000100
00000000
00000010
00001000
,  // measure 98
00000001
00000000
00001010
00000000
00000100
00000000
00000001
00000010
,  // measure 99
00001000
00000000
00010100
00000000
00100000
00000000
00010000
01000000
,  // measure 100
00100000
10000000
00000000
10000000
01000000
00000000
00010000
00000000
,  // measure 101
00011000
00000000
00000100
00000000
00000010
00000001
00000010
00000001
,  // measure 102
00001000
00000011
00000100
00001010
,  // measure 103
00000100
00000000
00010010
00000000
00001000
00000000
01000000
00010000
,  // measure 104
10000000
01100000
10000000
00110000
,  // measure 105
01000000
00000000
00011000
00000000
00000010
00000000
00000100
00001000
,  // measure 106
00000001
00000000
00001100
00000000
00000010
00000000
00000001
00000100
,  // measure 107
00001000
00000000
00010010
00000000
01000000
00000000
00010000
00100000
,  // measure 108
01000000
10000000
00000000
10000000
01000000
00000000
00010000
00000000
,  // measure 109
00011000
00000000
00000010
00000000
00000100
00000001
00000100
00000001
,  // measure 110
00001000
00000001
00000010
00001000
00010000
00000100
00000001
00000100
,  // measure 111
00010000
00001000
00100000
10000000
00010000
01000000
10000000
00100000
,  // measure 112
00010000
00000010
00000001
00000010
00001000
00000100
00000001
00000100
,  // measure 113
00010000
00001000
00100000
10000000
00100000
00001000
00010000
01000000
,  // measure 114
10000000
00010000
00100000
00001000
01000000
10000000
01000000
00001000
,  // measure 115
00010000
00000010
00000001
00000010
00001000
00000100
00000010
00001000
,  // measure 116
00010000
00000100
00000001
00000100
00010000
00001000
00100000
10000000
,  // measure 117
00100000
00001000
00010000
01000000
10000000
00100000
01000000
00001000
,  // measure 118
00010000
00000100
00000001
00001000
00000010
00000001
00000100
00001000
,  // measure 119
00100000
10000000
00010000
01000000
10000000
00100000
01000000
00010000
,  // measure 120
10000000
01000000
00010000
00000100
00000010
00000100
00010000
00001000
,  // measure 121
00100000
01000000
00100000
00001000
00000010
00000001
00001000
00000100
,  // measure 122
00010000
00010000
00100000
00001000
00001000
00000100
00010000
00010000
,  // measure 123
01000000
00001000
00001000
00000010
00010000
00001000
00100000
00010000
,  // measure 124
10000000
10000000
00010000
00010000
00001000
00001000
00000001
00000001
,  // measure 125
00001001
00010010
00101000
01010000
,  // measure 126
10010000
00000000
00000000
00000000
;
