#TITLE:INSECTICIDE;
#SUBTITLE:;
#ARTIST:CAMELLIA;
#TITLETRANSLIT:;
#SUBTITLETRANSLIT:;
#ARTISTTRANSLIT:;
#GENRE:;
#CREDIT:;
#BANNER:;
#BACKGROUND:;
#LYRICSPATH:;
#CDTITLE:;
#MUSIC:INSECTICIDE.ogg;
#OFFSET:-0.370000;
#SAMPLESTART:86.903000;
#SAMPLELENGTH:14.472000;
#SELECTABLE:YES;
#DISPLAYBPM:*;
#BPMS:0.000000=199.000000
,60.000000=398.000000
,110.000000=199.000000
,262.000000=298.500000
,268.000000=398.000000
,283.000000=199.000000
,377.000000=398.000000
,443.000000=99.500000
,459.000000=149.250000
,461.000000=199.000000
,463.000000=298.500000
,466.000000=398.000000
;
#STOPS:60.000000=0.905000,
110.000000=0.905000,
282.000000=0.151000,
377.000000=0.302000
;
#BGCHANGES:;
#KEYSOUNDS:;
#ATTACKS:;

//---------------dance-single - 氷ベア----------------
#NOTES:
     dance-single:
     氷ベア:
     Beginner:
     4:
     0.278761,0.449899,0.192059,0.084506,0.000000,254.000000,229.000000,25.000000,11.000000,0.000000,0.000000,0.278761,0.449899,0.192059,0.084506,0.000000,254.000000,229.000000,25.000000,11.000000,0.000000,0.000000:
0000
0000
0000
0000
,
0000
0000
0000
0000
,
0000
0000
0000
0000
,
0000
0000
0000
0000
,
0000
0000
0000
0000
,
0000
0000
0000
0000
,
0000
0000
0000
0000
,
0000
0000
0000
0000
,
1001
0000
0000
0000
,
0100
0000
0000
0000
,
0110
0000
0000
0000
,
0001
0000
0000
0000
,
1001
0000
0000
0000
,
0100
0000
0000
0000
,
0110
0000
0000
0000
,
1000
0000
0001
0000
,
0001
0000
0001
0000
,
0000
0000
0100
0000
,
0100
0000
0100
0000
,
0000
0000
0010
0000
,
0010
0000
0010
0000
,
0000
0000
1000
0000
,
1000
0000
1000
0000
,
0000
0000
0001
0000
,
0001
0000
0100
0000
,
0100
0000
0010
0000
,
0010
0000
1000
0000
,
1000
0000
1001
0110
,
0000
0000
0000
0100
,
0000
0100
0000
0000
0100
0000
0100
0000
,
0001
0100
0000
0010
,
0000
0010
0000
0000
0010
0000
0010
0000
,
1000
0010
0000
1000
,
0000
1000
0000
0000
1000
0000
1000
0000
,
0001
1000
0000
0001
,
0000
0001
0000
0000
0001
0000
0001
0000
,
1000
0001
0000
0010
,
0010
0100
0000
1000
,
1000
0001
0000
0100
,
0100
0001
0000
0010
,
0000
0110
0000
0100
,
0100
0010
0000
0001
,
0001
1000
0000
0010
,
0010
0100
0000
2002
,
0000
3003
0000
1000
,
0010
0000
0010
0100
,
0001
0000
0001
0010
,
0100
0000
0100
1000
,
0010
0000
0010
1000
,
0001
0000
0001
0100
,
0010
0000
0010
1000
,
0100
0000
0100
1000
,
0000
1001
0000
0001
,
0001
0001
0000
0010
,
0000
0110
0000
1000
,
1000
1000
0000
0010
,
0000
0220
0000
0330
,
0000
0001
0001
0001
,
0000
1000
0000
0110
,
0000
0010
0100
0010
,
0000
0110
0000
1000
,
0001
1000
0000
1001
,
0000
1000
0100
1000
,
0001
0100
0001
0100
,
0010
0100
0220
0000
,
0000
0000
0000
0000
,
0000
0000
0000
0000
,
0000
0000
0000
0000
,
0000
0000
0000
0000
,
0000
0000
0000
0000
,
0000
0330
0000
0010
,
0000
0100
0000
1000
,
1000
1000
0000
0010
,
0000
0100
0000
0001
,
0001
0001
0000
1000
,
1000
1000
0000
0001
,
0001
0001
0000
0100
,
0000
0010
0000
2002
,
0000
3003
0000
1000
,
0010
1000
0000
0010
,
1000
0010
0000
0100
,
0001
0100
0000
0001
,
0100
0001
0000
0010
,
0001
0010
0000
0001
,
0010
0001
0000
1000
,
0100
1000
0000
0100
,
1000
0100
0000
0110
,
0000
0001
0001
0100
,
0100
0010
0000
0110
,
0000
1000
1000
0010
,
0010
0100
0000
0000
,
0110
0100
0100
0001
,
0001
1000
0000
1001
,
0000
0110
0000
2002
,
0000
3003
0000
1000
,
0000
0100
0000
1000
,
0000
0100
0000
1000
,
0000
0100
0000
1000
,
0000
0000
0000
0001
,
0000
0100
0000
0001
,
0000
0100
0000
0001
,
0000
0100
0000
0001
,
0000
0000
0000
1000
,
0000
0010
0000
1000
,
0000
0001
0000
0010
,
0000
0001
0000
1000
,
0000
0000
0000
0010
,
0000
0100
0000
0010
,
0000
1000
0000
0001
,
0000
1000
0000
1001
,
0000
1001
0000
1001
,
0000
0000
0000
0010
,
0000
0000
0000
0100
,
0000
0000
0000
0001
,
0000
0000
0000
0000
0000
2000
0000
0000
,
0000
0000
0000
0000
,
0000
0000
0000
0000
,
0000
3000
0000
0000
0000
0000
0000
0000
;

//---------------dance-single - 氷ベア----------------
#NOTES:
     dance-single:
     氷ベア:
     Easy:
     7:
     0.480697,0.629859,0.468625,0.061459,0.065300,438.000000,377.000000,61.000000,8.000000,0.000000,0.000000,0.480697,0.629859,0.468625,0.061459,0.065300,438.000000,377.000000,61.000000,8.000000,0.000000,0.000000:
0000
0000
0000
0000
,
0000
0000
0000
0000
,
0000
0000
0000
0000
,
0000
0000
0000
0000
,
0000
0000
0000
0000
,
0000
0000
0000
0000
,
0000
0000
0000
0000
,
0000
0000
0000
0000
,
1100
0000
0000
1001
0000
0000
1100
0000
,
0011
0000
0000
1001
0000
0000
0011
0000
,
0101
0000
0000
1001
0000
0000
0101
0000
,
1010
0000
0000
1001
0000
0000
1010
0000
,
0101
0000
0000
2001
0000
0000
3100
0000
,
0011
0000
0000
2001
0000
0000
3010
0000
,
1100
0000
0000
0021
0000
0000
0130
0000
,
1001
0000
1000
0000
,
0100
0000
1000
0100
,
1000
0000
0001
0000
,
0100
0000
0001
0100
,
0001
0000
0100
0000
,
0010
0000
0100
0010
,
0100
0000
0001
0000
,
1000
0000
0001
1000
,
0001
0000
1000
0010
,
1000
0000
0001
0010
,
0001
0000
1000
0100
,
1000
0000
0001
0100
,
0001
0000
1001
0110
,
1000
0001
1000
0000
0001
0000
0100
0000
,
0010
0100
0000
0000
0110
0000
0100
0000
,
0001
0010
0100
1000
,
0100
1000
0000
0000
1100
0000
0001
0000
,
0010
0100
1000
0011
,
0010
0001
0000
0000
0101
0000
0100
0000
,
0010
1000
0001
0110
,
0100
0000
0010
0000
0000
0000
0100
0000
0000
0010
0000
0000
0100
0000
0000
0000
,
1000
0001
0100
0010
,
0100
0000
0010
1000
0010
0000
0100
0000
,
0001
0000
0100
0010
0100
0000
0001
0000
,
0010
0000
0000
0000
0000
0000
0000
0000
0000
0001
0000
0000
0000
0000
0000
0000
0000
0000
1000
0000
0000
0000
0000
0000
0000
0000
0000
0001
0000
0000
0000
0000
0000
0000
0000
0000
0100
0000
0000
0000
0000
0000
0000
0000
0010
0000
0000
0000
,
0000
0100
0000
0010
0000
0000
1001
0000
0000
0100
0000
0000
,
0010
0000
1000
0001
0100
0000
0010
0000
,
0100
0000
0001
0010
0100
0000
1000
0100
,
1000
1001
0100
0220
,
0000
0330
0000
0100
,
1001
0000
0010
1000
0100
0000
0010
0000
,
0011
0000
0001
0100
0010
0000
1000
0000
,
0101
0000
0010
1000
0100
0000
1000
0000
,
1010
0000
0010
0100
0001
0000
0010
0000
,
0011
0000
0010
0100
1000
0000
0001
0000
,
0101
0000
0010
1000
0001
0000
0010
0000
,
0110
0000
0100
1000
0010
0000
0200
0000
,
0300
0110
1000
0001
,
0010
0001
0001
1000
,
0010
0100
0001
1000
,
0100
1000
1000
0010
,
0001
0100
1000
0110
,
1001
0010
0001
0010
,
0010
0100
1000
0010
,
0100
0001
0010
0100
,
0100
0000
1000
0000
0001
0100
0001
0000
,
0010
0100
0100
1000
,
0100
0001
0010
1000
,
0100
1000
0001
0000
0100
0000
0010
0000
,
1000
0001
1000
0001
0020
0000
0000
0000
,
0000
0000
0000
0000
,
0000
0000
0000
0000
,
0000
0000
0000
0000
,
0000
0000
0000
0000
,
0000
0000
0000
0000
,
0000
0000
0030
0100
,
1000
0010
0100
0001
,
0010
0100
0000
0010
,
0001
0100
0010
1000
,
0001
0010
0000
0100
,
1000
0000
0100
1000
0100
0000
0010
0000
,
0001
0000
0010
0001
0010
0000
0001
1000
,
0001
0000
0100
0010
0100
0000
1001
0000
,
0100
0001
1000
0000
1001
0000
1000
0000
,
0010
0100
0001
0010
,
0100
0000
0010
0001
0010
0000
0100
0000
,
1000
0010
0100
0001
,
0100
0000
0010
1000
0010
0000
0100
0000
,
0001
1000
0100
0001
,
0100
0000
1000
0100
1000
0000
0010
0000
,
0100
0010
0001
0010
,
1000
0000
0001
0100
0001
0000
1001
0000
,
0110
0000
0100
0000
1000
0100
1000
0000
,
0010
0100
0001
0011
,
1100
0000
0001
0010
0001
0000
0100
0000
,
0010
1000
0001
0000
,
1001
0000
0100
0010
0100
0000
1000
0000
,
0010
0100
0001
1000
,
1100
0001
0101
1000
,
0001
1001
0000
0001
,
0000
1000
0000
0001
,
1000
0001
0000
0100
,
0000
0001
0000
0101
,
0000
1001
0000
1000
,
0000
0010
0000
1000
,
0010
1000
0000
0010
,
0000
0100
0000
0110
,
0000
1001
0000
0001
,
0000
0010
0000
0001
,
0010
0001
0000
1000
,
0000
0100
0000
1100
,
0000
1001
0000
0001
,
0000
0010
0000
0100
,
1000
0100
0000
0010
,
0000
0001
0000
1001
,
0000
0000
0000
0000
0110
0000
0000
0000
0000
0000
0000
0000
1001
0000
0000
0010
,
0000
0000
0000
0100
0000
0000
0000
0001
0000
0000
0000
0000
0011
0000
0000
0100
,
0000
0000
0000
1000
0000
0000
0000
0010
0000
0000
0100
0000
0110
0000
0000
1000
,
0000
0000
0000
0001
0000
0000
0000
0010
0000
0000
0000
0000
0110
0000
0000
0100
,
0000
0000
0000
1000
0000
0000
0000
0001
0000
0000
0200
0000
0000
0000
0000
0000
,
0000
0000
0000
0000
,
0000
0000
0000
0000
,
0000
0300
0000
0000
0000
0000
0000
0000
;

//---------------dance-single - 氷ベア----------------
#NOTES:
     dance-single:
     氷ベア:
     Medium:
     9:
     0.729826,0.944789,0.376437,0.030730,0.149806,665.000000,616.000000,49.000000,4.000000,0.000000,0.000000,0.729826,0.944789,0.376437,0.030730,0.149806,665.000000,616.000000,49.000000,4.000000,0.000000,0.000000:
0000
0000
0000
0000
,
0000
0000
0000
0000
,
0000
0000
0000
0000
,
0000
0000
0000
0000
,
0000
0000
0000
0000
,
0000
0000
0000
0000
,
0000
0000
0000
0000
,
0000
0000
0000
0000
,
1000
0010
0100
0100
0001
0010
0100
0000
,
0010
0001
1000
1000
0010
0100
0001
0000
,
1000
0001
0010
0010
0001
0100
0010
0000
,
0010
0100
0001
0001
0010
0100
1000
0000
,
0010
1000
0100
0100
1000
0001
0100
0000
,
0010
1000
0001
0001
0010
0100
1000
0000
,
0100
1000
0010
0010
0100
0001
0010
0000
,
0110
0000
0100
1000
,
0100
1000
0010
0010
,
0100
0000
0001
0100
,
0001
0010
0100
0100
,
1000
0000
0010
1000
,
0100
1000
0001
0001
,
0100
0000
0010
1000
,
0001
0000
0001
0000
0011
0000
0000
1001
,
0000
1100
1000
0010
,
1000
0010
0100
0001
,
0100
0001
0010
0001
,
0010
0100
1000
0100
,
0010
0001
1001
0110
,
1000
0001
0100
0000
0110
0000
0010
1000
,
0010
0000
0010
0000
0100
0000
0001
0000
1000
0000
0000
0000
0100
0000
0000
0100
,
0000
0010
0001
1000
0010
0100
0001
0100
,
0010
0010
0100
0001
1000
0000
0100
1000
,
0010
0100
0001
1000
0100
0000
0010
0001
,
1000
1000
0010
0100
0001
0000
0010
0001
,
0100
0010
0100
0001
1000
0100
0010
0001
,
1000
0000
0001
0000
0001
0000
0100
0000
0000
0010
0000
0000
0100
0000
0001
0000
,
0010
0100
1000
0010
0110
0000
0001
1000
,
1000
1000
0010
0100
0010
0100
0001
0010
,
0010
0100
0100
1000
1000
0010
0100
0000
,
0110
0000
0000
0000
0000
0000
0000
0000
0000
0010
0000
0000
0000
0000
0000
0000
0000
0000
0100
0000
0000
0000
0000
0000
0000
0000
0000
0001
0000
0000
0000
0000
0000
0000
0000
0000
1000
0000
0000
0000
0000
0000
0000
0000
0100
0000
0000
0000
,
0000
0000
0010
0000
0000
0000
0001
0000
1000
0000
0001
0000
1000
0000
0000
0000
0000
0000
0010
0000
0000
0100
0000
0000
,
0100
0100
0001
0010
0110
0000
0100
1000
,
1000
1000
0010
0100
1001
0000
0001
0100
,
0010
0010
0110
1000
0001
0000
2002
0000
,
3003
0000
0010
0100
0001
0000
0010
0000
,
0110
0100
1000
0001
0101
0000
0010
0000
,
1010
0010
0100
0001
0011
0000
0100
0000
,
1100
0010
1000
0100
1001
0000
0100
0000
,
0101
0010
1000
0001
0110
0000
0100
0000
,
1100
0100
0010
0001
1001
0000
0010
1000
,
0100
1000
0001
0100
0110
0000
1000
0000
,
1100
0010
0001
1000
0101
0000
1001
0000
,
0010
0100
0001
1000
0100
0000
0010
0001
,
0001
1000
0010
1000
0100
1000
0010
0100
,
0001
0010
0100
1000
0010
0000
0010
0100
,
0100
0001
0001
1000
0100
0100
0010
0001
,
0100
0000
1000
0000
0100
0000
0001
0000
0010
0000
0100
0000
1100
0000
0000
1001
,
0000
0101
0010
0100
0100
0001
0010
0001
,
1000
0001
0100
0010
1000
0100
0001
0100
,
1000
0000
0010
0100
0100
0001
0001
1000
,
0010
0100
0010
0010
1000
0001
0010
0100
,
0100
0001
1000
1000
0010
0010
0001
0100
,
1000
0100
0001
0010
0100
1000
0010
0100
,
0001
0010
0001
0000
0010
0000
0100
0000
1000
0000
0010
0000
0100
0000
0001
0000
,
0010
0000
0100
0000
1000
0001
1000
0000
0020
0000
0000
0000
0000
0000
0000
0000
,
0000
0000
0000
0000
,
0000
0000
0000
0000
,
0000
0000
0000
0000
,
0000
0000
0000
0000
,
0000
0000
0000
0000
,
0000
0000
0000
0000
0030
0000
1000
0010
,
0100
0001
0100
0010
1000
0000
0001
0010
,
0100
1000
0100
0001
1000
0000
0010
0001
,
0100
1000
0100
0001
0010
0000
0100
1000
,
0010
0001
0010
1000
0100
0000
0010
0001
,
0010
0010
0001
0100
0010
0000
1000
0010
,
0100
0100
0010
1000
0100
0000
0010
0001
,
1000
0010
0100
0001
1000
0100
0110
0000
,
0001
1000
0010
0000
0110
0000
0100
0001
,
0010
0001
1000
0010
1000
0100
0010
0100
,
1000
0001
0100
0010
1000
0001
0100
0001
,
0010
0001
1000
0010
1000
0100
0010
0100
,
1000
0001
0100
0010
1000
0000
0001
0100
,
0010
0100
0001
1000
0100
1000
0010
1000
,
0001
0010
0100
1000
0010
0100
0010
1000
,
0001
0010
0001
0100
0010
1000
0100
1000
,
0001
0100
0010
1000
0001
0000
1001
0000
,
0001
0010
1000
0010
0001
0100
1000
0100
,
0001
0010
0100
1000
0010
0100
0101
0000
,
0010
1000
0100
0001
0100
0010
0001
0100
,
1000
0100
0001
0010
0100
1000
0010
0000
,
0110
0100
1000
0100
0001
1000
0100
0001
,
0100
0000
0010
0000
0001
0000
1000
0000
0010
0000
0100
0000
0001
0000
0000
0101
,
0000
0000
0000
0000
0000
0000
0010
0000
0000
0000
0000
0000
1000
0000
0000
0000
0000
0000
0000
0000
0000
1010
0000
0000
0000
0000
0000
0000
0000
0000
1000
0000
0000
0000
0000
0000
0001
0000
0000
0000
1000
0000
0000
0000
0001
0000
0000
0000
,
1000
0001
1000
0001
0000
0000
0000
0000
0000
0001
0000
0000
,
0010
0100
0100
0010
,
0001
1000
0000
0010
,
0100
0001
1000
1100
,
0000
0011
0000
0010
,
0001
1000
1000
0010
,
0100
0001
1000
0100
,
0010
0100
1000
1001
,
0000
0110
0000
0010
,
1000
0100
0001
1000
,
0010
0001
0000
0001
,
0100
1000
0100
0101
,
0000
1010
0000
0010
,
1000
0100
0001
1000
,
0010
0100
1000
0001
,
0100
1000
0100
0101
,
0000
0000
0000
0000
1010
0000
0000
0000
0000
0000
0000
0000
1001
0000
0010
1000
,
0000
0100
0000
1000
0000
0001
0000
0100
0000
0001
0000
0000
0011
0000
0100
1000
,
0000
0010
0000
0100
0000
0001
0000
0100
0010
0000
0100
0000
0101
0000
1000
0100
,
0000
0010
0000
0001
0000
0100
0000
0010
0000
1000
0000
0000
1010
0000
0100
0001
,
0000
0010
0000
0100
0000
1000
0000
0001
0100
0000
0020
0000
0000
0000
0000
0000
,
0000
0000
0000
0000
,
0000
0000
0000
0000
,
0000
0030
0000
0000
0000
0000
0000
0000
;

//---------------dance-single - 氷ベア----------------
#NOTES:
     dance-single:
     氷ベア:
     Hard:
     11:
     0.919691,1.124748,0.445578,0.061459,0.522402,838.000000,780.000000,58.000000,8.000000,0.000000,0.000000,0.919691,1.124748,0.445578,0.061459,0.522402,838.000000,780.000000,58.000000,8.000000,0.000000,0.000000:
0000
0000
0000
0000
,
0000
0000
0000
0000
,
0000
0000
0000
0000
,
0000
0000
0000
0000
,
0000
0000
0000
0000
,
0000
0000
0000
0000
,
0000
0000
0000
0000
,
0000
0000
0000
0000
,
1001
0100
1000
0001
0100
0001
1000
0000
,
0001
0010
0001
1000
0010
1000
0001
0000
,
0100
0010
0100
0001
0100
0001
1000
0000
,
0100
1000
0100
0010
0100
0010
0001
0000
,
0100
0001
0010
0100
1000
0001
0100
0000
,
0010
1000
0001
0100
0010
0100
0001
0000
,
0010
0100
1000
0010
0001
0010
1000
0100
,
1001
0000
0001
0010
,
0100
1000
0010
0100
,
0102
0000
1003
0010
,
0100
0001
0010
0100
,
2100
0000
3010
0100
,
1000
0100
0001
0010
,
0021
0000
0130
1000
,
0010
0000
0100
0000
0101
0000
0000
1001
,
0000
0000
1100
0000
0010
0001
0010
0000
,
0100
0010
0100
0000
1000
0100
1000
0000
,
0001
1000
0001
0000
0100
0010
0100
0010
,
1000
0001
1000
0001
0010
0100
1000
0010
,
0100
0001
0010
0100
1000
0000
1001
0000
,
0010
0000
0100
0000
0110
0000
0000
0000
1001
0000
0000
0000
0010
0000
0100
0001
,
0100
0000
0010
0000
1000
0000
1000
0000
0010
0000
0100
0000
0001
0000
0010
0001
,
0000
0010
0100
0000
1000
0100
1000
0100
1000
0000
0010
0000
0100
0000
0001
1000
,
0001
0000
0010
0000
0100
0000
1000
0100
0000
1000
0000
0010
0100
0000
0001
0000
,
0001
0000
1000
0010
1000
0000
0001
0000
0010
0100
0010
0100
1000
0000
0001
0100
,
0001
0000
0010
0000
0100
0000
1000
0000
0010
0000
0100
0000
0001
0000
0010
0100
,
0010
0100
0010
0000
0001
0000
1000
0000
0010
0000
1000
0000
0100
0010
0001
1000
,
0100
0000
0010
0001
0010
0000
0110
0000
0100
1000
0000
0001
0100
0000
0010
0000
,
1000
0000
0100
0000
0010
0001
0010
0001
1000
0010
1000
0000
0100
0000
1000
0001
,
1000
0001
1000
0000
0010
0000
0100
0000
0001
0000
0100
0000
0010
0000
1000
0100
,
1000
0000
0001
0100
0001
0000
0010
0100
0010
0000
0000
0000
0100
0000
0000
0000
,
1100
0000
0000
0000
0000
0000
0010
0000
0000
1000
0000
0000
0010
0000
0000
0000
0000
0000
0110
0000
0000
0000
0000
0000
0000
0000
0000
1001
0000
0000
0000
0000
0000
0000
0000
0000
0011
0000
0000
0000
0000
0000
0000
0000
1001
0000
0000
0000
,
0000
0000
0000
0000
1100
0000
0000
0000
0000
0000
0000
0000
1000
0000
0000
0000
0010
0000
0000
0000
0100
0000
0000
0000
0001
0000
0000
0000
0000
0000
1000
0000
0000
0000
0000
0000
0010
0000
0000
0000
0000
0000
0100
0000
0000
0001
0000
0000
,
0100
0001
0100
0000
0010
0000
1000
0000
1001
0000
0000
0000
0100
0000
0010
0001
,
0010
0001
1000
0000
0010
0000
0100
0000
0001
0000
0000
0000
0010
0000
0001
0100
,
0001
0100
0010
0000
1000
0001
1000
0100
1000
0000
0001
0000
2002
0000
0000
0000
,
3003
0000
0000
0000
0001
0100
0001
0100
0001
1000
0001
1000
0100
0000
0000
0000
,
1100
0000
0010
0000
0000
0000
0011
0000
0100
0001
0100
0000
0010
0000
1000
0010
,
1000
0010
0001
0010
1000
0000
0100
0000
,
0011
0000
0100
0000
0000
0000
1100
0000
0001
0100
0001
0000
0100
0000
0010
0000
,
1000
0000
0000
0000
0100
0000
0000
0000
1000
0000
0000
0000
0001
0000
0000
0000
0000
0000
0100
0000
0000
0001
0000
0000
0100
0000
0000
0000
0000
0000
0000
0000
0000
0000
0000
0000
0010
0000
0000
0000
0000
0000
0000
0000
0000
0000
0000
0000
,
1010
0000
0001
0000
0000
0000
1001
0000
0100
0010
0100
0000
1000
0000
0001
0100
,
0001
0000
1000
0000
0010
1000
0010
0000
0100
0000
0001
0000
0010
0000
0000
0000
,
1100
0000
0010
0000
0000
0000
0101
0000
0010
1000
0010
0000
0110
0000
0000
0000
,
0001
0000
1000
0000
0010
0000
0100
0000
0001
0010
0100
1000
0010
0000
0100
0000
,
0010
0000
1000
0000
0001
1000
0001
0000
0100
0000
0010
0000
0100
0000
0001
0000
,
0010
0110
1000
0001
1001
0100
0010
1000
,
0010
0000
0100
0000
0001
0000
0001
0000
1000
0001
1000
0000
0100
0000
0001
0000
,
0100
0000
0000
0000
1001
0000
0010
0000
0001
0000
0010
0000
1010
0000
0000
1001
,
0000
0000
0101
0000
0001
0000
0010
0000
0001
0000
1000
0000
0100
1000
0100
0000
,
1000
0001
1000
0010
0100
0001
0010
0100
,
1000
0001
0100
0010
0100
0001
1000
1000
,
0100
0010
0100
0000
0010
0001
0010
0000
0100
0000
1000
0100
1000
0000
0001
0000
,
0100
0010
1000
0001
1000
0100
0010
0100
,
0001
1000
0001
0100
1000
0010
0001
1000
,
0001
0010
0100
1000
0001
0000
0010
0000
1000
0000
0001
0000
1000
0000
0100
0000
,
0010
0000
0001
0000
0100
0010
1000
0000
2002
0000
0000
0000
0000
0000
0000
0000
,
0000
0000
0000
0000
,
0000
0000
0000
0000
,
0000
0000
0000
0000
,
0000
0000
0000
0000
,
0000
0000
0000
0000
,
0000
0000
0000
0000
3003
0000
1001
0010
,
0100
0001
0100
1000
0100
0001
0010
0100
,
1000
0010
0100
0001
0010
0000
0110
0110
,
0110
0100
1000
0001
0100
0010
0100
0001
,
0010
0100
1000
0001
0010
0100
1000
0100
,
0001
0100
1000
0010
0100
0000
0001
0100
,
1000
0000
0100
0000
0001
0000
0010
0000
0100
0000
0000
0000
1000
0010
1000
0000
,
0001
0010
0001
0000
0100
0010
0100
0000
0001
1000
0001
0000
1001
0000
0000
0000
,
0010
0100
0001
0000
1001
0000
1000
0010
,
0100
0000
0001
0010
0001
0000
0100
0000
0010
1000
0010
0000
0100
0000
0001
0100
,
0001
0000
1000
0100
1000
0000
0010
0000
0100
0000
0001
0000
0010
0000
0001
0000
,
0100
0000
0010
1000
0010
0000
0100
0000
0001
1000
0001
0000
0010
0000
0100
1000
,
0100
0000
0010
0001
0010
0000
0100
0000
1000
0000
0010
0000
0100
0000
0001
0000
,
1000
0000
0100
1000
0100
0000
1000
0000
0001
0100
0001
0000
0010
0000
0001
0010
,
0001
0000
1000
0010
1000
0000
0010
0000
0100
0000
0001
0000
0100
0000
0010
0000
,
1000
0000
0001
0010
0001
0000
1000
0000
0100
1000
0100
0000
0010
0000
0001
1000
,
0001
0000
0100
0010
0100
0000
0001
0000
0010
0000
0100
0000
1001
0000
0010
0000
,
0001
0000
1000
0010
0100
0000
0001
0000
0100
0010
1000
0000
0001
0000
1000
0010
,
0100
0000
0001
0100
0010
0000
1000
0000
0001
0000
0010
0000
0100
0000
1000
0000
,
0010
0000
1000
0100
0010
0000
0001
0000
0010
0001
0100
0000
0010
0000
0100
0001
,
1000
0000
0100
1000
0010
0000
0100
0001
0010
0000
0100
0000
1000
0000
0000
0000
,
0110
0000
0001
1000
0010
0000
0100
0000
0010
1000
0100
0000
0010
0000
0001
1000
,
0100
0000
0010
0001
1000
0000
0010
0100
0001
0000
1000
0000
1001
0000
0010
0100
,
0000
0000
0000
0000
0000
0000
1000
0000
0000
0000
0000
0000
0110
0000
0000
0000
0000
0000
0001
0000
0000
1000
0000
0000
0000
0000
0000
0000
0000
0000
0010
0000
0000
0000
0000
0000
1000
0000
0000
0000
0010
0000
0000
0000
0100
0000
0000
0000
,
0001
0000
0010
0000
0100
0000
1000
0000
0000
0000
0000
0000
0000
0000
0000
0000
0000
0000
0001
0000
0000
0010
0000
0000
,
0001
0000
1000
0100
1000
0000
0001
0010
,
0001
0000
1000
0100
1000
0000
0001
0010
,
0001
0000
1000
0100
1000
0000
0011
0000
,
0100
0000
1100
0000
0000
0000
0001
0100
,
0001
0000
1000
0010
1000
0000
0001
0100
,
0001
0000
1000
0010
1000
0000
0001
0100
,
0001
0000
1000
0010
1000
0000
0101
0000
,
0010
0000
1010
0000
0000
0000
0010
1000
,
0100
0000
0010
0001
0100
0000
0010
0100
,
0001
0000
0010
0100
1000
0000
0100
0010
,
0001
0000
0100
0010
1000
0000
1010
0000
,
0100
0000
1001
0000
0000
0000
0010
0001
,
0100
0000
0001
1000
0010
0000
0100
0010
,
1000
0000
0100
0010
0001
0000
0100
0010
,
1000
0001
0010
0100
1000
0001
0100
0000
,
0110
0000
0000
0000
1001
0000
0000
0000
0000
0000
0000
0000
1001
0010
0100
0001
,
0000
0100
0000
0010
0000
1000
0000
0100
0000
0010
0000
0000
0011
0100
1000
0010
,
0000
0100
0000
0001
0000
1000
0000
0100
0010
0001
1000
0000
0110
0100
1000
0010
,
0000
0100
0000
0001
0000
0010
0000
0100
0000
1000
0000
0000
1001
0001
1000
0010
,
0000
0100
0000
0001
0000
0010
0000
0100
1000
0001
0200
0000
0000
0000
0000
0000
,
0000
0000
0000
0000
,
0000
0000
0000
0000
,
0000
0300
0000
0000
0000
0000
0000
0000
;

//---------------dance-single - 氷ベア----------------
#NOTES:
     dance-single:
     氷ベア:
     Challenge:
     11:
     1.059071,1.349698,0.806650,0.169012,0.679891,965.000000,860.000000,105.000000,22.000000,0.000000,0.000000,1.059071,1.349698,0.806650,0.169012,0.679891,965.000000,860.000000,105.000000,22.000000,0.000000,0.000000:
0000
0000
0000
0000
,
0000
0000
0000
0000
,
0000
0000
0000
0000
,
0000
0000
0000
0000
,
0000
0000
0000
0000
,
0000
0000
0000
0000
,
0000
0000
0000
0000
,
0000
0000
0000
0000
,
0011
0100
1000
1100
0010
1000
0001
0000
,
0101
0010
1000
1001
0100
0001
1000
0000
,
1010
0010
0001
0101
0010
1000
0100
0000
,
0011
0100
1000
1010
0100
0001
1000
0000
,
0110
1000
0100
0011
0100
1000
0010
0100
,
0101
0010
1000
1100
1000
0001
0100
0010
,
0110
1000
0001
1001
0010
0100
0001
0010
,
1100
0000
1000
0100
,
0010
0000
0001
0100
0010
0000
1010
0000
,
0202
0303
0010
0100
,
0001
0000
0010
0001
0100
0000
0110
0000
,
2020
3030
1000
0010
,
0100
0000
1000
0100
0001
0000
0011
0000
,
2200
3300
0001
0010
,
0100
0000
0001
0100
1000
0000
0010
0100
,
0000
0000
1001
0000
0001
0010
0001
0010
,
0001
0100
1000
0100
0010
1000
0010
1000
,
0010
0001
0010
0100
0001
1000
0001
1000
,
0001
0010
1000
0010
0001
0100
0001
0100
,
1000
0100
0001
0010
1000
0000
1001
0000
,
1000
0000
0001
0000
0100
0000
0000
0000
0110
0000
0000
0000
1001
0000
1000
0010
,
0100
0010
1000
0000
0001
0000
0100
0000
0110
0000
1000
0000
0001
0000
0010
0001
,
0000
0100
0010
0000
1000
0010
0001
0010
1000
0000
0001
0000
0011
0000
0001
1000
,
0001
0100
0001
0000
1000
0000
1100
0000
0010
0001
0000
1000
0010
0000
0100
0001
,
0100
0000
0010
0000
1000
0000
1000
0000
1001
0000
0100
0000
0110
0000
0001
1000
,
0001
0100
0001
0000
1000
0000
1100
0000
0010
0000
0001
0000
0100
0000
0010
1000
,
0100
1000
0001
0000
0010
0000
0100
0000
1100
0000
1000
0000
0010
0100
0010
0100
,
0001
0000
1000
0100
1000
0100
0001
0000
0100
0010
0000
0001
1000
0000
0010
0000
,
0100
0000
0001
0100
0010
0100
0001
0000
1001
0000
0000
0000
1100
0000
0001
0010
,
0001
0100
0010
0000
1000
0000
1000
0000
0001
0000
0110
0000
1000
0000
0010
0100
,
0010
0000
1000
0001
1000
0000
0100
0010
0100
0000
1000
0000
2002
0000
3003
0000
,
1001
0000
0000
0000
0000
0000
0001
0000
0000
0100
0000
0000
0000
0000
0000
0010
0000
0000
1000
0000
0000
0000
0000
0000
0100
0000
0000
0010
0000
0000
0000
0000
0000
0000
0000
0000
0011
0000
0000
0000
0000
0000
0000
0000
1010
0000
0000
0000
,
0000
0000
0000
0000
1001
0000
0000
0000
0000
0000
0000
0000
0001
0000
0000
0000
0100
0000
0000
0000
0100
0000
0000
0000
1000
0000
0000
0000
0000
0000
0001
0000
0000
0000
0000
0000
1001
0000
0000
0000
0000
0000
1000
0000
0000
0010
0000
0000
,
0100
0001
1000
0000
0001
0000
0001
0000
2010
0000
0000
0000
3001
0000
0100
0010
,
0100
0001
1000
0000
0100
0000
0010
0000
1001
0000
0000
0000
0011
0000
1000
0100
,
1000
0001
0100
0000
0010
1000
0001
0100
0010
0000
0000
0000
2002
0000
0000
0000
,
3003
0000
0000
0000
0001
0010
0001
1000
0100
1000
0010
0100
0001
0000
0000
0000
,
0101
0000
0010
0000
1000
0000
0100
0000
1000
0010
0100
0000
0010
0000
1000
0100
,
0001
0000
0100
0000
0010
0000
0010
0000
1001
0000
0000
0000
0010
0000
0100
0001
,
0100
0000
0010
0000
1000
0000
0001
0000
0010
0001
0100
0000
0010
0000
1000
0000
,
0010
0000
0000
0000
0100
0000
0000
0000
0001
0000
0000
0000
1000
0000
0000
0100
0000
0000
1000
0000
0000
0001
0000
0000
0100
0000
0000
0000
0000
0000
0000
0000
0000
0000
0000
0000
0110
0000
0000
0000
0000
0000
0000
0000
0000
0000
0000
0000
,
1000
0000
0010
0000
0100
0000
0001
0000
1000
0010
0100
0000
0001
0000
0010
0001
,
0010
0000
0100
0000
1000
0100
1000
0000
1001
0000
0010
0000
0100
0000
0000
0000
,
0101
0000
0010
0000
1000
0001
0010
0000
0100
1000
0001
0000
1001
0000
0000
0000
,
0010
0000
0010
0000
0110
0000
0100
0000
0001
0010
0100
1000
0001
0000
0001
0010
,
0100
0000
1000
0000
1000
0010
0100
0000
0001
0100
0010
0000
1000
0000
0001
0000
,
1000
0100
0010
0000
0001
0100
0010
0000
1000
0000
0100
0000
1000
0000
1000
0010
,
0100
0000
0001
0010
0100
0000
0001
0000
0100
1000
0001
0000
1000
0010
0100
0000
,
0001
0000
0000
0000
1001
0000
1000
0010
0100
0001
1000
0000
1100
0010
0000
0001
,
0100
0000
0010
0000
1000
0000
1000
0001
0010
0000
1000
0000
1000
0010
0001
0000
,
0001
0100
1000
0000
0100
0000
0010
0000
1000
0000
1001
0000
0001
0010
0100
0000
,
1000
0000
0010
0000
0100
0000
0100
0001
1000
0000
0001
0100
1000
0000
0100
0000
,
0001
0010
1000
0000
0010
0001
0010
0000
0100
0000
1000
0001
0100
0000
0010
1000
,
0100
0000
0010
0000
0100
1000
0001
0000
0100
0000
0010
0000
1010
0000
0100
0001
,
1000
1100
0010
0001
0101
0010
1000
0010
,
0100
0001
0010
0100
1000
0000
0001
0000
0010
0000
0100
0000
0001
0100
1000
0000
,
0010
0000
0100
0000
1000
0100
0001
0010
0200
0000
0000
0000
0000
0000
0000
0000
,
0000
0000
0000
0000
,
0000
0000
0000
0000
,
0000
0000
0000
0000
,
0000
0000
0000
0000
,
0000
0000
0000
0000
,
0000
0000
0000
0000
0310
0000
1100
0010
,
0001
0000
0100
0010
0100
0000
0001
0000
1000
0100
1000
0000
0010
0000
0001
0000
,
0010
1000
0001
0100
1000
0100
1001
1001
,
1001
0000
0010
0000
1000
0100
1000
0000
0010
0000
0100
0001
0100
0000
0001
0000
,
0010
1000
0010
0001
0100
0000
0110
0010
,
1010
1000
1001
0001
0011
0010
0110
0100
,
1100
0000
0010
0000
0101
0000
1000
0000
0110
0000
0001
0000
1000
0100
1000
0100
,
0001
0100
1000
0010
0100
0001
0100
0001
0100
1000
0100
0001
1001
0000
0000
0000
,
0010
0000
0001
0000
1000
0000
0000
0000
0110
0000
0000
0000
1001
0000
1000
0100
,
0010
0001
0100
0000
0010
0000
0100
0000
0001
0000
0010
0100
1000
0000
0010
0100
,
0001
0000
1000
0100
0001
0000
0100
1000
0001
0000
0100
0000
0010
0000
1000
0000
,
0100
0000
1000
0010
0100
0000
0001
0100
0000
0001
0000
1000
0100
0000
0010
0001
,
1000
0000
0010
1000
0100
0010
0100
0010
0001
0000
0100
0000
0110
0000
1000
0100
,
1000
0000
0010
0000
0100
0000
0001
0000
1000
0000
0100
1000
0001
0000
0100
0001
,
0010
0100
1000
0010
0001
0010
0100
1000
,
0100
0000
0001
0010
0100
0000
1000
0000
0010
0100
0010
0100
0001
0000
0010
0000
,
0100
0000
1000
0000
0010
0000
0100
0000
0001
1000
0001
0000
1100
0000
0010
0000
,
0100
0000
0001
0100
0010
0000
0100
0001
1000
0000
0100
0000
0010
0000
0001
0010
,
0001
0000
0100
0010
1000
0010
0100
0000
0001
0000
1000
0000
0100
0000
0010
0000
,
0001
0000
0010
0001
1000
0000
0100
1000
0001
0000
0100
0010
1000
0000
0010
0100
,
0001
0000
1000
0100
0000
1000
0010
0100
0001
0000
1000
0000
0100
0000
0000
0000
,
0110
0000
0001
1000
0100
0000
1000
0010
0100
0000
0001
0100
0010
0000
0100
0001
,
0010
0000
0100
1000
0010
0000
0100
0001
1000
0000
0001
0000
1100
0000
0010
0001
,
0000
0000
0000
0000
0000
0000
0011
0000
0000
0000
0000
0000
0101
0000
0000
0000
0000
0000
0010
0000
0000
1000
0000
0000
0000
0000
0000
0000
0000
0000
1010
0000
0000
0000
0000
0000
1000
0000
0000
0000
0010
0000
0000
0000
0001
0000
0000
0000
,
1000
0000
0100
0000
0001
0000
1001
0000
0000
0000
0000
0000
0000
0000
0000
0000
0000
0000
0001
0000
0000
0010
0000
0000
,
0001
0010
1000
0010
1000
0010
0001
0100
,
0001
0100
1000
0100
1000
0100
0001
0010
,
0001
0010
1000
0010
1000
0010
0011
0000
,
1001
0000
2020
0000
3030
0000
1000
0010
,
1000
0010
0001
0010
0001
0010
1000
0100
,
1000
0100
0001
0100
0001
0100
1000
0010
,
1000
0010
0001
0010
0001
0010
1010
0000
,
1001
0000
0202
0000
0303
0000
0001
0010
,
1000
0010
0001
0100
1000
0100
0001
0010
,
1000
0010
0001
0100
1000
0100
0001
0010
,
1000
0010
0001
0100
1000
0100
0101
0000
,
1010
0000
2002
0000
3003
0000
1000
0010
,
0001
0010
1000
0100
0001
0100
1000
0010
,
0100
1000
0100
0001
0010
0100
0001
0100
,
1000
0010
0100
1000
0100
0001
0011
0000
,
1100
0000
0000
0000
2002
0000
0000
0000
3003
0000
0000
0000
1010
0100
0001
0010
,
0000
0100
0000
1100
0000
0001
0000
0101
0000
1000
0000
0000
1001
0100
0010
0001
,
0000
0010
0000
1100
0000
0001
0000
0010
0100
1000
1001
0000
1100
0010
0001
0100
,
0000
0001
0000
0011
0000
1000
0000
1010
0000
0001
0000
0000
0101
0010
1000
0100
,
0000
0010
0000
0011
0000
1100
0000
0010
0100
0002
2000
0000
0000
0000
0000
0000
,
0000
0000
0000
0000
,
0000
0000
0000
0000
,
0000
3003
0000
0000
0000
0000
0000
0000
;

//---------------dance-double - ----------------
#NOTES:
     dance-double:
     :
     Hard:
     11:
     0.851647,1.169738,0.491672,0.169012,0.345707,776.000000,712.000000,64.000000,22.000000,0.000000,0.000000,0.851647,1.169738,0.491672,0.169012,0.345707,776.000000,712.000000,64.000000,22.000000,0.000000,0.000000:
00000000
00000000
00000000
00000000
,
00000000
00000000
00000000
00000000
,
00000000
00000000
00000000
00000000
,
00000000
00000000
00000000
00000000
,
00000000
00000000
00000000
00000000
,
00000000
00000000
00000000
00000000
,
00000000
00000000
00000000
00000000
,
00000000
00000000
00000000
00000000
,
00011000
00010000
01000000
00010000
00001000
00000010
00000001
00000000
,
00001000
00000100
00000010
00000001
00000100
00000010
00001000
00000000
,
00010000
01000000
00100000
10000000
00010000
00100000
01000000
00000000
,
10000000
01000000
00010000
00001000
00000100
00001000
00010000
00000000
,
00100000
00010000
00001000
00010000
00100000
10000000
00010000
00000000
,
10000000
01000000
00100000
00010000
00001000
00000100
00000010
00000000
,
00000011
00000001
00001100
00000010
,
00001001
00000000
00000001
00000010
,
00000100
00001000
00010000
00100000
,
00120000
00000000
10030000
00100000
,
01000000
00010000
00100000
01000000
,
21000000
00000000
30100000
00010000
,
00001000
00000100
00000001
00000010
,
00000021
00000000
00000130
00001000
,
00000010
00000000
00000100
00000000
00000101
00000000
00000000
00001001
,
00000000
00001100
00010000
00001000
,
00000010
00001000
00000010
00000000
00001000
00000000
00010000
00000000
,
00100000
00010000
00100000
00000000
10000000
00000000
00010000
00000000
,
01000000
00100000
01000000
00000000
00010000
01000000
00010000
01000000
,
00001000
00010000
00001000
00010000
00000100
00000000
00001001
00000000
,
00000010
00000000
00000100
00000000
00000110
00000000
00000000
00000000
00001001
00000000
00000000
00000000
00000010
00000000
00000001
00000100
,
00000001
00000100
00001000
00010000
00010000
00001000
00000010
00010000
,
00001000
00000100
00001000
00000000
00010000
00000000
00100000
00010000
01000000
00000000
01000000
00000000
00100000
00000000
10000000
01000000
,
10000000
01000000
00010000
00001000
00001000
00010000
00100000
00001000
,
00010000
01000000
00010000
00000000
00001000
00000000
00000010
00001000
00000100
00000000
00000010
00000000
00000001
00000100
00000001
00000100
,
00000001
00000000
00001000
00000100
00001000
00000100
00001000
00000000
00000001
00000000
00000100
00000000
00001000
00000000
00010000
01000000
,
00100000
01000000
00100000
00000000
00010000
00000000
10000000
00000000
01000000
00000000
00010000
00000000
00001000
00100000
00001000
00100000
,
00010000
00000000
00100000
00001000
00010000
00000000
00001000
00000000
00000100
00000001
00000000
00001000
00000100
00000000
00000010
00000000
,
00000001
00000000
00000100
00000000
00001000
00000000
00010000
00000000
00100000
00000000
00010000
00000000
00000010
00000000
00001000
00000100
,
00000010
00000001
00000100
00000000
00001100
00000000
00011000
00000000
01010000
00000000
00011000
00000000
00100000
00000000
00010000
01000000
,
00100000
10000000
01000000
00000000
00010000
00000000
00001000
00010000
00001000
00000000
00000000
00000000
00000010
00000000
00000000
00000000
,
00000011
00000000
00000000
00000000
00000000
00000000
00000000
00000000
00000000
00000101
00000000
00000000
00000000
00000000
00000000
00000000
00000000
00000000
00001100
00000000
00000000
00000000
00000000
00000000
00000000
00000000
00000000
00001010
00000000
00000000
00000000
00000000
00000000
00000000
00000000
00000000
00000011
00000000
00000000
00000000
00000000
00000000
00000000
00000000
00001001
00000000
00000000
00000000
,
00000000
00000000
00000000
00000000
00001100
00000000
00000000
00000000
00000000
00000000
00000000
00000000
00000010
00000000
00000000
00000000
00000001
00000000
00000000
00000000
00000100
00000000
00000000
00000000
00001000
00000000
00000000
00000000
00000000
00000000
00010000
00000000
00000000
00000000
00000000
00000000
00100000
00000000
00000000
00000000
00000000
00000000
10000000
00000000
00000000
01000000
00000000
00000000
,
10000000
01000000
10000000
00000000
00100000
00000000
00010000
00000000
00011000
00000000
00000000
00000000
00000100
00000000
00000001
00000010
,
00000001
00000010
00000001
00000000
00001000
00000000
00000010
00000000
00000110
00000000
00001000
00000000
00010000
00000000
00100000
10000000
,
00100000
10000000
00100000
00000000
10000000
01000000
10000000
01000000
00010000
00000000
00000000
00000000
00022000
00000000
00000000
00000000
,
00000000
00000000
00000000
00000000
00033000
00000000
00011000
00001000
,
00000010
00000000
00000011
00000000
00000001
00000000
00000100
00000000
00001000
00000100
00001000
00000000
00010000
00000000
00001000
00000010
,
00001000
00010000
00100000
10000000
01000000
00010000
00011000
00010000
,
00100000
00000000
10100000
00000000
10000000
00000000
01000000
00000000
00010000
01000000
00010000
00000000
00001000
00000000
00010000
00100000
,
00010000
00000000
00000000
00001000
00000000
00000000
00000100
00000000
00000001
00000000
00000100
00000000
00000010
00000000
00000000
00000000
00000000
00000000
00001010
00000000
00000000
00000100
00000000
00000000
,
00000001
00000000
00000011
00000000
00001000
00000000
00000100
00000000
00000010
00000001
00000010
00000000
00001000
00000000
00010000
00001000
,
00010000
00000000
00100000
00000000
00010000
00001000
00010000
00000000
00011000
00000000
00000000
00000000
00110000
00000000
01000000
00000000
,
10000000
00000000
10100000
00000000
00010000
00000000
01000000
00000000
00100000
10000000
00100000
00000000
00010000
00000000
00001000
00000000
,
00000010
00000001
00001000
00000100
00001001
00000000
00000010
00000001
,
00000100
00001000
00010000
00000010
00001000
00010000
00000100
00001000
,
00010000
01000000
00010000
00001000
00100000
00010000
00001000
01000000
,
00010000
00000000
00001000
00000000
00000010
00000000
00000001
00000000
00000100
00000000
00000010
00000000
00001000
00010000
00001000
00000000
,
00100000
00000000
00010000
00000000
00001000
00000000
00100000
00000000
00010000
00000000
10000000
00000000
10100000
00000000
00000000
00110000
,
00000000
00011000
00100000
10000000
01000000
00010000
00001000
00100000
,
00010000
00001000
01000000
00010000
00001000
00000100
00001000
00010000
,
00000010
00001000
00010000
00000100
00001000
00010000
00100000
10000000
,
01000000
00000000
00100000
00000000
00010000
01000000
00010000
00000000
00100000
00000000
00001000
00010000
00001000
00000000
00000010
00000000
,
00001000
00010000
00001000
00000100
00010000
00001000
00000010
00010000
,
00001000
00000100
00000001
00000010
00001000
00000001
00000100
00001000
,
00010000
00100000
10000000
00010000
01000000
10000000
00100000
00010000
,
10000000
00000000
01000000
00000000
00010000
00100000
00001000
00000000
00022000
00000000
00000000
00000000
00000000
00000000
00000000
00000000
,
00000000
00000000
00000000
00000000
,
00000000
00000000
00000000
00000000
,
00000000
00000000
00000000
00000000
,
00000000
00000000
00000000
00000000
,
00000000
00000000
00000000
00000000
,
00000000
00000000
00000000
00000000
00033000
00000000
00011000
00001000
,
00000010
00000000
00011000
00010000
00100000
00000000
00010000
00001000
,
00100000
00010000
00001000
00000100
00000010
00000000
00000110
00001000
,
00010000
00000000
01100000
00010000
00001000
00000000
00000110
00001000
,
00010000
00001000
00000010
00000001
00000100
00000000
00011000
00100000
,
00010000
00001000
00000100
00001000
00010000
00000000
00011000
00000010
,
00001000
00010000
00100000
00010000
00001000
00000000
00000110
00000001
,
00000100
00001000
00010000
00100000
10000000
01000000
20020000
00000000
,
00000000
00000000
00000000
00000000
30030000
00000000
10100000
10100000
,
01000000
00000000
00010000
00000000
00100000
00000000
10000000
00000000
00100000
00000000
00010000
01000000
00010000
00000000
00100000
00000000
,
00001000
00010000
00000100
00000001
00000100
00001000
00000011
00000011
,
00000100
00000000
00001000
00000000
00000010
00000000
00000001
00000000
00000010
00000000
00001000
00000100
00001000
00000000
00000010
00000000
,
00010000
00001000
01000000
10000000
01000000
00010000
00100000
10000000
,
00010000
01000000
00010000
00001000
00100000
00010000
00000010
00000100
,
00001000
00000010
00000001
00000010
00001000
00010000
01000000
00100000
,
10000000
01000000
00001000
01000000
00010000
00001000
00000010
00010000
,
00000010
00000001
00000100
00000010
00001001
00000000
00000010
00000001
,
00000100
00001000
00000001
00000010
00001000
00010000
00001000
00000010
,
00010000
00001000
00000100
00000100
00001000
00010000
00100000
10000000
,
01000000
00010000
10000000
00100000
00010000
00001000
00010000
00100000
,
00001000
00010000
01000000
01000000
00010000
00001000
00000000
00001010
,
00000001
00000000
00000000
00000000
00000100
00000010
00000100
00000000
00000001
00000000
00000010
00000100
00000010
00000000
00001000
00000000
,
00010000
00000000
00100000
01000000
00100000
00000000
10000000
00000000
01000000
00000000
00010000
00000000
00011000
00000000
00000000
00001010
,
00000000
00000000
00000000
00000000
00000000
00000000
00000011
00000000
00000000
00000000
00000000
00000000
00000000
00000000
00000000
00000101
00000000
00000000
00000000
00000000
00000000
00000000
00000000
00000000
00001001
00000000
00000000
00000000
00000000
00000000
00000100
00000000
00000000
00000000
00000000
00000000
00000010
00000000
00000000
00000000
00000001
00000000
00000000
00000000
00000100
00000000
00000000
00000000
,
00001000
00010000
01000000
10000000
00000000
00000000
00000000
00000000
00000000
00010000
00000000
00000000
,
01000000
00100000
01000000
00000000
00010000
10000000
00010000
00000000
,
10000000
01000000
10000000
01000000
10000000
00000000
01000000
00000000
,
00010000
00000000
00001000
00000000
00000010
00000000
00000001
00000100
,
00000001
00001001
00000000
00001000
,
00000100
00000010
00000100
00000000
00001000
00000001
00001000
00000000
,
00000001
00000100
00000001
00000100
00000001
00000000
00000100
00000000
,
00001000
00000000
00010000
00000000
00100000
00000000
10000000
00010000
,
10000000
10010000
00000000
00100000
,
10000000
01000000
00100000
00000000
01000000
00010000
00001000
00000000
,
00100000
01000000
00100000
00000000
00001000
00000000
00010000
00000000
,
00000010
00000100
00000001
00000000
00000010
00000100
00001000
00000000
,
00000010
00001001
00000000
00000010
,
00000001
00000100
00000001
00000100
00001000
00000000
00000100
00001000
,
00010000
00000000
00100000
00000000
10000000
00000000
01000000
00100000
,
01000000
00010000
01000000
00010000
00001000
00100000
00001000
00010000
,
00000100
00000000
00001000
00000000
00000001
00000000
00000000
00000000
00000000
00000000
00000000
00000000
00001000
00000100
00000010
00000002
,
00000000
00000203
00000000
00020300
00000000
01000000
00000000
10000000
00000000
00130000
00000000
00000000
00010000
01000000
00100000
20000000
,
00000000
32000000
00000000
03002000
00000000
00000100
00000000
00000001
00000000
00003010
00000000
00000000
00001000
00000010
00000100
00000002
,
00000000
00000023
00000000
00020030
00000000
00100000
00000000
10000000
00000000
01030000
00000000
00000000
00010000
00100000
01000000
20000000
,
00000000
30200000
00000000
00302000
00000000
00000010
00000000
00000001
00000000
00003200
00000000
00000000
00000000
00000000
00000000
00000000
,
00000000
00000000
00000000
00000000
,
00000000
00000000
00000000
00000000
,
00000000
00000300
00000000
00000000
00000000
00000000
00000000
00000000
;

//---------------dance-double - ----------------
#NOTES:
     dance-double:
     :
     Challenge:
     11:
     1.008587,1.214728,0.752873,0.107553,0.637637,919.000000,821.000000,98.000000,14.000000,0.000000,0.000000,1.008587,1.214728,0.752873,0.107553,0.637637,919.000000,821.000000,98.000000,14.000000,0.000000,0.000000:
00000000
00000000
00000000
00000000
,
00000000
00000000
00000000
00000000
,
00000000
00000000
00000000
00000000
,
00000000
00000000
00000000
00000000
,
00000000
00000000
00000000
00000000
,
00000000
00000000
00000000
00000000
,
00000000
00000000
00000000
00000000
,
00000000
00000000
00000000
00000000
,
00011000
00100000
10000000
01000000
00010000
00001000
00000100
00000000
,
00011000
00000010
00000001
00000100
00001000
00010000
01000000
00000000
,
11000000
01000000
00010000
01010000
01000000
00010000
00001000
00000000
,
00000101
00000100
00001000
00001100
00000100
00001000
00010000
00000000
,
01100000
10000000
01000000
00110000
01000000
10000000
00100000
00010000
,
00011000
00001000
00000100
00000101
00000001
00001000
00000110
00000000
,
00001001
00000001
00000100
00001000
00010000
01000000
10000000
00010000
,
10010000
00000000
10000000
01000000
,
00100000
00010000
00001000
00000100
,
00000022
00000033
00000001
00000100
,
00000010
00001000
00010000
01000000
,
20200000
30300000
00010000
00100000
,
01000000
00000000
10000000
01000000
00010000
00000000
00001000
00000000
,
00000220
00000330
00000001
00000100
,
00001000
00000000
00010000
00000000
01000000
00000000
00000000
11000000
,
00000000
00000000
00110000
00000000
10000000
00100000
10000000
00000000
,
00100000
00010000
00100000
00000000
00010000
00001000
00010000
00000000
,
00001000
00000010
00001000
00000000
00000010
00000001
00000010
00000001
,
00000100
00000010
00000100
00000010
00010000
00001000
00010000
00001000
,
01000000
00100000
01000000
00100000
01000000
00000000
01100000
00000000
,
00011000
00000100
00000011
00000000
00001001
00000000
00000011
00000010
,
00000001
00000000
00001100
00000000
00000010
00000000
00010000
00000000
00001000
00000000
00100000
00000000
00110000
00000000
10000000
00100000
,
10000000
00010000
10000000
00000000
01000000
00000000
01010000
00000000
00100000
00000000
00010000
00000000
11000000
00000000
01000000
00000000
,
10000000
00000000
00110000
00000000
01000000
00000000
00001000
00000000
00010000
00000000
00000100
00000000
00001100
00000000
00001000
00000001
,
00000010
00000000
00000001
00000010
00001000
00000000
00010000
00000000
01100000
00000000
00000000
00000000
10100000
00000000
00100000
00000000
,
10000000
00000000
01010000
00000000
00100000
00000000
00001000
00000000
00010000
00000000
00000010
00000000
00001010
00000000
00000001
00000010
,
00000001
00001000
00000001
00000000
00000100
00000000
00001100
00000000
00000010
00000000
00000001
00000000
00001000
00000100
00001000
00000100
,
00000010
00000000
00001000
00010000
00000000
00001000
00010000
00000000
00100000
10000000
00010000
00000000
10000000
01000000
10000000
01000000
,
00100000
00010000
00100000
00010000
00001000
00000100
00001000
00000100
00000010
00000000
00000000
00000000
00000101
00000000
00001000
00000010
,
00001000
00000100
00000010
00000000
00000001
00000000
00000100
00000000
00001000
00000000
00010000
00000000
00100000
00000000
10000000
00010000
,
00100000
00000000
10000000
00010000
00100000
00000000
10000000
01000000
00010000
00000000
00000000
00000000
00011000
00000000
00000000
00000000
,
00001010
00000000
00000000
00000000
00000000
00000000
00000000
00000000
00000000
00000011
00000000
00000000
00000000
00000000
00000000
00000000
00000000
00000000
00000101
00000000
00000000
00000000
00000000
00000000
00000000
00000000
00000000
00001100
00000000
00000000
00000000
00000000
00000000
00000000
00000000
00000000
00011000
00000000
00000000
00000000
00000000
00000000
00000000
00000000
00110000
00000000
00000000
00000000
,
00000000
00000000
00000000
00000000
10100000
00000000
00000000
00000000
00000000
00000000
00000000
00000000
10000000
00000000
00000000
00000000
01000000
00000000
00000000
00000000
00010000
00000000
00000000
00000000
00001000
00000000
00000000
00000000
00000000
00000000
00000000
00000000
00000000
00000000
00000000
00000000
00000010
00000000
00000000
00000000
00000000
00000000
00000001
00000000
00000000
00000100
00000000
00000000
,
00000001
00000100
00000010
00000000
00001000
00000000
00001000
00000000
00010020
00000000
00000000
00000000
00010030
00000000
00001000
01000000
,
00001000
01000000
00010000
00000000
00100000
00000000
01000000
00000000
10010000
00000000
00000000
00000000
00010000
00000000
10000000
00100000
,
01000000
00010000
00100000
00001000
00010000
00000100
00001000
00000001
00000100
00000000
00000000
00000000
00000011
00000000
00000001
00000000
,
00001000
00000000
00000010
00000000
00001000
00000000
00010000
00000000
01000000
00000000
00000000
00000000
10010000
00000000
10000000
01000000
,
00010000
00000000
01000000
00010000
00001000
00000000
00000010
00000000
00000001
00000100
00001000
00000000
00010000
00001000
00000010
00001000
,
00010000
00000000
00000000
00000000
00011000
00000000
00101000
00000000
00011000
00000000
00000000
00000000
00010010
00000000
00000010
00001000
,
00000100
00000000
00010000
00001000
01000000
00000000
00100000
00000000
00010000
00001000
00000010
00001000
00010000
00000000
00100000
00000000
,
10000000
00000000
00000000
00000000
01000000
00000000
00000000
00000000
00010000
00000000
00000000
00000000
00001000
00000000
00000000
00000100
00000000
00000000
00001000
00000000
00000000
00000100
00000000
00000000
00000001
00000000
00000000
00000000
00000000
00000000
00000000
00000000
00000000
00000000
00000000
00000000
00001001
00000000
00000000
00000000
00000000
00000000
00000001
00000000
00000000
00000100
00000000
00000000
,
00001000
00000000
00000100
00001000
00010000
00000000
00100000
00000000
10000000
01000000
00010000
00000000
00001000
00010000
00100000
00010000
,
00001000
00000000
00010000
00000000
00000100
00000000
00001000
00000000
00010100
00000000
00000000
00000000
00101000
00000000
00100000
00010000
,
01000000
00000000
00001000
00010000
00000100
00000000
00000010
00000000
00001000
00010000
00100000
00010000
00001000
00000000
00001000
00000000
,
00000010
00000000
00000010
00000000
00000001
00000000
00000001
00000000
00000100
00000000
00000000
00000000
00001001
00000000
00000001
00000100
,
00000010
00000000
00001000
00000000
00000001
00000100
00001000
00000000
00010000
01000000
10000000
00000000
00100000
00000000
00100000
00000000
,
01000000
00010000
10000000
00000000
01000000
00010000
00001000
00010000
01000000
00000000
00100000
00000000
00010000
00000000
10000000
01000000
,
00100000
00000000
00010000
00000000
10000000
01000000
00010000
00000000
00001000
00000100
00000001
00000000
00001000
00000010
00000100
00000000
,
00000001
00000010
00000100
00000000
00001000
00000010
00001000
00000100
00010000
00001000
00100000
00010000
00100000
00000000
00110000
00000000
,
10010000
00000000
00000000
00000000
11000000
00000000
10000000
00010000
00100000
00000000
01000000
00000000
01000000
00010000
00001000
00000000
,
00001000
00010000
00100000
00000000
00010000
00000000
00001000
00000000
00000010
00000001
00001000
00000000
00001001
00000000
00000100
00000000
,
00001001
00000000
00000000
00000000
00000010
00000000
00000001
00000100
00001000
00000000
00001000
00000100
00000001
00000000
00000010
00000000
,
00001000
00010000
00001000
00000000
00100000
00010000
00100000
00000000
00010000
10000000
00100000
01000000
00010000
00000000
10000000
01000000
,
00010000
00000000
00010000
01000000
10000000
00000000
00100000
00000000
00010000
00001000
00010000
00000000
00000010
00001000
00000010
00001000
,
00000100
00000010
00000001
00000100
00001000
00010000
00001000
00000010
,
00001000
00010000
00001000
00010000
00001000
00000000
00010000
00000000
01000000
00000000
10000000
00000000
00100000
00000000
00010000
00000000
,
10000000
00000000
01000000
00000000
00010000
00100000
00001000
00010000
00000200
00000000
00000000
00000000
00000000
00000000
00000000
00000000
,
00000000
00000000
00000000
00000000
,
00000000
00000000
00000000
00000000
,
00000000
00000000
00000000
00000000
,
00000000
00000000
00000000
00000000
,
00000000
00000000
00000000
00000000
,
00000000
00000000
00000000
00000000
00000310
00000000
00001100
00000010
,
00000001
00000000
00000100
00000010
00000100
00000000
00000001
00000000
00001000
00000100
00001000
00000000
00010000
00000000
00100000
00000000
,
01000000
10000000
01000000
00100000
00010000
01000000
01010000
00100000
,
10000000
00000000
01000000
00100000
01000000
00000000
10000000
00000000
00010000
01000000
00010000
00000000
00001000
00000000
00000010
00000000
,
00000100
00000001
00000010
00001000
00010000
00000000
00100000
00100000
,
10000000
10000000
01000000
01000000
00100000
00100000
00001000
00001000
,
00010000
00010000
00000100
00000100
00000010
00000010
00000001
00000001
,
00001000
00000010
00010000
00000010
00001000
00000010
00010000
00001000
00100000
00001000
00010000
00001000
00200000
00000000
00000000
00000000
,
00000000
00000000
00000000
00000000
00300000
00000000
00110000
01010000
,
00100000
10000000
11000000
00110000
00100000
01000000
01010000
00011000
,
00001000
00000100
00000011
00001001
00001100
00000000
00001010
00001100
,
00000010
00000001
00000101
00001010
00000010
00000100
00001100
00011000
,
00010000
00000000
01000000
00000000
10100000
00000000
10010000
00000000
11000000
00000000
00000000
00000000
00010000
00000000
10000000
01000000
,
10000000
00000000
00010000
01000000
00010000
00000000
00100000
00000000
10000000
00000000
00100000
00000000
00001000
00000000
00010000
00000010
,
00000100
00000000
00000010
00001000
00000001
00000000
00000100
00000000
00000010
00000000
00000000
00000000
00001000
00000000
00000001
00000100
,
00000001
00000000
00001000
00000100
00001000
00000000
00000010
00000000
00000001
00000000
00000010
00000000
00010000
00000000
00001000
00100000
,
01000000
00000000
00100000
00010000
10000000
00000000
01000000
00000000
01100000
00000000
00000000
00000000
00010000
00000000
10000000
01000000
,
00100000
00000000
01000000
00010000
00001000
00000000
00010000
00000010
00001000
00000010
00010000
00001000
00000010
00000000
00000001
00000100
,
00000001
00000000
00001000
00000000
00001100
00000000
00000011
00000000
00001001
00000000
00000000
00000000
00001000
00000000
00000001
00000100
,
00000010
00000000
00000100
00001000
00010000
00000000
00001000
00100000
00010000
00100000
00001000
00010000
00100000
00000000
10000000
01000000
,
10000000
00000000
00010000
01000000
00100000
10000000
01000000
00100000
00010000
00000000
00001000
00000000
00000100
00000000
00000000
00000000
,
00000110
00000000
00000001
00000100
00000001
00000000
00000100
00001000
00000100
00000000
00001000
00010000
00001000
00000000
00010000
00100000
,
00010000
00000000
00100000
10000000
00100000
00000000
10000000
01000000
00010000
00000000
00001000
00000000
00011000
00000000
00010000
00100000
,
00000000
00000000
00000000
00000000
00000000
00000000
10100000
00000000
00000000
00000000
00000000
00000000
11000000
00000000
00000000
00000000
00000000
00000000
00100000
00000000
00000000
00010000
00000000
00000000
00000000
00000000
00000000
00000000
00000000
00000000
00110000
00000000
00000000
00000000
00000000
00000000
10000000
00000000
00000000
00000000
00100000
00000000
00000000
00000000
00010000
00000000
00000000
00000000
,
00001000
00000000
00000010
00000000
00000001
00000000
00001001
00000000
00000000
00000000
00000000
00000000
00000000
00000000
00000000
00000000
00000000
00000000
00000001
00000000
00000000
00000100
00000000
00000000
,
00000001
00000100
00001000
00000000
00000100
00001000
00000100
00001000
,
00010000
00001000
00010000
00000000
01000000
10000000
01000000
10000000
,
00100000
00000000
10000000
01000000
10000000
01000000
00010000
01000000
,
00010000
00000000
00022000
00000000
00033000
00000000
00001000
00000010
,
00001000
00000010
00000001
00000000
00000010
00000001
00000010
00000000
,
00000001
00000100
00000001
00000100
00001000
00000000
00010000
00001000
,
00100000
00010000
10000000
00100000
00010000
00001000
01000000
00001000
,
00010000
00000000
00022000
00000000
00033000
00000000
00100000
10000000
,
00010000
10000000
00100000
00000000
10000000
01000000
00010000
00001000
,
00000100
00000000
00000101
00000000
00000000
00000000
00000010
00000001
,
00001000
00000001
00000010
00000000
00000001
00000100
00001000
00010000
,
01000000
00000000
11000000
00000000
00000000
00000000
10000000
00100000
,
00010000
00000000
00100000
00010000
00001000
00000000
00010000
00001000
,
00000010
00000000
00001000
00000010
00000001
00000000
00000100
00000001
,
00000100
00001000
00000100
00001000
00010000
00001000
00010000
01000000
,
10000000
00000000
01000000
00000000
10000000
00000000
00000000
00000000
00000000
00000000
00000000
00000000
01100000
00010000
00001000
00000100
,
00000000
00000001
00000000
00000010
00000000
00000001
00000000
00001000
00000000
00000010
00000000
00000000
00000110
00001000
00010000
01000000
,
00000000
10000000
00000000
00100000
00000000
10000000
00000000
00010000
00100000
00010000
00000000
00000000
01100000
00010000
00001000
00000010
,
00000000
00000001
00000000
00000100
00000000
00000001
00000000
00001000
00000000
00000010
00000000
00000000
00000110
00001000
00010000
00100000
,
00000000
10000000
00000000
00010000
00000000
10000000
00000000
00010000
01000000
00020000
00000000
00000000
00000000
00000000
00000000
00000000
,
00000000
00000000
00000000
00000000
,
00000000
00000000
00000000
00000000
,
00000000
00030000
00000000
00000000
00000000
00000000
00000000
00000000
;

//---------------dance-double - ----------------
#NOTES:
     dance-double:
     :
     Medium:
     10:
     0.691414,0.855721,0.253519,0.038412,0.130600,630.000000,597.000000,33.000000,5.000000,0.000000,0.000000,0.691414,0.855721,0.253519,0.038412,0.130600,630.000000,597.000000,33.000000,5.000000,0.000000,0.000000:
00000000
00000000
00000000
00000000
,
00000000
00000000
00000000
00000000
,
00000000
00000000
00000000
00000000
,
00000000
00000000
00000000
00000000
,
00000000
00000000
00000000
00000000
,
00000000
00000000
00000000
00000000
,
00000000
00000000
00000000
00000000
,
00000000
00000000
00000000
00000000
,
01000000
00100000
10000000
10000000
01000000
00010000
00001000
00000000
,
00000100
00000010
00001000
00001000
00000001
00000100
00001000
00000000
,
00010000
00001000
00000100
00000000
00001000
00000000
00001100
00000000
,
00001000
00010000
01000000
00000000
00010000
00000000
01010000
00000000
,
10000000
00100000
01000000
00010000
10000000
10000000
01000000
00000000
,
00010000
00001000
00000100
00000000
00001000
00010000
01000000
00000000
,
01100000
00010000
00001000
00000100
,
00000110
00000000
00000001
00000100
,
00000001
00000100
00001000
00001000
,
00010000
00000000
00001000
00010000
,
01000000
10000000
00100000
00100000
,
01000000
00000000
00010000
10000000
,
01000000
00010000
00001000
00000100
,
00000001
00000000
00001000
00000001
,
00000100
00001000
00010000
01000000
,
10000000
00000000
10000000
01000000
,
20000000
00000000
31000000
00010000
,
02000000
00000000
03010000
00001000
,
00010000
00001000
00000010
00000001
,
00000010
00000001
00001000
00000001
,
00000100
00000000
00001000
00000000
00011000
00000000
00100000
11000000
,
00000000
00100000
01010000
00000000
00011000
00000100
00000010
00000000
,
00000001
00000100
00001000
00000100
00000001
00000000
00000010
00000101
,
00000000
00000010
00001100
00000000
00011000
01000000
10000000
00100000
,
01000000
10000000
01000000
00010000
00100000
00000000
00001000
00010000
,
01000000
00010000
00001000
00000100
00000001
00001000
00000010
00000100
,
00001000
00010000
00100000
00010000
10000000
01000000
00010000
00100000
,
00001000
00000000
00010000
00000000
00010000
00000000
00000100
00000000
00000000
00000010
00000000
00000000
00000001
00000000
00000100
00000000
,
00001000
00010000
01000000
10000000
00010000
00000000
10000000
00100000
,
00100000
00100000
00010000
00001000
00100000
00010000
00001000
00000100
,
00000010
00000001
00001000
00000010
00000110
00000000
00001001
00000000
,
00001000
00000000
00000000
00000000
00000000
00000000
00000000
00000000
00000000
00000001
00000000
00000000
00000000
00000000
00000000
00000000
00000000
00000000
00000100
00000000
00000000
00000000
00000000
00000000
00000000
00000000
00000000
00001000
00000000
00000000
00000000
00000000
00000000
00000000
00000000
00000000
00010000
00000000
00000000
00000000
00000000
00000000
00000000
00000000
01000000
00000000
00000000
00000000
,
00000000
00000000
10000000
00000000
00000000
00000000
00010000
00000000
00100000
00000000
00010000
00000000
00100000
00000000
00000000
00000000
00000000
00000000
00001000
00000000
00000000
00010000
00000000
00000000
,
01000000
00010000
00001000
00000100
00000010
00000000
00010000
00001000
,
00000100
00001000
00010000
01000000
00100000
00000000
00010000
10000000
,
01000000
00100000
00010000
00001000
00000100
00000010
00000002
00000000
,
00000000
00000000
00000003
00001000
,
00000110
00000100
00000000
00000001
00000011
00000000
00001000
00000100
,
00000010
00001000
00010000
00100000
10000000
00000000
00010000
00000000
,
01100000
01000000
00000000
10000000
10100000
00000000
00010000
01000000
,
00100000
00010000
00001000
00000010
00000001
00000000
00001000
00000000
,
00000110
00000010
00000000
00000001
00000101
00000000
00001000
00000010
,
00000100
00001000
00010000
01000000
10000000
00000000
00010000
00000000
,
01100000
00100000
00000000
10000000
11000000
00000000
00010000
00100000
,
01000000
00010000
00001000
00000010
00000001
00000000
00001000
00000010
,
00000100
00010000
00001000
00000010
00000100
00000001
00000010
00001000
,
00010000
01000000
10000000
00100000
10010000
00000000
00010000
00100000
,
01000000
00010000
00001000
00010000
00100000
00010000
00001000
00000010
,
00000001
00000000
00000100
00000000
00001000
00000000
00010000
00000000
00100000
00000000
10000000
00000000
10100000
00000000
00000000
10010000
,
00000000
01010000
00010000
00100000
01000000
00001000
00010000
00100000
,
01000000
10000000
00100000
00010000
00001000
00000100
00000001
00000010
,
00001001
00000000
00001000
00000010
00000100
00001000
00010000
00001000
,
00000010
00001000
00010000
00100000
10000000
01000000
00010000
00001000
,
00000010
00000001
00000100
00000010
00001000
00010000
01000000
00100000
,
00010000
00001000
00001000
00000010
00001000
00001000
00010000
00100000
,
00100000
10000000
01000000
00100000
00100000
00010000
00001000
00001000
,
00000100
00010000
00001000
00000010
00000002
00000000
00000000
00000000
,
00000000
00000000
00000000
00000000
,
00000000
00000000
00000000
00000000
,
00000000
00000000
00000000
00000000
,
00000000
00000000
00000000
00000000
,
00000000
00000000
00000000
00000000
,
00000000
00000000
00000000
00000000
00000003
00000000
00001000
00000100
,
00000010
00000001
00000010
00000100
00001000
00000000
00010000
00100000
,
01000000
10000000
01000000
00100000
00010000
00000000
00001000
00000100
,
00000010
00000001
00000100
00001000
00010000
00000000
00100000
10000000
,
00100000
01000000
00100000
00010000
00001000
00000000
00000010
00000001
,
00000100
00001000
00000100
00000001
00000010
00000000
00001000
00010000
,
00100000
00100000
10000000
01000000
00100000
00000000
00010000
01000000
,
00100000
00010000
00001000
00000010
00000001
00001000
00000001
00000000
,
00000100
00000000
00001000
00000000
00011000
00000000
00100000
10000000
,
01000000
00100000
00010000
00001000
00000100
00010000
00001000
00000010
,
00001000
00000001
00000100
00001000
00010000
00100000
00001000
00010000
,
01000000
00010000
00001000
00100000
00010000
00001000
00000100
00010000
,
01000000
10000000
00100000
00010000
00001000
00000000
00000010
00000001
,
00000100
00000010
00001000
00010000
01000000
00001000
00010000
00100000
,
00010000
10000000
01000000
00010000
00001000
00000010
00010000
00001000
,
00000100
00001000
00010000
00000010
00001000
00010000
01000000
00001000
,
00000100
00000001
00000010
00001000
00010000
00000000
00100000
10000000
,
00010000
00100000
10000000
00100000
00010000
00001000
00000100
00000001
,
00000100
00001000
00000010
00001000
00000001
00000000
00000010
00000001
,
00001000
00000010
00000001
00000010
00001000
00010000
01000000
10000000
,
01000000
00010000
00100000
00010000
10000000
01000000
00010000
00001000
,
00000100
00000001
00000010
00001000
00000010
00000001
00000100
00001000
,
00010000
00000000
01000000
00000000
10000000
00000000
00100000
00000000
01000000
00000000
00000000
00000000
00010000
00000000
00000000
01010000
,
00000000
00000000
00000000
00000000
00000000
00000000
00001000
00000000
00000000
00000000
00000000
00000000
00010000
00000000
00000000
00000000
00000000
00000000
00000000
00000000
00000000
00010100
00000000
00000000
00000000
00000000
00000000
00000000
00000000
00000000
00000010
00000000
00000000
00000000
00000000
00000000
00000001
00000000
00000000
00000000
00001000
00000000
00000000
00000000
00000001
00000000
00000000
00000000
,
00001000
00000001
00001000
00000001
00000000
00000000
00000000
00000000
00000000
00001000
00000000
00000000
,
00000010
00000100
00000001
00000010
,
00000100
00001000
00000000
00010000
,
00100000
01000000
10000000
00100000
,
01000000
00010000
00000000
00001000
,
00000100
00000001
00001000
00000010
,
00000001
00000100
00001000
00010000
,
00001000
00100000
00010000
00001000
,
00010000
00100000
00000000
01000000
,
10000000
00100000
00010000
00001000
,
00000010
00000001
00000000
00000100
,
00000001
00000010
00001000
00010000
,
00100000
10000000
00010000
00100000
,
01000000
00010000
00001000
00000100
,
00001000
00010000
00000010
00001000
,
00010000
00001000
00000010
00010000
,
00001000
00000000
00000000
00000000
01000000
00000000
00000000
00000000
00001000
00000000
00000000
00000000
00011000
00000000
00010000
00001000
,
00000000
00000100
00000000
00000001
00000000
00000000
00000000
00000100
00000000
00001000
00000000
00000000
00011000
00000000
00001000
00010000
,
00000000
01000000
00000000
10000000
00000000
00000000
00000000
01000000
00000000
00010000
00000000
00000000
00011000
00000000
00010000
00001000
,
00000000
00000010
00000000
00000001
00000000
00000000
00000000
00000010
00000000
00001000
00000000
00000000
00011000
00000000
00001000
00010000
,
00000000
00100000
00000000
10000000
00000000
00000000
00000000
00100000
00000000
00020000
00000000
00000000
00000000
00000000
00000000
00000000
,
00000000
00000000
00000000
00000000
,
00000000
00000000
00000000
00000000
,
00000000
00030000
00000000
00000000
;

//---------------dance-double - ----------------
#NOTES:
     dance-double:
     :
     Easy:
     7:
     0.464235,0.630531,0.345707,0.023047,0.061459,423.000000,378.000000,45.000000,3.000000,0.000000,0.000000,0.464235,0.630531,0.345707,0.023047,0.061459,423.000000,378.000000,45.000000,3.000000,0.000000,0.000000:
// measure 0
00000000
00000000
00000000
00000000
,  // measure 1
00000000
00000000
00000000
00000000
,  // measure 2
00000000
00000000
00000000
00000000
,  // measure 3
00000000
00000000
00000000
00000000
,  // measure 4
00000000
00000000
00000000
00000000
,  // measure 5
00000000
00000000
00000000
00000000
,  // measure 6
00000000
00000000
00000000
00000000
,  // measure 7
00000000
00000000
00000000
00000000
,  // measure 8
00000101
00000000
00000000
00001010
00000000
00000000
00011000
00000000
,  // measure 9
01010000
00000000
00000000
10100000
00000000
00000000
10010000
00000000
,  // measure 10
11000000
00000000
00000000
00110000
00000000
00000000
00011000
00000000
,  // measure 11
00001100
00000000
00000000
00000011
00000000
00000000
00001001
00000000
,  // measure 12
00000001
00000100
00000010
00001000
,  // measure 13
00010000
01000000
00100000
10000000
,  // measure 14
00100000
00010000
00001000
00000010
,  // measure 15
00001001
00000000
00000001
00000000
,  // measure 16
00000100
00000000
00001000
00000100
,  // measure 17
00001000
00000000
00010000
00000000
,  // measure 18
01000000
00000000
00010000
01000000
,  // measure 19
00010000
00000000
01000000
00000000
,  // measure 20
10000000
00000000
00100000
10000000
,  // measure 21
00100000
00000000
00010000
00000000
,  // measure 22
00001000
00000000
00010000
00001000
,  // measure 23
00010000
00000000
00001000
00000010
,  // measure 24
00001000
00000000
00000010
00000001
,  // measure 25
00000010
00000000
00000001
00000100
,  // measure 26
00000001
00000000
00000100
00001000
,  // measure 27
00000100
00000000
00011000
00100000
,  // measure 28
10000000
00010000
10000000
01000000
,  // measure 29
00010000
00001000
00000000
00000000
00011000
00000000
00010000
00000000
,  // measure 30
00001000
00000100
00000001
00000100
,  // measure 31
00001000
00010000
00000000
00000000
00011000
00000000
00001000
00000000
,  // measure 32
00010000
00100000
10000000
00100000
,  // measure 33
00010000
00001000
00000000
00000000
00011000
00000000
00010000
00000000
,  // measure 34
00001000
00000010
00000001
00000010
,  // measure 35
00001000
00010000
00000000
00001000
00000000
00010000
00100000
00000000
,  // measure 36
10000000
01000000
00010000
00001000
,  // measure 37
00000010
00000000
00000001
00000100
00000001
00000000
00000010
00000000
,  // measure 38
00000100
00000000
00001000
00000100
00001000
00000000
00010000
00000000
,  // measure 39
00100000
00000000
00000000
00000000
00000000
00000000
00000000
00000000
00000000
00010000
00000000
00000000
00000000
00000000
00000000
00000000
00000000
00000000
10000000
00000000
00000000
00000000
00000000
00000000
00000000
00000000
00000000
00010000
00000000
00000000
00000000
00000000
00000000
00000000
00000000
00000000
01000000
00000000
00000000
00000000
00000000
00000000
00000000
00000000
00100000
00000000
00000000
00000000
,  // measure 40
00000000
01000000
00000000
00100000
00000000
00000000
10010000
00000000
00000000
01000000
00000000
00000000
,  // measure 41
00100000
00010000
00001000
00000100
,  // measure 42
00000001
00000000
00001000
00000010
00000100
00000000
00000001
00000100
,  // measure 43
00001000
00011000
01000000
00200000
,  // measure 44
00000000
00300000
00000000
01000000
,  // measure 45
10010000
00000000
00100000
10000000
01000000
00000000
00010000
00000000
,  // measure 46
00001000
00000000
00000100
00000001
00000010
00000000
00000100
00000000
,  // measure 47
00001001
00000000
00000010
00000001
00000100
00000000
00001000
00000000
,  // measure 48
00010000
00000000
01000000
10000000
00100000
00000000
01000000
00000000
,  // measure 49
10010000
00000000
01000000
10000000
00100000
00000000
00010000
00000000
,  // measure 50
00001000
00000000
00000010
00000001
00000100
00000000
00000010
00000000
,  // measure 51
00001001
00000000
00000100
00000001
00000010
00000000
00001000
00000000
,  // measure 52
00010000
00000000
00100000
10000000
01000000
00000000
00010000
00000000
,  // measure 53
00001000
00000010
00000010
00001000
,  // measure 54
00010000
00100000
00100000
00010000
,  // measure 55
00001000
00000100
00000100
00001000
,  // measure 56
00010000
01000000
00100000
01100000
,  // measure 57
10010000
00100000
00100000
00010000
,  // measure 58
00001000
00000010
00000010
00001000
,  // measure 59
00010000
01000000
01000000
00010000
,  // measure 60
00001000
00000000
00000100
00000000
00000010
00000100
00000010
00000000
,  // measure 61
00001000
00000001
00000001
00000100
,  // measure 62
00001000
00010000
00100000
10000000
,  // measure 63
01000000
10000000
00010000
00000000
01000000
00000000
00100000
00000000
,  // measure 64
00010000
00001000
00010000
00001000
00000020
00000000
00000000
00000000
,  // measure 65
00000000
00000000
00000000
00000000
,  // measure 66
00000000
00000000
00000000
00000000
,  // measure 67
00000000
00000000
00000000
00000000
,  // measure 68
00000000
00000000
00000000
00000000
,  // measure 69
00000000
00000000
00000000
00000000
,  // measure 70
00000000
00000000
00000030
00000001
,  // measure 71
00000100
00000010
00001000
00000001
,  // measure 72
00000100
00001000
00000000
00010000
,  // measure 73
00100000
10000000
00010000
00100000
,  // measure 74
01000000
10000000
00000000
10000000
,  // measure 75
01000000
00000000
10000000
01000000
10000000
00000000
00100000
00000000
,  // measure 76
00010000
00000000
00100000
00010000
00100000
00000000
00010000
00001000
,  // measure 77
00010000
00000000
00000010
00000100
00000010
00000000
00001001
00000000
,  // measure 78
00000010
00000001
00001000
00000001
,  // measure 79
00000100
00001000
00010000
01000000
,  // measure 80
10000000
00000000
00000000
10000000
00100000
00000000
01000000
00000000
,  // measure 81
00010000
10000000
00100000
00010000
,  // measure 82
00001000
00000000
00000100
00000010
00000100
00000000
00000001
00000000
,  // measure 83
00000100
00001000
00010000
00100000
,  // measure 84
10000000
00000000
00010000
01000000
00010000
00000000
10000000
00000000
,  // measure 85
01000000
00010000
00001000
00000100
,  // measure 86
00000001
00000000
00001000
00000100
00001000
00000000
00000010
00000000
,  // measure 87
00000100
00000010
00000001
00000010
,  // measure 88
00001000
00000000
00010000
01000000
00010000
00000000
01100000
00000000
,  // measure 89
10010000
00000000
10000000
00000000
00010000
00100000
00010000
00000000
,  // measure 90
10000000
00100000
00010000
00001000
,  // measure 91
00000110
00000000
00001001
00000000
00000001
00000000
00001000
00000010
,  // measure 92
00001000
00000001
00000010
00001000
,  // measure 93
00011000
00100000
11000000
00010000
,  // measure 94
10000000
10010000
00000000
10000000
,  // measure 95
00000000
00100000
00000000
10000000
,  // measure 96
00000000
00100000
10000000
00100000
,  // measure 97
00000000
00010000
00000000
00110000
,  // measure 98
00000000
00011000
00000000
00001000
,  // measure 99
00000000
00000010
00000000
00001000
,  // measure 100
00000010
00001000
00000000
00000010
,  // measure 101
00000000
00000001
00000000
00000101
,  // measure 102
00000000
00001001
00000000
00000001
,  // measure 103
00000000
00000010
00000000
00000001
,  // measure 104
00000000
00000010
00000001
00000010
,  // measure 105
00000000
00001000
00000000
00001010
,  // measure 106
00000000
00011000
00000000
00010000
,  // measure 107
00000000
00100000
00000000
00010000
,  // measure 108
00100000
00010000
00000000
00100000
,  // measure 109
00000000
10000000
00000000
11000000
,  // measure 110
00000000
00000000
00000000
00000000
10010000
00000000
00000000
00000000
00000000
00000000
00000000
00000000
00011000
00000000
00000000
00100000
,  // measure 111
00000000
00000000
00000000
10000000
00000000
00000000
00000000
01000000
00000000
00000000
00000000
00000000
00011000
00000000
00000000
00000010
,  // measure 112
00000000
00000000
00000000
00000001
00000000
00000000
00000000
00000100
00000000
00000000
00000000
00000000
00011000
00000000
00000000
00000000
,  // measure 113
00000000
00000000
00000000
01000000
00000000
00000000
00000000
10000000
00000000
00000000
00000000
00100000
00000000
00000000
00000000
00000000
,  // measure 114
00011000
00000000
00000000
00000010
00000000
00000000
00000000
00000001
00000000
00000000
00000000
00000100
00000000
00000000
00002000
00000000
,  // measure 115
00000000
00000000
00000000
00000000
,  // measure 116
00000000
00000000
00000000
00000000
,  // measure 117
00000000
00003000
00000000
00000000
;
