#TITLE:INFINITAS beyond;
#SUBTITLE:;
#ARTIST:tykoneko;
#TITLETRANSLIT:;
#SUBTITLETRANSLIT:;
#ARTISTTRANSLIT:;
#GENRE:INFINITY TRANCE;
#CREDIT:;
#BANNER:INFINITAS beyond.png;
#BACKGROUND:INFINITAS beyond-bg.png;
#LYRICSPATH:;
#CDTITLE:;
#MUSIC:INFINITAS beyond.ogg;
#OFFSET:-1.684000;
#SAMPLESTART:52.834999;
#SAMPLELENGTH:12.700000;
#SELECTABLE:YES;
#BPMS:0.000000=150.000000
;
#STOPS:
;
#BGCHANGES:;
#KEYSOUNDS:;
#ATTACKS:;

//---------------dance-single - ----------------
#NOTES:
     dance-single:
     :
     Hard:
     9:
     0.570992,0.696437,0.166539,0.136259,0.613167,528.000000,506.000000,22.000000,18.000000,0.000000,0.000000,0.570992,0.696437,0.166539,0.136259,0.613167,528.000000,506.000000,22.000000,18.000000,0.000000,0.000000:
0000
0000
0000
0000
,
0000
0000
0000
0000
,
0000
0000
0000
0000
,
0000
0000
0000
0000
,
0000
0000
0000
0000
,
0000
0000
0000
0000
,
0000
0000
0000
0000
,
0000
0000
0000
0000
,
1001
0001
1000
0001
,
0100
0010
1000
0001
,
0010
0100
0010
0100
,
1000
0010
0001
0010
,
1000
0000
0000
0100
1000
0000
0000
0100
1000
0000
0000
0100
0010
0000
0000
0000
,
0001
0000
0000
0100
0001
0000
0000
0100
0001
0000
0000
0100
0010
0000
0000
0000
,
0100
0000
0000
0010
1000
0000
0000
0010
1000
0000
0000
0010
1000
0000
0000
0000
,
0100
0000
0000
0010
0001
0000
0000
0010
0001
0000
0000
0010
0001
0000
0000
0000
,
2000
0100
0010
3002
,
0103
0000
0000
0010
0000
0000
0001
0000
1000
0000
0000
0100
0000
0000
0001
0000
,
0020
0000
0000
0000
0100
0000
0000
0000
1000
0000
0000
0000
0032
0000
0000
1003
,
0000
0001
0000
1000
0000
0000
0001
0000
0000
0001
0000
0000
0001
0000
0000
0000
,
0200
0001
0010
2300
,
3100
0000
0000
0001
0000
0000
0010
0000
1000
0000
0000
0010
0000
0000
0001
0000
,
0002
0000
0000
0000
1000
0000
0000
0000
0100
0000
0000
0000
0023
0000
0000
1030
,
0000
0010
0000
0001
0000
0000
0100
0000
0000
0010
0000
0000
0110
0000
0000
0000
,
0100
0000
0001
0000
0001
0000
0000
0001
0000
0000
0100
0000
0010
0000
1000
0000
,
0100
0000
0010
0000
0000
0100
0000
0000
1000
0000
0000
0100
0000
0000
0001
0000
,
0100
0000
0010
0000
0010
0000
0000
0001
0000
0000
0010
0000
0100
1000
0000
0001
,
0000
0000
0010
0000
0000
0001
0000
0000
0100
0000
0000
0010
0000
0000
1000
0000
,
0001
0000
1000
0000
1000
0000
0000
0001
0000
0000
1000
0000
0001
0000
0100
0000
,
0010
0000
1000
0000
0000
0100
0000
0000
0010
0000
0000
0100
0000
0000
1000
0000
,
0100
0000
1000
0000
0001
1000
0000
0001
0000
0000
0010
0000
0000
0000
0010
0000
,
0001
0000
0000
1000
0000
0000
0010
0000
0100
0000
0000
0001
0000
0000
1000
0000
,
1002
0000
0100
0000
0103
0000
0010
0100
0000
0010
0100
0000
0010
0000
1000
0000
,
0100
0000
0010
0000
0100
1000
0000
0010
1000
0000
0100
0010
0000
0100
1000
0000
,
0001
0000
0010
0000
0001
0000
1000
0001
0000
1000
0001
0000
0100
0001
0000
1000
,
0000
0100
0010
0000
0100
1000
0000
0100
0010
0000
0100
1000
0000
0010
1000
0000
,
0100
0000
1000
0000
0001
0000
1000
0010
0000
1000
0010
0000
0100
0000
0010
0000
,
0100
0000
0001
0000
1000
0100
0000
1000
0001
0000
1000
0010
0000
1000
0001
0000
,
0100
0000
0001
0000
0010
0001
0000
0100
0000
0010
1000
0000
0100
0000
0010
0000
,
0001
0000
1000
0100
0000
1000
0010
0000
1000
0000
0001
0100
0000
0001
1000
0000
,
0100
1000
0010
0001
1000
0100
0001
0010
,
0100
0001
0010
0001
0100
1000
0010
0001
,
0010
1000
0100
0100
1000
0100
0001
1000
,
0100
0000
0010
0000
0010
0001
0000
0000
0010
0000
0000
1000
0000
0000
0100
0000
,
1000
0010
0100
0001
1000
0100
0010
0001
,
1000
0010
0100
0001
0010
0001
0100
0010
,
1000
0100
0100
0001
1000
0010
0010
0001
,
0100
1000
0001
0010
1000
0100
0010
0001
,
1002
0000
0000
0100
0000
0000
0010
0000
0000
0010
0000
0000
1003
0000
0200
0000
,
1000
0000
0000
1000
0000
0000
2300
0000
0010
0000
0000
0010
0000
0000
3010
0000
,
0200
0000
0000
0010
0000
0000
1000
0000
0000
0010
0000
0000
0301
0000
1000
0000
,
0100
1000
0000
0000
0001
0000
1000
0000
0000
0010
0000
0000
0010
0000
0100
0000
,
0020
0000
0000
0001
0000
0000
0100
0000
0000
1000
0000
0000
0130
0000
0001
0000
,
2000
0000
0000
0100
0000
0000
3100
0000
0020
0000
0000
0001
0000
0000
0031
0000
,
0200
0000
0000
0010
0000
0000
1000
0000
0000
0010
0000
0000
0301
0000
0000
1000
,
0000
0001
0000
1000
0001
0000
0001
0000
0000
0100
0000
0000
0010
0000
1000
0000
,
2001
0000
0000
3001
0000
0000
1000
0000
0000
0100
0000
0000
0010
0000
0001
0000
,
0010
0000
0000
0010
0000
0000
0100
0000
1000
0000
0000
0001
0000
0000
1000
0000
,
0000
0100
0000
0010
0000
0000
0100
0000
0001
0000
0100
0000
1000
0000
0001
0000
,
0001
0000
0000
1000
0000
0000
0100
1000
0000
0010
0000
1000
0000
0100
0000
0000
,
0110
0000
0000
0100
0000
0000
1000
0000
0000
0010
0000
1000
0000
0100
0000
0000
,
1001
0000
0000
0001
0000
0000
0010
0000
0000
0000
0100
0000
0000
1000
0000
0000
,
1010
0000
0000
0100
0000
0000
0001
0000
0010
0001
0000
0000
0100
0000
0010
0000
,
1010
0000
0000
1001
0000
0000
0101
0000
1001
0000
0000
0011
0000
0000
1100
0000
,
1001
0000
0000
0001
0100
0000
0010
0000
1000
0010
0000
0000
1010
0000
0000
0010
,
0100
0000
0000
0001
1000
0000
0100
0000
0010
0000
0000
0001
1000
0000
0100
0000
,
1000
0000
0000
0001
0100
0000
0010
0000
1000
0001
0000
0000
1001
0000
0000
0001
,
1000
0100
0000
0010
0100
0000
1000
0000
0001
1000
0000
0000
1001
0000
0000
0001
,
0010
0000
0000
0001
0100
0000
0010
0000
1000
0001
0000
0000
1001
0000
0000
0001
,
1000
0000
0000
1000
0001
0000
0100
0000
0010
0000
0000
0010
1000
0000
0100
0000
,
1000
0000
0000
0100
0010
0000
0001
0000
1000
0100
0000
0000
0110
0000
0000
0100
,
1000
0001
0000
0100
0010
0000
0100
0000
0000
0010
0000
0000
0110
0000
0000
0000
,
0010
1000
0000
0000
1000
0010
0000
0000
0010
0100
0000
0000
0100
0001
0000
0000
,
0001
0010
0000
0000
0010
0100
0000
0000
0100
1000
0000
0000
1000
0010
0000
0000
,
0010
1000
0000
0000
1000
0001
0000
0000
0001
0100
0000
0000
0100
0010
0000
0000
,
0010
1000
0000
0000
1000
0100
0000
0000
0100
0010
0000
0000
0010
0001
0000
0000
,
0001
0000
1000
0100
0000
0000
1000
0100
0000
0000
0010
0001
0000
0000
0010
0001
,
0000
0000
0100
0010
0000
0000
0100
0010
0000
0000
1000
0010
0000
0000
1000
0010
,
0000
0000
0100
0001
0000
0000
0100
0001
0000
0000
0100
0010
0000
0000
0100
0010
,
0000
0000
1000
0001
0000
0000
1000
0001
0000
0000
1000
0001
0100
0000
0100
0000
,
1001
0000
0000
0000
;

//---------------dance-single - ----------------
#NOTES:
     dance-single:
     :
     Medium:
     6:
     0.426081,0.484478,0.234669,0.098410,0.090840,394.000000,363.000000,31.000000,13.000000,0.000000,0.000000,0.426081,0.484478,0.234669,0.098410,0.090840,394.000000,363.000000,31.000000,13.000000,0.000000,0.000000:
0000
0000
0000
0000
,
0000
0000
0000
0000
,
0000
0000
0000
0000
,
0000
0000
0000
0000
,
0000
0000
0000
0000
,
0000
0000
0000
0000
,
0000
0000
0000
0000
,
0000
0000
0000
0000
,
1000
0010
0000
1000
0000
0001
0000
1000
,
0000
0100
0000
0010
0000
0001
0000
1000
,
0000
0001
0000
0010
0000
0001
0000
0100
,
0000
0010
0000
1000
0000
0010
0000
0100
,
0100
0010
0000
0100
0000
0001
0000
1000
,
0000
0100
0000
0010
0000
0001
0000
1000
,
0000
0010
0000
0001
0000
0010
0000
1000
,
0000
0100
0000
0001
0000
0100
0000
1000
,
1100
0000
1001
0000
1000
0001
0100
0000
,
0010
0000
0101
0000
0001
1000
0100
0000
,
0010
0000
1100
0000
0100
1000
0001
0000
,
1000
0000
0101
0000
0100
0010
1000
0000
,
0010
0000
1001
0000
1000
0100
0010
0000
,
0001
0000
1100
0000
1000
0010
0100
0000
,
0010
0000
1010
0000
1000
0001
0010
0000
,
0100
1000
0001
0000
0010
0001
1000
0000
,
0002
0010
0100
0013
,
0001
1000
0100
0000
1000
0001
0100
0000
,
0020
1000
0001
1030
,
0100
0010
0001
0000
0100
0010
1000
0000
,
0002
1000
0100
0013
,
0100
1000
0010
0000
1000
0100
0010
0000
,
0200
0000
0000
0000
1000
0000
0000
0000
0001
0000
0000
0000
1000
0300
0000
0000
,
0001
1000
0010
0000
1000
0001
1000
0000
,
1001
0001
1000
0000
1000
0010
1000
0100
,
0010
0001
0010
0000
0001
1000
0001
0000
,
0010
0100
1000
0000
1000
0010
1000
0010
,
0100
0001
0100
0000
0010
1000
0001
0000
,
0010
0001
0010
0000
0100
1000
0100
1000
,
0001
0100
0001
0000
0100
0001
1000
0000
,
0010
0100
0010
0000
0100
0010
0100
0010
,
1000
0001
1000
0000
0001
1000
1001
0000
,
0002
1000
1000
1003
0000
0010
1000
0010
,
0000
0100
0010
0100
0000
0001
0100
0001
,
0000
0010
0000
1000
0000
0010
0001
0100
,
0000
0000
1000
0000
0000
0100
0000
0000
0001
0000
0000
1000
0000
0000
0001
0000
,
0100
0010
0000
0100
0001
0010
0000
0001
,
0000
1000
0100
0001
0000
0001
0100
1000
,
0000
0010
0000
1000
0000
0010
0001
0010
,
0000
0100
0001
1000
0000
0100
0010
0001
,
2000
0010
0000
0001
0000
0100
0000
0001
,
3001
0100
0010
1000
,
0200
0010
0000
0001
0000
0010
0000
1000
,
1300
0010
0001
0010
,
2000
0100
0000
0010
0000
0001
0000
0100
,
3100
1000
0010
0001
,
0020
1000
0000
0100
0000
1000
0000
0100
,
0130
0000
0001
0000
1000
0000
0100
1000
,
1001
0011
0000
0101
,
1000
1010
0000
0101
,
0001
0011
0000
1100
,
1000
1010
0000
1010
,
0110
1001
0000
0011
,
0110
1001
0000
1001
,
1100
0010
1001
0010
,
0101
0000
0000
0101
0000
0000
0001
0000
1000
0000
0000
1100
0000
0000
1000
0000
,
0010
0000
0000
0100
0000
0000
0010
0000
0000
1000
0000
0000
0001
0000
0000
0000
,
1000
0000
0000
0010
0000
0000
0100
0000
0002
0000
0000
0000
1003
0000
0000
0000
,
0100
0000
0000
0010
0000
0000
0100
0000
0000
1000
0000
0000
0001
0000
0000
0000
,
0100
0010
0100
0010
0000
1000
0001
0000
,
1000
0000
0000
1000
0000
0000
0010
0000
0000
0100
0000
0000
0001
0000
0000
0000
,
0010
0000
0000
0010
0000
0000
0100
0000
2000
0000
0000
0000
3001
0000
0000
0000
,
0100
0000
0000
0100
0000
0000
0001
0000
0000
0100
0000
0000
0001
0000
0000
0000
,
0010
0100
0010
0100
0000
1000
0001
0000
,
1000
0000
0000
0010
0000
0000
1000
0000
0000
0100
0000
0000
1000
0000
0000
0000
,
0100
0000
0000
0010
0000
0000
0100
0000
2000
0000
0000
0000
3100
0000
0000
0000
,
0010
0000
0000
0001
0000
0000
0100
0000
0000
0010
0000
0000
1000
0000
0000
0000
,
0001
0010
0001
0010
0000
0100
1000
0000
,
0001
0000
0000
0100
0000
0000
0010
0000
0000
0100
0000
0000
0001
0000
0000
0000
,
1000
0000
0000
0010
0000
0000
1000
0000
0002
0000
0000
0000
0103
0000
0000
0000
,
0010
0000
0000
1000
0000
0000
0001
0000
0000
1000
0000
0000
0100
0000
0000
0000
,
0010
0001
0100
0010
0000
1000
0001
0000
,
1001
0000
0000
0000
;

//---------------dance-single - ----------------
#NOTES:
     dance-single:
     :
     Beginner:
     1:
     0.126527,0.242239,0.052990,0.075700,0.000000,117.000000,110.000000,7.000000,10.000000,0.000000,0.000000,0.126527,0.242239,0.052990,0.075700,0.000000,117.000000,110.000000,7.000000,10.000000,0.000000,0.000000:
0000
0000
0000
0000
,
0000
0000
0000
0000
,
0000
0000
0000
0000
,
0000
0000
0000
0000
,
0000
0000
0000
0000
,
0000
0000
0000
0000
,
0000
0000
0000
0000
,
0000
0000
0000
0000
,
1000
0000
0001
0000
,
1000
0000
0001
0000
,
1000
0000
1000
0000
,
0001
0000
0001
0000
,
0100
0000
0010
0000
,
0100
0000
0010
0000
,
0100
0000
0100
0000
,
0010
0000
0010
0000
,
1000
1000
0000
0100
,
0000
0010
0000
0100
,
0000
1000
0000
0010
,
0000
0100
0000
0010
,
0000
1000
0000
0001
,
0000
0010
0000
0001
,
0000
1000
0000
0001
,
0000
0100
0000
0010
,
0020
0000
0000
0000
,
0030
0000
0000
0000
,
0200
0000
0000
0000
,
0300
0000
0000
0000
,
0002
0000
0000
0000
,
0003
0000
0000
0000
,
2000
0000
0000
0000
,
3000
0000
0000
0000
,
0001
0001
0000
1000
,
0000
0100
0000
0010
,
0000
0001
0000
0100
,
0000
0010
0000
1000
,
0000
0001
0000
0010
,
0000
0100
0000
1000
,
0000
0010
0000
0100
,
0000
0001
0000
1000
,
1000
0000
0000
0000
,
0001
0000
0000
0000
,
1000
0000
0000
0000
,
0001
0000
0000
0000
,
0100
0000
0000
0000
,
0010
0000
0000
0000
,
0100
0000
0000
0000
,
0010
0000
0000
0000
,
2000
0000
0000
0000
,
0000
0000
3000
0000
,
0002
0000
0000
0000
,
0000
0000
0003
0000
,
0200
0000
0000
0000
,
0000
0000
0300
0000
,
0020
0000
0000
0000
,
0000
0000
0030
0000
,
0110
0000
0000
0000
,
0100
0000
0000
0000
,
0001
0000
0000
0000
,
0010
0000
0000
0000
,
0110
0000
0000
0000
,
1001
0000
0000
0000
,
0110
0000
0110
0000
,
2002
0000
3003
0000
,
0001
0001
0000
1000
,
0000
0010
0000
0100
,
0000
0001
0000
1000
,
0000
0100
0000
0010
,
0010
0010
0000
0100
,
0000
1000
0000
0001
,
0000
0100
0000
0010
,
0000
1000
0000
0001
,
0001
0000
0001
0000
,
0100
0000
0100
0000
,
0001
0000
1000
0000
,
0001
0000
1000
0000
,
0100
0000
0100
0000
,
0010
0000
0010
0000
,
0001
0000
1000
0000
,
0001
0000
1000
0000
,
1001
0000
0000
0000
;

//---------------dance-single - ----------------
#NOTES:
     dance-single:
     :
     Easy:
     3:
     0.248727,0.363358,0.136259,0.143829,0.000000,230.000000,212.000000,18.000000,19.000000,0.000000,0.000000,0.248727,0.363358,0.136259,0.143829,0.000000,230.000000,212.000000,18.000000,19.000000,0.000000,0.000000:
0000
0000
0000
0000
,
0000
0000
0000
0000
,
0000
0000
0000
0000
,
0000
0000
0000
0000
,
0000
0000
0000
0000
,
0000
0000
0000
0000
,
0000
0000
0000
0000
,
0000
0000
0000
0000
,
1000
1000
0001
0001
,
1000
1000
0001
0001
,
0100
0100
0010
0010
,
0100
0100
0010
0010
,
1000
1000
0010
0010
,
0100
0100
0001
0001
,
0010
0010
0100
0100
,
1000
1000
0001
0001
,
1001
0001
0000
0101
,
0000
0100
0000
0110
,
0000
0010
0000
1010
,
0000
1000
0000
1100
,
0000
0100
0000
0110
,
0000
0010
0000
0011
,
0000
0001
0000
1001
,
0000
0110
0000
1001
,
0002
0000
1003
1000
,
0200
0000
0310
0010
,
0200
0000
1300
1000
,
0020
0000
0130
0100
,
0001
1000
0001
1000
,
0010
0100
0010
0100
,
0001
0010
0001
0010
,
0100
1000
0100
1000
,
0001
0010
0000
0010
,
0001
0100
0000
0100
,
0010
1000
0000
1000
,
0001
0010
0000
0010
,
0100
0001
0000
0001
,
0100
1000
0000
1000
,
0010
0100
0000
0100
,
0010
0001
0000
0001
,
0020
1000
0000
1000
,
0000
0100
0000
0130
,
0002
0010
0000
0010
,
0000
1000
0000
1003
,
0200
1000
0000
0010
,
0000
0010
0000
1300
,
2000
0010
0000
0001
,
0000
0100
0000
3100
,
0200
0000
0000
0000
,
2300
0000
0000
0000
,
3020
0000
0000
0000
,
2030
0000
0000
0000
,
3002
0000
0000
0000
,
0023
0000
0000
0000
,
0230
0000
0000
0000
,
2300
0000
0000
3000
,
1001
0100
0000
0100
,
0000
0100
0000
0100
,
0000
0001
0000
0001
,
0000
0001
0000
0001
,
0110
1000
0000
1000
,
0110
0001
0000
0001
,
0110
1000
0110
0001
,
2002
0000
3003
0000
,
0001
0010
0010
0001
,
1000
0100
0100
1000
,
0010
0100
0100
0010
,
1000
0001
0001
1000
,
0001
0100
0100
0001
,
1000
0010
0010
1000
,
0010
0100
0100
0010
,
1000
0001
0001
1000
,
1001
1000
1000
1000
,
0001
0001
0001
0001
,
0100
0100
0100
0100
,
1000
1000
1000
1000
,
0100
0100
0001
0001
,
0010
0010
0100
0100
,
1000
1000
0001
0001
,
2000
0000
0000
3001
,
1001
0000
0000
0000
;

//---------------dance-double - ----------------
#NOTES:
     dance-double:
     :
     Hard:
     9:
     0.558015,0.696437,0.196819,0.052990,0.658587,516.000000,490.000000,26.000000,7.000000,0.000000,0.000000,0.558015,0.696437,0.196819,0.052990,0.658587,516.000000,490.000000,26.000000,7.000000,0.000000,0.000000:
// measure 0
00000000
00000000
00000000
00000000
,  // measure 1
00000000
00000000
00000000
00000000
,  // measure 2
00000000
00000000
00000000
00000000
,  // measure 3
00000000
00000000
00000000
00000000
,  // measure 4
00000000
00000000
00000000
00000000
,  // measure 5
00000000
00000000
00000000
00000000
,  // measure 6
00000000
00000000
00000000
00000000
,  // measure 7
00000000
00000000
00000000
00000000
,  // measure 8
10010000
10000000
00010000
00100000
,  // measure 9
00001000
00000100
00000001
00000010
,  // measure 10
00000100
00010000
00001000
00100000
,  // measure 11
00010000
01000000
10000000
01000000
,  // measure 12
00100000
00000000
10000000
01000000
00000000
00000000
10000000
01000000
00000000
00000000
00100000
00010000
00000000
00000000
00100000
00010000
,  // measure 13
00000000
00000000
01000000
00010000
00000000
00000000
01000000
00010000
00000000
00000000
00100000
00001000
00000000
00000000
00100000
00001000
,  // measure 14
00000000
00000000
00010000
00000100
00000000
00000000
00010000
00000100
00000000
00000000
00001000
00000010
00000000
00000000
00001000
00000010
,  // measure 15
00000000
00000000
00000100
00000010
00000000
00000000
00000100
00000010
00000000
00000000
00000100
00000001
00000000
00000000
00000100
00000001
,  // measure 16
00002000
00000000
00000000
00003100
00000000
00000000
00000010
00000000
00000000
00000001
00000000
00000000
00000100
00000000
00000000
00000100
,  // measure 17
00000010
00000000
00000000
00001000
00000000
00000000
00000100
00000000
00010000
00000000
00000000
00001000
00000000
00000000
00100000
00000000
,  // measure 18
00010000
00000000
00000000
01000000
00000000
00000000
10000000
00000000
00000000
01000000
00000000
00000000
00010000
00000000
00000000
00100000
,  // measure 19
00000000
01000000
00000000
00100000
00000000
00000000
00010000
00000000
00000000
00010000
00000000
00000000
00010000
00000000
00000000
00000000
,  // measure 20
00100000
00000000
00000000
00001000
00000000
00000000
00010000
00000000
00000000
00000100
00000000
00000000
00000010
00000000
00000000
00000010
,  // measure 21
00000001
00000000
00000000
00000100
00000000
00000000
00001000
00000000
00000001
00000000
00000000
00000010
00000000
00000000
00001000
00000000
,  // measure 22
00000001
00000000
00000000
00000010
00000000
00000000
00000100
00000000
00000000
00001000
00000000
00000000
00010000
00000000
00000000
00001000
,  // measure 23
00000000
00000100
00000000
00010000
00000000
00000000
00100000
00000000
00000000
10000000
00000000
00000000
10010000
00000000
00000000
00000000
,  // measure 24
00010000
00000000
00100000
00000000
00100000
00000000
00000000
00010000
00000000
00000000
01000000
00000000
00000000
00000000
00010000
00000000
,  // measure 25
00000000
00000000
00100000
00000000
00000000
00001000
00000000
00000000
00000100
00000000
00000000
00000010
00000000
00000000
00001000
00000000
,  // measure 26
00000100
00000000
00000010
00000000
00000010
00000000
00000000
00000001
00000000
00000000
00000100
00000000
00000000
00000010
00000000
00001000
,  // measure 27
00000000
00000000
00000001
00000000
00000000
00000100
00000000
00000000
00010000
00000000
00000000
00100000
00000000
00000000
10000000
00000000
,  // measure 28
00100000
00000000
01000000
00000000
01000000
00000000
00000000
00100000
00000000
00000000
00010000
00000000
00000000
00000000
01000000
00000000
,  // measure 29
00010000
00000000
00100000
00000000
00000000
00001000
00000000
00000000
01000000
00000000
00000000
00100000
00000000
00000000
00010000
00000000
,  // measure 30
00001000
00000000
00000100
00000000
00000000
00000001
00000000
00001000
00000000
00000000
00000100
00000000
00000000
00000000
00000010
00000000
,  // measure 31
00000001
00000000
00000000
00000010
00000000
00000000
00001000
00000000
00010000
00000000
00000000
01000000
00000000
00000000
10000000
00000000
,  // measure 32
12000000
00000000
10000000
00000000
13000000
00000000
00010000
00100000
00000000
00010000
00100000
00000000
01000000
00000000
00100000
00000000
,  // measure 33
01000000
00000000
10000000
00000000
00010000
01000000
00000000
00010000
00100000
00000000
00001000
00010000
00000000
00001000
00100000
00000000
,  // measure 34
01000000
00000000
00100000
00000000
00010000
00000000
00100000
00001000
00000000
00010000
00001000
00000000
00010000
00000100
00000000
00000100
,  // measure 35
00000000
00000010
00000001
00000000
00000010
00000100
00000000
00000010
00000001
00000000
00000100
00000010
00000000
00000100
00000001
00000000
,  // measure 36
00001000
00000000
00000010
00000000
00000010
00000000
00000100
00000010
00000000
00001000
00000100
00000000
00001000
00000000
00000001
00000000
,  // measure 37
00001000
00000000
00000010
00000000
00001000
00000100
00000000
00010000
00000100
00000000
00100000
00001000
00000000
00100000
00010000
00000000
,  // measure 38
01000000
00000000
00010000
00000000
01000000
00100000
00000000
10000000
00000000
00100000
01000000
00000000
00010000
00000000
00100000
00000000
,  // measure 39
10000000
00000000
00100000
00010000
00000000
01000000
00100000
00000000
00010000
00000000
00100000
01000000
00000000
00010000
00100000
00000000
,  // measure 40
00110000
00010000
00001000
00000010
00000000
00000100
00000001
00000010
,  // measure 41
00000000
00000001
00000010
00001000
00000000
00010000
01000000
10000000
,  // measure 42
00000000
00100000
00000000
00001000
00000000
00100000
10000000
00010000
,  // measure 43
00000000
00000000
00100000
00000000
00000000
00001000
00000000
00000000
00010000
00000000
00000000
00100000
00000000
00000000
10000000
00000000
,  // measure 44
01000000
00100000
00000000
00001000
00010000
01000000
00000000
00010000
,  // measure 45
00000000
00000100
00010000
00001000
00000000
00010000
00001000
00000100
,  // measure 46
00000000
00000001
00000000
00000010
00000000
00000100
00010000
00001000
,  // measure 47
00000000
00010000
01000000
10000000
00000000
01000000
00100000
00010000
,  // measure 48
20010000
00000000
00000000
01000000
00000000
00000000
00100000
00000000
00000000
00100000
00000000
00000000
30100000
00000000
00000000
00000000
,  // measure 49
01000000
00000000
00000000
00010000
00000000
00000000
00100000
00000000
00001000
00000000
00000000
00010000
00000000
00000000
00000100
00000000
,  // measure 50
00000020
00000000
00000000
00000001
00000000
00000000
00000100
00000000
00000000
00001000
00000000
00000000
00000100
00000000
00000000
00000031
,  // measure 51
00000000
00001000
00000000
00000000
00000100
00000000
00010000
00000000
00000000
00010000
00000000
00000000
00010000
00000000
00000100
00000000
,  // measure 52
00002000
00000000
00000000
00000001
00000000
00000000
00000010
00000000
00000000
00000010
00000000
00000000
00003010
00000000
00000000
00000000
,  // measure 53
00000001
00000000
00000000
00001000
00000000
00000000
00000100
00000000
00010000
00000000
00000000
00001000
00000000
00000000
00100000
00000000
,  // measure 54
02000000
00000000
00000000
10000000
00000000
00000000
00100000
00000000
00000000
00010000
00000000
00000000
03100000
00000000
00000000
00100000
,  // measure 55
01000000
10000000
00000000
00000000
10000000
00000000
00010000
00000000
00000000
00100000
00000000
00000000
00001000
00000000
00010000
00000000
,  // measure 56
00010100
00000000
00000000
00000100
00000000
00000000
00010000
00000000
00000000
01000000
00000000
00000000
00100000
00000000
00010000
00000000
,  // measure 57
10000000
00000000
00000000
00100000
00000000
00000000
01000000
00000000
10000000
00000000
00000000
01000000
00000000
00000000
00010000
00000000
,  // measure 58
00000000
00100000
00000000
00001000
00000000
00000000
00000010
00000000
00000001
00000000
00000010
00000000
00001000
00000000
00000010
00000000
,  // measure 59
00000010
00000000
00000000
00000001
00000000
00000000
00000100
00001000
00000000
00100000
00000000
00001000
00000000
00010000
00000000
00000000
,  // measure 60
00120000
00000000
00000000
00130000
00000000
00000000
10000000
00000000
00000000
01000000
00000000
00100000
00000000
00001000
00000000
00000000
,  // measure 61
00101000
00000000
00000000
00001000
00000000
00000000
00010000
00000000
00000000
00000000
00000100
00000000
00000000
00001000
00000000
00000000
,  // measure 62
00001100
00000000
00000000
00000100
00000000
00000000
00010000
00000000
00001000
00100000
00000000
00000000
01000000
00000000
00100000
00000000
,  // measure 63
00110000
00000000
00000000
00101000
00000000
00000000
00010100
00000000
00000110
00000000
00000000
00001100
00000000
00000000
00011000
00000000
,  // measure 64
01010000
00000000
00000000
00010000
01000000
00000000
00100000
00000000
10000000
00010000
00000000
00000000
10010000
00000000
00000000
10000000
,  // measure 65
00010000
00000000
00000000
00100000
00001000
00000000
00100000
00000000
01000000
00000000
00000000
00100000
00001000
00000000
00010000
00000000
,  // measure 66
00000100
00000000
00000000
00010000
00100000
00000000
00010000
00000000
00000100
00000010
00000000
00000000
00000110
00000000
00000000
00000010
,  // measure 67
00000001
00000010
00000000
00000100
00000010
00000000
00000001
00000000
00001000
00000001
00000000
00000000
00001001
00000000
00000000
00000000
,  // measure 68
00010100
00000000
00000000
00010000
00100000
00000000
00010000
00000000
00100000
10000000
00000000
00000000
10010000
00000000
00000000
00010000
,  // measure 69
10000000
00000000
00000000
10000000
01000000
00000000
00010000
00000000
01000000
00000000
00000000
01000000
00100000
00000000
00001000
00000000
,  // measure 70
00010000
00000000
00000000
00001000
00000100
00000000
00000010
00000000
00001000
00000001
00000000
00000000
00001001
00000000
00000000
00000001
,  // measure 71
00001000
00000010
00000000
00000100
00000010
00000000
00000100
00000000
00000000
00000010
00000000
00000000
00000110
00000000
00000000
00000000
,  // measure 72
00001010
00000000
00000000
00000010
00001000
00000000
00000000
00001000
00010000
00000000
00000000
00010000
01000000
00000000
00000000
01000000
,  // measure 73
00100000
00000000
00000000
00100000
00010000
00000000
00000000
00010000
00100000
00000000
00000000
00100000
10000000
00000000
00000000
10000000
,  // measure 74
01000000
00000000
00000000
01000000
00100000
00000000
00000000
00100000
00001000
00000000
00000000
00001000
00010000
00000000
00000000
00010000
,  // measure 75
00000010
00000000
00000000
00000010
00000001
00000000
00000000
00000001
00000100
00000000
00000000
00000100
00001000
00000000
00000000
00000000
,  // measure 76
00011000
00000000
00001000
00100000
00000000
00000000
00010000
00100000
00000000
00000000
00010000
01000000
00000000
00000000
00100000
01000000
,  // measure 77
00000000
00000000
00100000
10000000
00000000
00000000
01000000
10000000
00000000
00000000
00010000
10000000
00000000
00000000
01000000
00100000
,  // measure 78
00000000
00000000
00010000
00100000
00000000
00000000
00001000
00010000
00000000
00000000
00000100
00010000
00000000
00000000
00000100
00001000
,  // measure 79
00000000
00000000
00000100
00000010
00000000
00000000
00000100
00000010
00000000
00000000
00000100
00000010
00000001
00000000
00000001
00000000
,  // measure 80
00000110
00000000
00000000
00000000
;

//---------------dance-double - ----------------
#NOTES:
     dance-double:
     :
     Medium:
     6:
     0.403371,0.454198,0.196819,0.128689,0.098410,373.000000,347.000000,26.000000,17.000000,0.000000,0.000000,0.403371,0.454198,0.196819,0.128689,0.098410,373.000000,347.000000,26.000000,17.000000,0.000000,0.000000:
// measure 0
00000000
00000000
00000000
00000000
,  // measure 1
00000000
00000000
00000000
00000000
,  // measure 2
00000000
00000000
00000000
00000000
,  // measure 3
00000000
00000000
00000000
00000000
,  // measure 4
00000000
00000000
00000000
00000000
,  // measure 5
00000000
00000000
00000000
00000000
,  // measure 6
00000000
00000000
00000000
00000000
,  // measure 7
00000000
00000000
00000000
00000000
,  // measure 8
10000000
00100000
10000000
00010000
,  // measure 9
01000000
00001000
00010000
00000100
,  // measure 10
00000010
00000001
00000100
00000010
,  // measure 11
00001000
00000100
00010000
00100000
,  // measure 12
10000000
00010000
00000000
00100000
00000000
01000000
00000000
10000000
,  // measure 13
00000000
00010000
00000000
00100000
00000000
00001000
00000000
00010000
,  // measure 14
00000000
00000100
00000000
00000010
00000000
00000001
00000000
00000100
,  // measure 15
00000000
00000010
00000000
00010000
00000000
00001000
00000000
00100000
,  // measure 16
01000000
00000000
10010000
00000000
00010000
01000000
00100000
00000000
,  // measure 17
10000000
00000000
11000000
00000000
00010000
00100000
00001000
00000000
,  // measure 18
00100000
00000000
00110000
00000000
00100000
00001000
00010000
00000000
,  // measure 19
00000100
00000000
00001100
00000000
00000100
00001000
00000001
00000000
,  // measure 20
00001000
00000000
00001010
00000000
00001000
00000001
00000100
00000000
,  // measure 21
00000001
00000000
00000011
00000000
00000010
00000100
00001000
00000000
,  // measure 22
00000100
00000000
00001100
00000000
00000100
00010000
00001000
00000000
,  // measure 23
00100000
00000000
00110000
00000000
00010000
00100000
00001000
00000000
,  // measure 24
00200000
01000000
01000000
01300000
,  // measure 25
10000000
00010000
01000000
00000000
00010000
10000000
01000000
00000000
,  // measure 26
00200000
00001000
00001000
00301000
,  // measure 27
00010000
00001000
00100000
00000000
00001000
00010000
00000100
00000000
,  // measure 28
00000020
00000001
00000001
00000031
,  // measure 29
00001000
00000001
00000100
00000000
00000100
00000001
00001000
00000000
,  // measure 30
00000020
00001000
00001000
00001030
,  // measure 31
00000100
00010000
00001000
00000000
00100000
00001000
00020000
00000000
,  // measure 32
00031000
00010000
00100000
00000000
00100000
10000000
01000000
00000000
,  // measure 33
01000000
00100000
00010000
00000000
00010000
10000000
00010000
00000000
,  // measure 34
00010000
00001000
00000100
00000000
00000100
00001000
00000010
00000000
,  // measure 35
00000010
00000100
00000001
00000000
00000001
00001000
00000001
00000000
,  // measure 36
00000001
00000010
00000100
00000000
00001000
00000001
00000100
00000000
,  // measure 37
00000010
00001000
00000100
00001000
00000100
00010000
00001000
00000000
,  // measure 38
00100000
00010000
00100000
00010000
01000000
00100000
10000000
00000000
,  // measure 39
00100000
01000000
00100000
01000000
00010000
10000000
00010000
00000000
,  // measure 40
00020000
00100000
00100000
00130000
00000000
01000000
00100000
01000000
,  // measure 41
00000000
00100000
00010000
00100000
00000000
00010000
01000000
00010000
,  // measure 42
00000000
00100000
00000000
00001000
00000000
00010000
00001000
00010000
,  // measure 43
00000000
00000000
00001000
00000000
00000000
00000100
00000000
00000000
00000001
00000000
00000000
00001000
00000000
00000000
00000001
00000000
,  // measure 44
00000010
00000001
00000000
00000010
00000100
00000010
00000000
00000100
,  // measure 45
00000000
00001000
00010000
00100000
00000000
00010000
00001000
00000100
,  // measure 46
00000000
00001000
00000000
00010000
00000000
00100000
10000000
00100000
,  // measure 47
00000000
01000000
00010000
01000000
00000000
10000000
00100000
10000000
,  // measure 48
20000000
00100000
00000000
00010000
00000000
01000000
00000000
00010000
,  // measure 49
30000000
00100000
00000000
01000000
00000000
10000000
00000000
00100000
,  // measure 50
00000000
01000000
00000000
00010000
00000000
00100000
00000000
00010000
,  // measure 51
00000000
00001000
00000000
00010000
00000000
00100000
00000000
00001000
,  // measure 52
00000000
00010000
00000000
00000100
00000000
00000010
00000000
00000001
,  // measure 53
00000000
00000010
00000000
00000100
00000000
00001000
00000000
00000010
,  // measure 54
00000000
00001000
00000000
00000001
00000000
00000100
00000000
00000001
,  // measure 55
00000000
00001000
00000000
00000100
00000000
00010000
00000000
00100000
,  // measure 56
01000000
01100000
00000000
01010000
,  // measure 57
10000000
10100000
00000000
01010000
,  // measure 58
00001000
00011000
00000000
00010100
,  // measure 59
00000100
00000110
00000000
00000011
,  // measure 60
00001001
00001010
00000000
00000110
,  // measure 61
00001100
00010100
00000000
00101000
,  // measure 62
00011000
00100000
00011000
00000100
,  // measure 63
00001100
00000000
00000000
00000100
00000000
00000000
00010000
00000000
00001000
00000000
00000000
00100000
00000000
00000000
00010000
00000000
,  // measure 64
00100000
00000000
00000000
01000000
00000000
00000000
00100000
00000000
00000000
00010000
00000000
00000000
10000000
00000000
00000000
00000000
,  // measure 65
00020000
00000000
00000000
00100000
00000000
00000000
00130000
00000000
00002000
00000000
00000000
00010000
00000000
00000000
00013000
00000000
,  // measure 66
00000100
00000000
00000000
00000010
00000000
00000000
00000100
00000000
00000000
00001000
00000000
00000000
00000001
00000000
00000000
00000000
,  // measure 67
00000100
00000000
00000000
00000100
00000000
00000000
00000100
00000000
00000000
00000001
00000000
00000000
00001000
00000000
00000000
00000000
,  // measure 68
00000100
00000000
00000000
00000010
00000000
00000000
00000100
00000000
00000000
00001000
00000000
00000000
00000001
00000000
00000000
00000000
,  // measure 69
00002000
00000000
00000000
00000100
00000000
00000000
00003100
00000000
00020000
00000000
00000000
00001000
00000000
00000000
00031000
00000000
,  // measure 70
00100000
00000000
00000000
01000000
00000000
00000000
00100000
00000000
00000000
00010000
00000000
00000000
10000000
00000000
00000000
00000000
,  // measure 71
00100000
00000000
00000000
00100000
00000000
00000000
00100000
00000000
00000000
10000000
00000000
00000000
00010000
00000000
00000000
00000000
,  // measure 72
20000000
00000000
00000000
00000000
00000000
00000000
01000000
00000000
00000000
01000000
00000000
00000000
31000000
00000000
00000000
00000000
,  // measure 73
00200000
00000000
00000000
00000000
00000000
00000000
00001000
00000000
00000000
00001000
00000000
00000000
00301000
00000000
00000000
00000000
,  // measure 74
00020000
00000000
00000000
00000000
00000000
00000000
00001000
00000000
00000000
00001000
00000000
00000000
00031000
00000000
00000000
00000000
,  // measure 75
00000100
00000001
00001000
00000001
,  // measure 76
00000002
00000000
00000000
00000000
00000000
00000000
00000010
00000000
00000000
00000010
00000000
00000000
00000013
00000000
00000000
00000000
,  // measure 77
00000200
00000000
00000000
00000000
00000000
00000000
00010000
00000000
00000000
00010000
00000000
00000000
00010300
00000000
00000000
00000000
,  // measure 78
00002000
00000000
00000000
00000000
00000000
00000000
00010000
00000000
00000000
00010000
00000000
00000000
00013000
00000000
00000000
00000000
,  // measure 79
00100000
00000000
10000000
00000000
00010000
00000000
10000000
10000000
,  // measure 80
10010000
00000000
00000000
00000000
;

//---------------dance-double - ----------------
#NOTES:
     dance-double:
     :
     Easy:
     4:
     0.270356,0.363358,0.196819,0.143829,0.000000,250.000000,224.000000,26.000000,19.000000,0.000000,0.000000,0.270356,0.363358,0.196819,0.143829,0.000000,250.000000,224.000000,26.000000,19.000000,0.000000,0.000000:
// measure 0
00000000
00000000
00000000
00000000
,  // measure 1
00000000
00000000
00000000
00000000
,  // measure 2
00000000
00000000
00000000
00000000
,  // measure 3
00000000
00000000
00000000
00000000
,  // measure 4
00000000
00000000
00000000
00000000
,  // measure 5
00000000
00000000
00000000
00000000
,  // measure 6
00000000
00000000
00000000
00000000
,  // measure 7
00000000
00000000
00000000
00000000
,  // measure 8
01100000
01000000
10000000
10000000
,  // measure 9
00010000
00010000
00100000
00100000
,  // measure 10
00001000
00001000
00010000
00010000
,  // measure 11
00000100
00000100
00001000
00001000
,  // measure 12
00000001
00000001
00000100
00000100
,  // measure 13
00000010
00000010
00001000
00001000
,  // measure 14
00000100
00000100
00010000
00010000
,  // measure 15
00001000
00001000
00100000
00100000
,  // measure 16
01100000
01000000
00000000
11000000
,  // measure 17
00000000
10000000
00000000
10100000
,  // measure 18
00000000
00100000
00000000
01100000
,  // measure 19
00000000
01000000
00000000
01010000
,  // measure 20
00000000
00010000
00000000
00110000
,  // measure 21
00000000
00100000
00000000
00101000
,  // measure 22
00000000
00001000
00000000
00011000
,  // measure 23
00000000
00010000
00000000
00011000
,  // measure 24
00002000
00000000
00003200
00000000
,  // measure 25
00000301
00001000
00000001
00001000
,  // measure 26
00000002
00000000
00002003
00000000
,  // measure 27
00003010
00000100
00000010
00000100
,  // measure 28
00000020
00000000
00002030
00000000
,  // measure 29
00003100
00010000
00000100
00010000
,  // measure 30
00002000
00000000
00203000
00000000
,  // measure 31
00310000
10000000
00010000
10000000
,  // measure 32
00010000
00110000
00000000
11000000
,  // measure 33
01000000
00100000
01000000
00100000
,  // measure 34
00010000
00110000
00000000
00011000
,  // measure 35
00001000
00010000
00001000
00010000
,  // measure 36
00000100
00010100
00000000
00001100
,  // measure 37
00000100
00000010
00000100
00000010
,  // measure 38
00000001
00000011
00000000
00001001
,  // measure 39
00000001
00001000
00000001
00001000
,  // measure 40
00000100
00000010
00000100
00000010
,  // measure 41
00000001
00000100
00000001
00000100
,  // measure 42
00000010
00001000
00000010
00001000
,  // measure 43
00000100
00010000
00000100
00010000
,  // measure 44
00001000
00010000
00001000
00010000
,  // measure 45
00001000
00100000
00001000
00100000
,  // measure 46
00010000
00100000
00010000
00100000
,  // measure 47
01000000
00100000
01000000
00100000
,  // measure 48
02000000
00000000
00000000
00000000
,  // measure 49
23000000
00000000
00000000
00000000
,  // measure 50
30200000
00000000
00000000
00000000
,  // measure 51
20300000
00000000
00000000
00000000
,  // measure 52
30020000
00000000
00000000
00000000
,  // measure 53
00230000
00000000
00000000
00000000
,  // measure 54
00302000
00000000
00000000
00000000
,  // measure 55
00023000
00000000
00000000
00030000
,  // measure 56
00011000
00100000
00000000
00100000
,  // measure 57
00000000
00100000
00000000
00100000
,  // measure 58
00000000
00001000
00000000
00001000
,  // measure 59
00000000
00001000
00000000
00001000
,  // measure 60
00011000
00000100
00000000
00000100
,  // measure 61
00011000
00100000
00000000
00100000
,  // measure 62
00011000
00000100
00011000
00100000
,  // measure 63
00022000
00000000
00000000
00033000
,  // measure 64
00010000
00100000
10000000
01000000
,  // measure 65
00100000
01000000
00100000
01000000
,  // measure 66
10000000
00100000
00010000
00001000
,  // measure 67
00000100
00000001
00000100
00000001
,  // measure 68
00000010
00000100
00001000
00010000
,  // measure 69
00100000
01000000
00100000
01000000
,  // measure 70
10000000
01000000
00100000
00010000
,  // measure 71
00001000
00000010
00001000
00000010
,  // measure 72
00001010
00001000
00001000
00001000
,  // measure 73
00000010
00000010
00000010
00000010
,  // measure 74
00010000
00010000
00010000
00010000
,  // measure 75
00001000
00001000
00001000
00001000
,  // measure 76
00100000
00100000
00100000
00100000
,  // measure 77
00010000
00010000
00010000
00010000
,  // measure 78
10000000
10000000
10000000
10000000
,  // measure 79
00200000
00000000
00000000
01300000
,  // measure 80
01100000
00000000
00000000
00000000
;
