#TITLE:I Took A Pill In Ibiza (SeeB Remix);
#SUBTITLE:;
#ARTIST:Mike Posner;
#TITLETRANSLIT:;
#SUBTITLETRANSLIT:;
#ARTISTTRANSLIT:;
#GENRE:;
#CREDIT:;
#BANNER:I Took A Pill In Ibiza (SeeB Remix).png;
#BACKGROUND:I Took A Pill In Ibiza (SeeB Remix)-bg.png;
#LYRICSPATH:;
#CDTITLE:;
#MUSIC:I Took A Pill In Ibiza (SeeB Remix).ogg;
#OFFSET:0.000000;
#SAMPLESTART:94.176414;
#SAMPLELENGTH:15.000000;
#SELECTABLE:YES;
#BPMS:0.000000=102.000000
;
#STOPS:
;
#BGCHANGES:;
#KEYSOUNDS:;
#ATTACKS:;

//---------------dance-single - ----------------
#NOTES:
     dance-single:
     :
     Beginner:
     1:
     0.072230,0.103045,0.000000,0.051294,0.000000,69.000000,69.000000,0.000000,7.000000,0.000000,0.000000,0.072230,0.103045,0.000000,0.051294,0.000000,69.000000,69.000000,0.000000,7.000000,0.000000,0.000000:
0000
0000
0000
0000
,
0000
0000
0000
0000
,
0000
0000
0000
0000
,
0000
0000
0000
0000
,
0001
0000
0000
0000
,
1000
0000
0000
0000
,
0001
0000
0000
0000
,
1000
0000
0000
0000
,
0020
0000
0030
0000
,
0100
0000
0000
0000
,
1000
0000
0000
0000
,
0001
0000
0000
0000
,
0200
0000
0300
0000
,
0010
0000
0000
0000
,
0001
0000
0000
0000
,
1000
0000
0000
0000
,
0010
0000
0000
0000
,
1000
0000
0000
0000
,
0001
0000
0000
0000
,
0100
0000
0000
0000
,
0010
0000
0000
0000
,
0001
0000
0000
0000
,
1000
0000
0000
0000
,
0100
0000
0000
0000
,
0002
0000
0000
0003
,
1000
0000
0000
0000
,
0100
0000
0000
0000
,
0001
0000
0000
0000
,
2000
0000
0000
3000
,
0001
0000
0000
0000
,
0010
0000
0000
0000
,
0100
0000
0000
0000
,
1000
0000
1000
0000
,
0001
0000
0002
0003
,
0000
0100
0000
0100
,
0100
0000
0010
0000
,
0001
0000
0001
0000
,
1000
0000
2000
3000
,
0000
0100
0000
0100
,
0100
0000
0010
0000
,
0001
0000
0010
0000
,
0100
0000
1000
0000
,
0001
0000
0100
0000
,
0010
0000
1000
0000
,
0001
0000
1000
0000
,
0010
0000
0100
0000
,
0001
0000
1000
0000
,
0100
0000
0010
0000
,
0001
0000
0000
0000
,
0100
0000
0000
0000
,
1000
0000
0000
0000
,
0010
0000
0000
0000
,
0100
0000
0000
0000
,
0001
0000
0000
0000
,
1000
0000
0000
0000
,
0010
0000
0000
0200
,
0000
0300
0000
0000
;

//---------------dance-single - ----------------
#NOTES:
     dance-single:
     :
     Hard:
     7:
     0.392554,0.432791,0.168536,0.153881,0.249141,375.000000,352.000000,23.000000,21.000000,0.000000,0.000000,0.392554,0.432791,0.168536,0.153881,0.249141,375.000000,352.000000,23.000000,21.000000,0.000000,0.000000:
0000
0000
0000
0000
,
0000
0000
0000
0000
,
0000
0000
0000
0000
,
0000
0000
0000
0000
,
1000
0010
0100
0001
,
1000
0100
0010
0001
,
0100
0010
1000
0001
,
1000
0000
0000
0100
0000
0000
0010
0000
0000
0001
0000
0000
0100
0000
0010
0000
,
2000
0000
3100
0000
0000
0000
0001
0100
,
0010
0000
0000
0010
0000
0000
0010
0000
0000
0000
0000
0000
1000
0000
0001
0000
,
0010
0001
0010
0001
1000
0010
1000
0010
,
0100
0000
0001
0000
1000
0000
0100
0000
1000
0000
0000
0000
0001
0100
0001
0000
,
2000
3001
0000
0010
,
0100
0000
0001
0000
1000
0000
0100
0010
0000
0000
0000
0000
0100
0000
1000
0000
,
0001
0001
1000
1000
0010
0010
0100
0100
,
0001
0000
0010
0000
0100
0000
1000
0001
0000
0000
1000
0000
0010
0000
0100
0000
,
0001
0000
0000
0001
0000
0000
0001
0000
0000
0000
0010
0100
0010
0000
0001
0000
,
1000
0000
0000
1000
0000
0000
1000
0000
0000
0000
0010
0100
0010
0000
1000
0000
,
0100
0010
0000
0010
0001
0000
0001
0100
0000
0100
0010
0000
1000
0000
0000
0000
,
0001
0010
0000
0010
0100
0000
0100
1000
0000
1000
0001
0000
0100
0000
0010
0000
,
1010
0000
0000
0011
0000
0000
1010
0000
0000
0000
0001
0000
1000
0000
0001
0000
,
0101
0000
0000
1100
0000
0000
0101
0000
0000
0000
0100
0000
0010
0000
1000
0000
,
0001
0010
0000
0010
0000
0100
0000
0010
0000
0000
0001
0000
1000
0000
0001
0000
,
1000
0010
0000
0010
0000
0100
0000
0010
0000
0000
1000
0000
0010
0000
0100
0000
,
0002
0000
0003
1000
0010
0000
0100
0000
0001
1000
0000
0000
0100
0000
1000
0000
,
0001
0000
0000
0010
0100
0000
0010
0000
0001
0100
0000
0000
0010
0000
1000
0000
,
0100
0000
0000
1000
0001
0000
0100
0000
0010
0100
0000
0000
0001
0000
1000
0000
,
0100
0000
0000
0010
0001
0000
1000
0000
0010
1000
0000
0000
0100
0000
0000
0000
,
0200
0000
0300
0010
0001
0000
0100
0000
0001
1000
0000
0000
1100
0000
0000
0000
,
0011
0000
0000
1000
0100
0000
0010
0000
0001
1000
0000
0000
1010
0000
0000
0000
,
0101
0000
0000
0010
1000
0000
0001
0000
0010
0100
0000
0000
0110
0000
0000
0000
,
1001
0000
0000
1000
0010
0000
1000
0000
0001
0010
0000
0000
0110
0000
0000
0000
,
0001
0000
0100
0000
0010
0000
1000
0000
0001
0000
1000
0100
0000
0000
0100
0000
,
0010
0001
0100
0010
0220
0330
2002
3003
,
0000
0000
0010
0000
0100
0000
0000
0000
0001
0000
1000
0100
0000
0000
0010
0000
,
0001
0000
0000
0010
0000
0000
0100
0000
0000
1000
0000
0000
0100
0000
0010
0100
,
0010
0000
0001
0000
1000
0000
0100
0000
0010
0000
0001
0010
0000
0000
0010
0000
,
0100
1000
0010
0100
0202
0303
2200
3300
,
0001
0000
0100
0000
1000
0000
0000
0000
0001
0000
1000
0010
0000
0000
1000
0000
,
0100
0000
0000
0010
0000
0000
0001
0000
0000
0100
0000
0000
0010
0000
1000
0001
,
1000
0000
0100
0000
0010
0000
0001
0000
0100
0000
0010
1000
0000
0010
1000
0000
,
0001
0100
0010
1000
2020
3030
0022
0033
,
0000
0000
0010
0000
0100
0000
0000
0000
1000
0000
0001
0010
0000
0000
0100
0000
,
1000
0000
0000
0010
0000
0000
0100
0000
0000
0001
0000
0000
1000
0000
0100
0010
,
0100
0000
0010
0000
0001
0000
1000
0000
0010
0000
0100
0001
0000
0100
0001
0000
,
0010
0001
0100
0010
0220
0330
2002
3003
,
1000
0000
0010
0000
0001
0000
0000
0000
0010
0000
0100
0001
0000
0000
1000
0000
,
0100
0000
0000
0001
0000
0000
0100
0000
0000
1000
0000
0000
0010
0000
1000
0001
,
1000
0000
0010
0000
0100
0000
0001
0000
1000
0000
0000
0001
0000
0000
0001
0000
,
1000
0100
0010
0001
0000
0100
0010
1000
,
0000
0000
0001
0000
1000
0000
0010
0000
0100
0000
0000
0001
0000
0000
1000
0000
,
0100
1000
0100
0000
0001
0100
0001
0000
,
0100
0010
1000
0000
0100
0010
0001
0000
,
0100
0001
1000
0010
0110
0000
1001
0000
,
1000
0100
0001
0000
0001
0100
1000
0000
,
0010
1000
0100
0010
0001
0100
0020
0000
,
0000
0030
0000
0000
;

//---------------dance-single - ----------------
#NOTES:
     dance-single:
     :
     Medium:
     5:
     0.303575,0.309136,0.014655,0.102587,0.146553,290.000000,288.000000,2.000000,14.000000,0.000000,0.000000,0.303575,0.309136,0.014655,0.102587,0.146553,290.000000,288.000000,2.000000,14.000000,0.000000,0.000000:
0000
0000
0000
0000
,
0000
0000
0000
0000
,
0000
0000
0000
0000
,
0000
0000
0000
0000
,
0100
0010
1000
0001
,
0010
0100
1000
0010
,
0100
0001
1000
0100
,
1000
0000
0000
0001
0000
0000
1000
0000
0000
0001
0000
0000
1000
0000
0001
0000
,
0020
0000
0130
0000
0000
0000
0010
1000
,
0001
0000
0000
0001
0000
0000
0001
0000
0000
0000
0000
0000
0100
0000
0010
0000
,
1000
1000
0010
0000
0001
0001
0010
0000
,
0100
1000
0001
0000
0100
0000
0010
1000
,
0020
0000
0130
0000
0000
0000
0001
0100
,
0001
1000
0001
1000
0000
0000
0001
0000
,
0010
0001
0010
0000
0010
1000
0010
0000
,
1000
0000
0001
0000
1000
0000
0001
0100
0000
0000
0010
0000
1000
0000
0001
0000
,
0010
0000
0000
0010
0000
0000
0010
0000
0000
0000
0100
0000
1000
0000
0000
0000
,
0001
0000
0000
0001
0000
0000
0001
0000
0000
0000
0100
0000
0010
0000
0000
0000
,
1000
0010
0000
1000
0010
0000
1000
0000
0001
0000
0000
0000
1000
0000
0000
0000
,
0001
0010
0000
0001
0010
0000
0100
0000
1000
0000
0000
0000
0001
0000
0000
0000
,
1000
0000
0000
1000
0000
0000
1000
0000
0000
0000
0010
0000
0100
0000
0000
0000
,
0001
0000
0000
0001
0000
0000
0001
0000
0000
0000
0010
0000
0100
0000
0000
0000
,
1000
0100
0000
0000
0010
0000
0001
0000
0100
0000
0001
0000
1000
0000
0000
0000
,
0001
0100
0000
0000
0010
0000
1000
0000
0100
0000
1000
0000
0001
0000
0000
0000
,
1000
0000
0000
0000
0100
0000
0000
0000
0001
0000
0000
0000
1000
0010
0000
0010
,
1000
0000
0000
0000
0100
0000
0000
0000
0010
0000
0000
0000
0001
0010
0000
0010
,
0001
0000
0000
0000
0100
0000
0000
0000
0010
0000
0000
0000
1000
0001
0000
0001
,
1000
0000
0010
0000
0100
0001
2000
0000
,
3100
0000
0000
0010
0001
0000
0000
0000
0100
0000
0010
0000
0100
0000
0000
0000
,
0001
0000
0000
1000
0010
0000
0000
0000
0100
0000
0010
0000
0100
0000
0000
0000
,
0001
0000
0000
1000
0100
0000
0000
0000
0010
0000
0100
0000
0010
0000
0000
0000
,
0001
0000
0000
0100
0002
0000
1000
0000
0000
1000
0000
0000
1003
0000
0000
0000
,
0010
1000
0010
0000
0100
0001
0100
0000
,
0010
0001
0010
0001
0200
0000
0320
0000
,
0030
0000
1000
0000
0010
0000
0000
0000
0100
0000
0000
0001
0000
0000
1000
0000
,
0100
0000
0000
0100
0000
0000
0000
0000
0010
0000
0000
0010
0000
0000
1000
0000
,
0001
0100
0001
0000
1000
0100
1000
0000
,
0001
1000
0001
0010
0200
0000
0320
0000
,
0030
0001
0010
0000
0001
0100
0001
0000
,
0010
0000
0000
0010
0000
0000
0010
0000
0000
0010
0000
0000
0010
0000
0000
0000
,
0001
0000
1000
0000
0001
0000
0000
0000
0100
0000
0000
0001
0000
0000
0001
0000
,
1000
0010
1000
0000
0200
0000
0320
0000
,
0030
0000
0100
0000
0010
0000
0000
0000
0001
0000
0000
1000
0000
0000
0010
0000
,
0100
0000
0000
0100
0000
0000
0000
0000
0001
0000
0000
0001
0000
0000
0000
0000
,
1000
0000
0100
0000
1000
0000
0000
0000
0001
0000
0000
0100
0000
0000
0100
0000
,
0010
1000
0001
0000
0020
0000
0230
0000
,
0300
0000
0010
0000
0100
0000
0000
0000
1000
0000
0000
0010
0000
0000
1000
0000
,
0001
0000
0000
0001
0000
0000
1000
0000
0000
1000
0000
0000
0020
0000
0000
0000
,
1030
0010
1000
0000
0001
0100
0001
0000
,
1000
0001
1000
0000
0100
0010
0100
0000
,
0010
0001
0100
0000
0010
1000
0100
0000
,
0001
0000
0000
1000
0000
0000
0010
0000
0000
0100
0000
0000
0001
0000
0000
0000
,
0001
0100
0001
0000
1000
0100
1000
0000
,
0001
0010
0001
0000
0110
0000
1001
0000
,
0010
1000
0010
0000
0100
0010
0100
0000
,
0001
1000
0001
0000
0100
0010
0200
0000
,
0000
0300
0000
0000
;

//---------------dance-single - ----------------
#NOTES:
     dance-single:
     :
     Easy:
     3:
     0.193660,0.185482,0.014655,0.117243,0.043966,185.000000,183.000000,2.000000,16.000000,0.000000,0.000000,0.193660,0.185482,0.014655,0.117243,0.043966,185.000000,183.000000,2.000000,16.000000,0.000000,0.000000:
0000
0000
0000
0000
,
0000
0000
0000
0000
,
0000
0000
0000
0000
,
0000
0000
0000
0000
,
0010
0100
0001
0000
,
1000
0100
0010
0000
,
0001
0100
0010
0000
,
1000
0010
0100
0000
,
0002
0013
0000
0100
,
1000
0001
1000
0000
,
0010
0010
0100
0100
,
0001
1000
0001
1000
,
0020
0130
0000
1000
,
0100
0010
0001
0000
,
1000
1000
0001
0001
,
0010
0100
1000
0001
,
1000
0000
0000
1000
0000
0000
1000
0000
0000
0000
0000
0000
0010
0000
0000
0000
,
0001
0000
0000
0001
0000
0000
0001
0000
0000
0000
0000
0000
0100
0000
0000
0000
,
0010
1000
0001
0010
,
0100
0100
0010
0010
,
0001
0000
0000
0001
0000
0000
0001
0000
0000
0000
0000
0000
0100
0000
0000
0000
,
1000
0000
0000
1000
0000
0000
1000
0000
0000
0000
0000
0000
0010
0000
0000
0000
,
1000
0100
0002
0003
,
0001
0100
2000
3000
,
0200
0000
0300
0010
,
0001
0000
0100
0001
,
1000
0000
1000
0010
,
0100
0000
0001
0010
,
0200
0000
0300
0001
,
0100
0000
0010
1000
,
0100
0000
0001
0010
,
1000
0000
0001
0000
,
0010
0010
1000
1000
,
0001
0001
0100
0220
,
0330
0001
0000
1000
,
0010
0000
0000
0010
0000
0000
0000
0000
0100
0000
0000
0100
0000
0000
0000
0000
,
0001
0100
0010
1000
,
0100
0010
0001
2002
,
3003
0010
0000
1000
,
0001
0000
0000
0001
0000
0000
0000
0000
1000
0000
0000
1000
0000
0000
0000
0000
,
0100
1000
0001
0010
,
0100
1000
0020
0230
,
0301
0100
0010
1000
,
0001
0000
0000
0001
0000
0000
0000
0000
1000
0000
0000
1000
0000
0000
0000
0000
,
0010
0100
0001
0010
,
0100
1000
0020
2030
,
3001
0100
0010
1000
,
0100
0000
0000
0100
0000
0000
0000
0000
0010
0000
0000
0010
0000
0000
0000
0000
,
0001
0100
1000
0100
,
0001
1000
0010
0010
,
1000
0010
0001
0010
,
1000
0001
0020
0130
,
0001
0100
0001
0100
,
1000
0100
1000
0100
,
1000
0010
1000
0010
,
0001
0010
0001
0020
,
0000
0030
0000
0000
;

//---------------dance-double - ----------------
#NOTES:
     dance-double:
     :
     Hard:
     7:
     0.406162,0.453400,0.278452,0.051294,0.373711,388.000000,350.000000,38.000000,7.000000,0.000000,0.000000,0.406162,0.453400,0.278452,0.051294,0.373711,388.000000,350.000000,38.000000,7.000000,0.000000,0.000000:
00000000
00000000
00000000
00000000
,
00000000
00000000
00000000
00000000
,
00000000
00000000
00000000
00000000
,
00000000
00000000
00000000
00000000
,
00000001
00000000
00000000
00000010
00000000
00000000
00000100
00000000
00000000
00001000
00000000
00000000
00000100
00000000
00000000
00000000
,
00010000
00000000
00000000
00001000
00000000
00000000
00100000
00000000
00000000
00010000
00000000
00000000
10000000
00000000
00000000
00000000
,
00010000
00000000
00000000
00100000
00000000
00000000
01000000
00000000
00000000
10000000
00000000
00000000
00010000
00000000
00000000
00000000
,
00100000
00000000
00000000
00001000
00000000
00000000
00010000
00000000
00000000
00000100
00000000
00000000
00000010
00000000
00000000
00000000
,
00000002
00000000
00000000
00000000
00000003
00000000
00001000
00000100
,
00000010
00000000
00000001
00000100
00000000
00000100
00000010
00000000
00000000
00000000
00000000
00000000
00000000
00001000
00000100
00001000
,
00000100
00010000
00001000
01000000
00010000
01000000
00100000
10000000
,
01000000
00100000
00010000
10000000
00100000
00000000
10000000
00000000
,
00020000
00000000
00000000
01000000
00000000
00000000
10000000
00000000
00000000
00100000
00000000
00000000
00031000
00000000
00000000
00000000
,
00000100
00000000
00000010
00000000
00000001
00000000
00001000
00000010
00000000
00000000
00000000
00000000
00000100
00000000
00001000
00000000
,
00010000
01000000
10000000
00010000
00100000
00010000
10000000
01000000
,
00010000
00001000
00000100
00000010
00000001
00000010
00001000
00000000
,
00001010
00000000
00000000
00000101
00000000
00000000
00001001
00000000
00000000
00000000
00000100
00010000
00001000
00000000
00100000
00000000
,
00110000
00000000
00000000
11000000
00000000
00000000
10010000
00000000
00000000
00000000
01000000
00001000
00010000
00000000
00000100
00000000
,
00001000
00000010
00000000
00000010
00000100
00000000
00000100
00000001
00000000
00000001
00000010
00000000
00000000
00001000
00010000
00001000
,
00000000
00100000
00000000
00010000
00000000
10000000
01000000
00000000
00000000
00000000
00100000
00010000
00100000
00000000
00001000
00000000
,
00011000
00000000
00000000
00010010
00000000
00000000
00011000
00000000
00000000
00000000
00000010
00001000
00000010
00000000
00010000
00000000
,
00011000
00000000
00000000
00101000
00000000
00000000
00011000
00000000
00000000
00000000
01000000
00010000
01000000
00000000
00100000
00000000
,
10000000
01000000
00000000
00010000
00000000
00001000
00000000
00000100
00000000
00000001
00000010
00000001
00000000
00000000
00000000
00000000
,
00000001
00000100
00000000
00001000
00000000
00010000
00000000
01000000
00000000
10000000
00100000
10000000
00000000
00000000
00000000
00000000
,
00010000
00000000
00000000
00010000
10000000
00000000
01000000
00000000
00010000
00000000
00001000
00000000
00000100
00000000
00000000
00000100
,
00000000
00000000
00000001
00000010
00000000
00000001
00000010
00000000
00000000
00000100
00000000
00000000
00001000
00000001
00000000
00001000
,
00000001
00000000
00000000
00000010
00000000
00000000
00001000
00000000
00000000
00010000
00100000
00000000
10000000
01000000
00000000
10000000
,
00010000
00000000
00000000
00110000
00000000
00000000
00101000
00000000
00000000
00000000
00001000
00000000
00010000
00000100
00000000
00000000
,
00001000
00000000
00000000
00001000
00000001
00000000
00000100
00000000
00001000
00000000
00010000
00000000
01000000
00000000
00000000
01000000
,
00000000
00000000
10000000
00100000
00000000
10000000
00100000
00000000
00000000
01000000
00000000
00000000
00010000
10000000
00000000
00010000
,
10000000
00000000
00000000
00100000
00000000
00000000
00010000
00000000
00000000
00001000
00000010
00000000
00000001
00000100
00000000
00000001
,
00001000
00000000
00000000
00001010
00000000
00000000
00010010
00000000
00000000
00011000
00000000
00000000
01001000
00000000
00000000
00000000
,
01000000
00000000
00010000
00000000
10000000
00000000
01000000
00000000
00010000
00000000
00000000
00001000
00000000
00000000
00000100
00000000
,
00000001
00000000
00000010
00000001
00000000
00000000
00000200
00000000
00000000
00000000
00001300
00000000
00010000
00000000
00100000
00000000
,
10000000
00000000
01000000
00000000
00100000
00000000
00000000
00000000
00101000
00000000
00000000
00011000
00000000
00000000
00010000
00000000
,
00001000
00000000
00000000
00000100
00000000
00000000
00000001
00000000
00000010
00000000
00000000
00000000
00001001
00000000
00000000
00000000
,
00000100
00000000
00001000
00000000
00000001
00000000
00000100
00000000
00001000
00000000
00000000
00010000
00000000
00000000
01000000
00000000
,
10000000
00000000
00100000
10000000
00000000
00000000
02000000
00000000
00000000
00000000
03010000
00000000
00001000
00000000
00000010
00000000
,
00000001
00000000
00000100
00000000
00000010
00000000
00000000
00000000
00010010
00000000
00000000
00011000
00000000
00000000
00001000
00000000
,
00010000
00000000
00000000
01000000
00000000
00000000
10000000
00000000
00100000
00000000
00000000
00000000
10010000
00000000
00000000
00000000
,
00010000
00000000
01000000
00000000
00100000
00000000
10000000
00000000
01000000
00000000
00000000
01010000
00000000
00000000
00011000
00000000
,
00001000
00000000
00000100
00000001
00000000
00000000
00000020
00000000
00000000
00000000
00000031
00000000
00000100
00000000
00001000
00000000
,
00010000
00000000
00001000
00000000
00000010
00000000
00000000
00000000
00000011
00000000
00000000
00001100
00000000
00000000
00001001
00000000
,
00001000
00000000
00000100
00010000
00000000
00000000
00001000
00000000
01000000
00010000
00000000
10000000
00000000
00000000
10010000
00000000
,
00010000
00000000
00100000
00000000
01000000
00000000
10000000
00000000
00100000
00000000
00000000
00110000
00000000
00000000
00011000
00000000
,
00001000
00000000
00000010
00000001
00000000
00000000
00000200
00000000
00000000
00000000
00000301
00000000
00000010
00000000
00001000
00000000
,
00010000
00000000
00001000
00000000
00000100
00000000
00000000
00000000
00000101
00000000
00000000
00001010
00000000
00000000
00001001
00000000
,
00001000
00000000
00000010
00010000
00000000
00000000
00001000
00000000
00100000
00010000
00000000
00000000
10000000
00000000
00000000
00000000
,
00010000
00000000
00000000
01000000
00000000
00000000
00100000
00000000
00000000
10000000
00000000
00000000
01000000
00000000
00010000
00000000
,
00001000
00000000
00000010
00000001
00000000
00000000
00001001
00000000
00000000
00000000
00000001
00000000
00000010
00000000
00001000
00000000
,
00000000
00000000
00010000
00000000
00001000
00000000
00000000
00000000
00100000
00000000
00000000
00010000
01000000
00000000
00100000
00000000
,
10000000
00000000
00000000
10000000
01000000
00000000
00010000
00000000
00000000
00001000
00000000
00000000
00000100
00000000
00000001
00000000
,
00001000
00000000
00000000
00000100
00000000
00000000
00000010
00000000
00000000
00000001
00000000
00000000
00000100
00000000
00001000
00000000
,
00010000
00000000
00100000
10000000
00000000
00000000
01000000
00000000
00000000
00000000
00100000
00000000
10010000
00000000
00000000
00000000
,
10000000
00000000
00000000
10000000
01000000
00000000
00010000
00000000
00000000
00001000
00000000
00000000
00000110
00000000
00000000
00000000
,
00000001
00000000
00000000
00000001
00000100
00000000
00001000
00000000
00010000
00000000
01000000
00000000
00200000
00000000
00000000
00000000
,
00000000
00300000
00000000
00000000
;

//---------------dance-double - ----------------
#NOTES:
     dance-double:
     :
     Medium:
     5:
     0.296247,0.288527,0.000000,0.043966,0.168536,283.000000,283.000000,0.000000,6.000000,0.000000,0.000000,0.296247,0.288527,0.000000,0.043966,0.168536,283.000000,283.000000,0.000000,6.000000,0.000000,0.000000:
00000000
00000000
00000000
00000000
,
00000000
00000000
00000000
00000000
,
00000000
00000000
00000000
00000000
,
00000000
00000000
00000000
00000000
,
10000000
01000000
00100000
00001000
,
00010000
00000100
00000010
00000001
,
00001000
00000010
00000100
00001000
,
00010000
01000000
00100000
00010000
,
20000000
00000000
00000000
00000000
00000000
00000000
30100000
10000000
,
00010000
00000000
00000000
00010000
00000000
00000000
00010000
00000000
00000000
00000000
00000000
00000000
10000000
00000000
01000000
00000000
,
10000000
00100000
00010000
00000000
00001000
00000010
00000001
00000000
,
00000100
00000010
00001000
00000100
00010000
00000000
00001000
00000100
,
00000001
00000000
00000000
00000001
00000000
00000000
00000001
00000000
00000000
00000000
00000000
00000000
00001000
00000000
00000100
00000000
,
00010000
00001000
00100000
00000000
00010000
00000000
10000000
00100000
,
10000000
01000000
00010000
00000000
00001000
00000100
00000001
00000000
,
00000100
00000010
00001000
00000100
00000010
00000000
00000001
00000000
,
00000100
00000000
00000000
00000100
00000000
00000000
00000100
00000000
00000000
00000000
00000010
00000000
00010000
00000000
00001000
00000000
,
01000000
00000000
00000000
01000000
00000000
00000000
01000000
00000000
00000000
00000000
00010000
00000000
10000000
00000000
01000000
00000000
,
00100000
00000000
00000000
00010000
00000000
00000000
01000000
00000000
00001000
00000000
00010000
00000000
00000100
00000000
00000000
00000000
,
00000010
00000000
00000000
00000001
00000000
00000000
00000100
00000000
00000000
00000000
00001000
00000000
00010000
00000000
00000000
00000000
,
01000000
00000000
00000000
01000000
00000000
00000000
01000000
00000000
00000000
00000000
00100000
00000000
00001000
00000000
00010000
00000000
,
00000100
00000000
00000000
00000100
00000000
00000000
00000100
00000000
00000000
00000000
00001000
00000000
00000001
00000000
00000100
00000000
,
00000010
00000000
00000000
00001000
00000000
00000000
00000100
00000000
00010000
00000000
00001000
00000000
01000000
00000000
00000000
00000000
,
00100000
00000000
00000000
10000000
00000000
00000000
01000000
00000000
00000000
00000000
00010000
00000000
00001000
00000000
00000000
00000000
,
00000010
00000000
00000000
00000010
00000000
00000000
00000010
00000000
00000000
00000001
00000000
00000000
00000001
00000000
00000000
00000000
,
00001000
00000000
00000000
00001000
00000000
00000000
00001000
00000000
00000000
00000100
00000000
00000000
00000100
00000000
00000000
00000000
,
00010000
00000000
00000000
00010000
00000000
00000000
00010000
00000000
00000000
00001000
00000000
00000000
00001000
00000000
00000000
00000000
,
01000000
00000000
00000000
01000000
00000000
00000000
01000000
00000000
00000000
00100000
00000000
00000000
00100000
00000000
00000000
00000000
,
00100000
00000000
00000000
00100000
00000000
00000000
00100000
00000000
00000000
10000000
00000000
00000000
10000000
00000000
00000000
00000000
,
00010000
00000000
00000000
00010000
00000000
00000000
00010000
00000000
00000000
01000000
00000000
00000000
01000000
00000000
00000000
00000000
,
00001000
00000000
00000000
00001000
00000000
00000000
00001000
00000000
00000000
00010000
00000000
00000000
00010000
00000000
00000000
00000000
,
00000100
00000000
00000000
00000100
00000000
00000000
00000100
00000000
00000000
00000010
00000000
00000000
00000010
00000000
00000000
00000000
,
00000001
00000000
00000100
00000000
00000010
00000000
00000000
00000000
00001000
00000000
00000000
00000100
00000000
00000000
00000100
00000000
,
00010000
00001000
00100000
00020000
00000000
10030000
01000000
00000000
,
10000000
00000000
00100000
00000000
01000000
00000000
00000000
00000000
00010000
00000000
00000000
00100000
00000000
00000000
00001000
00000000
,
00010000
00000000
00000000
00010000
00000000
00000000
00000000
00000000
00000010
00000000
00000000
00000010
00000000
00000000
00001000
00000000
,
00000001
00000000
00000010
00000000
00000100
00000000
00000000
00000000
00001000
00000000
00000000
00000010
00000000
00000000
00000010
00000000
,
00010000
00001000
01000000
00020000
00000000
10030000
00100000
00000000
,
10000000
00000000
01000000
00000000
00100000
00000000
00000000
00000000
00010000
00000000
00000000
01000000
00000000
00000000
00001000
00000000
,
00010000
00000000
00000000
00010000
00000000
00000000
00000000
00000000
00000100
00000000
00000000
00000100
00000000
00000000
00000010
00000000
,
00000001
00000000
00000100
00000000
00001000
00000000
00000000
00000000
00000100
00000000
00000000
00000010
00000000
00000000
00010000
00000000
,
00001000
00100000
00010000
20000000
00000000
31000000
00100000
00000000
,
00010000
00000000
10000000
00000000
00100000
00000000
00000000
00000000
01000000
00000000
00000000
00010000
00000000
00000000
00001000
00000000
,
00000010
00000000
00000000
00000010
00000000
00000000
00000000
00000000
00000100
00000000
00000000
00000100
00000000
00000000
00000000
00000000
,
00000001
00000000
00000010
00000000
00001000
00000000
00000000
00000000
00000010
00000000
00000000
00000100
00000000
00000000
00010000
00000000
,
00001000
01000000
00010000
20000000
00000000
30100000
01000000
00000000
,
00010000
00000000
10000000
00000000
01000000
00000000
00000000
00000000
00100000
00000000
00000000
00010000
00000000
00000000
00001000
00000000
,
00000100
00000000
00000000
00000100
00000000
00000000
00000000
00000000
00000010
00000000
00000000
00000010
00000000
00000000
00000000
00000000
,
00000001
00000100
00000001
00000000
00001000
00000010
00001000
00000000
,
00000100
00010000
00000100
00000000
00010000
00001000
00010000
00000000
,
00001000
01000000
00001000
00000000
01000000
00010000
01000000
00000000
,
00100000
00000000
00000000
00100000
00000000
00000000
10000000
00000000
00000000
00010000
00000000
00000000
01000000
00000000
00100000
00000000
,
10000000
01000000
10000000
00000000
00010000
00100000
00010000
00000000
,
01000000
00001000
01000000
00000000
00001000
00010000
00001000
00000000
,
00010000
00000100
00010000
00000000
00000100
00001000
00000100
00000000
,
00000010
00000000
00000000
00000010
00000000
00000000
00000001
00000000
00000000
00000100
00000000
00000000
00000020
00000000
00000000
00000000
,
00000000
00000030
00000000
00000000
;

//---------------dance-double - ----------------
#NOTES:
     dance-double:
     :
     Easy:
     3:
     0.188426,0.206091,0.021983,0.131898,0.043966,180.000000,177.000000,3.000000,18.000000,0.000000,0.000000,0.188426,0.206091,0.021983,0.131898,0.043966,180.000000,177.000000,3.000000,18.000000,0.000000,0.000000:
// measure 0
00000000
00000000
00000000
00000000
,  // measure 1
00000000
00000000
00000000
00000000
,  // measure 2
00000000
00000000
00000000
00000000
,  // measure 3
00000000
00000000
00000000
00000000
,  // measure 4
00000010
00000001
00000100
00000000
,  // measure 5
00001000
00000100
00000010
00000000
,  // measure 6
00001000
00010000
01000000
00000000
,  // measure 7
10000000
00100000
01000000
00000000
,  // measure 8
00020000
00130000
00000000
01000000
,  // measure 9
10000000
00010000
10000000
00000000
,  // measure 10
00100000
00100000
00010000
00010000
,  // measure 11
00001000
00010000
00001000
00010000
,  // measure 12
00000200
00000310
00000000
00000001
,  // measure 13
00000100
00000010
00001000
00000000
,  // measure 14
00000001
00000001
00001000
00001000
,  // measure 15
00000100
00010000
00001000
01000000
,  // measure 16
00010000
00000000
00000000
00010000
00000000
00000000
00010000
00000000
00000000
00000000
00000000
00000000
00100000
00000000
00000000
00000000
,  // measure 17
10000000
00000000
00000000
10000000
00000000
00000000
10000000
00000000
00000000
00000000
00000000
00000000
01000000
00000000
00000000
00000000
,  // measure 18
00010000
00100000
00001000
00010000
,  // measure 19
00000100
00000010
00000010
00000100
,  // measure 20
00001000
00000000
00000000
00001000
00000000
00000000
00001000
00000000
00000000
00000000
00000000
00000000
00000010
00000000
00000000
00000000
,  // measure 21
00000001
00000000
00000000
00000001
00000000
00000000
00000001
00000000
00000000
00000000
00000000
00000000
00000100
00000000
00000000
00000000
,  // measure 22
00001000
00000010
00010000
00001000
,  // measure 23
01000000
00100000
00200000
00300000
,  // measure 24
20000000
00000000
30000000
00010000
,  // measure 25
00020000
00000000
00030000
00100000
,  // measure 26
00200000
00000000
00300000
00001000
,  // measure 27
00002000
00000000
00003000
00000110
,  // measure 28
00000002
00000000
00000003
00001000
,  // measure 29
00002000
00000000
00003000
00000010
,  // measure 30
00000020
00000000
00000030
00010000
,  // measure 31
00020000
00000000
00030000
00001000
,  // measure 32
00100000
00100000
00010000
00010000
,  // measure 33
10000000
10000000
01000000
02200000
,  // measure 34
03300000
00001000
00010000
00000000
,  // measure 35
00000010
00000000
00000000
00000010
00000000
00000000
00000000
00000000
00000100
00000000
00000000
00000100
00000000
00000000
00000000
00000000
,  // measure 36
00000010
00000010
00001000
00001000
,  // measure 37
00000001
00000001
00000100
00000220
,  // measure 38
00000330
00010000
00001000
00000000
,  // measure 39
01000000
00000000
00000000
01000000
00000000
00000000
00000000
00000000
00100000
00000000
00000000
00100000
00000000
00000000
00000000
00000000
,  // measure 40
10000000
01000000
00010000
01000000
,  // measure 41
10000000
00100000
00020000
00030000
,  // measure 42
00001000
00000100
00000001
00000010
,  // measure 43
00000001
00000000
00000000
00000001
00000000
00000000
00000000
00000000
00001000
00000000
00000000
00001000
00000000
00000000
00000000
00000000
,  // measure 44
00000001
00000100
00001000
00000100
,  // measure 45
00000001
00000010
00002000
00003000
,  // measure 46
00010000
01000000
10000000
00100000
,  // measure 47
10000000
00000000
00000000
10000000
00000000
00000000
00000000
00000000
00010000
00000000
00000000
00010000
00000000
00000000
00000000
00000000
,  // measure 48
10000000
00010000
10000000
01000000
,  // measure 49
00010000
00001000
00000100
00000001
,  // measure 50
00000010
00000100
00001000
00000001
,  // measure 51
00000010
00001000
00010000
00100000
,  // measure 52
10000000
01000000
00100000
00010000
,  // measure 53
10000000
01000000
00010000
00001000
,  // measure 54
00000100
00000001
00000100
00000001
,  // measure 55
00000100
00000010
00001000
00000020
,  // measure 56
00000000
00000030
00000000
00000000
;
