#TITLE:Hot N Cold (Jason Nevins Remix);
#SUBTITLE:;
#ARTIST:Katy Perry;
#TITLETRANSLIT:;
#SUBTITLETRANSLIT:;
#ARTISTTRANSLIT:;
#CREDIT:;
#BANNER:Hot N Cold (Jason Nevins Remix).png;
#BACKGROUND:Hot N Cold (Jason Nevins Remix)-bg.png;
#LYRICSPATH:;
#CDTITLE:;
#MUSIC:Hot N Cold (Jason Nevins Remix).ogg;
#OFFSET:-0.040;
#SAMPLESTART:42.955;
#SAMPLELENGTH:15.000;
#SELECTABLE:YES;
#BPMS:0.000=132.000;
#STOPS:;
#BGCHANGES:;

//---------------dance-single - ----------------
#NOTES:
     dance-single:
     :
     Beginner:
     1:
     0.070,0.075,0.000,0.010,0.000:
0000
0000
0000
0000
,
0000
0000
0000
0000
,
1000
0000
0000
0000
,
0001
0000
0000
0000
,
0100
0000
0000
0000
,
0010
0000
0000
0000
,
1000
0000
0000
0000
,
0001
0000
0000
0000
,
0010
0000
0000
0000
,
0010
0000
0000
0000
,
0100
0000
0000
0000
,
0100
0000
0000
0000
,
1000
0000
0000
0000
,
1000
0000
0000
0000
,
0001
0000
0000
0000
,
0001
0000
0000
0000
,
0100
0000
0000
0000
,
0100
0000
0000
0000
,
0010
0000
0000
0000
,
0010
0000
0000
0000
,
1000
0000
0000
0000
,
0001
0000
0000
0000
,
2000
0000
0000
0000
,
3000
0000
0000
0000
,
0001
0000
0000
0000
,
0001
0000
0000
0000
,
1000
0000
0000
0000
,
1000
0000
0000
0000
,
0010
0000
0000
0000
,
0010
0000
0000
0000
,
0100
0000
0000
0000
,
0100
0000
0000
0000
,
0001
0000
0000
0000
,
0010
0000
0000
0000
,
0001
0000
0000
0000
,
0100
0000
0000
0000
,
0010
0000
0000
0000
,
1000
0000
0000
0000
,
0100
0000
0000
0000
,
1000
0000
0000
0000
,
0001
0000
0000
0000
,
1000
0000
0000
0000
,
0001
0000
0000
0000
,
1000
0000
0000
0000
,
0010
0000
0000
0000
,
0100
0000
0000
0000
,
0010
0000
0000
0000
,
0100
0000
0000
0000
,
0001
0000
0000
0000
;

//---------------dance-single - ----------------
#NOTES:
     dance-single:
     :
     Hard:
     6:
     0.393,0.389,0.503,0.031,0.000:
0000
0000
0000
0000
,
0000
0000
0000
0000
,
0000
0000
0000
0000
,
0000
0000
0000
0000
,
1010
0000
1010
0000
1000
0001
0000
0011
,
0000
0010
0000
0001
0100
0000
0110
0000
,
0101
0000
1001
0000
1000
0100
0000
0110
,
0000
0011
0000
0001
1000
0000
1010
0000
,
0010
0000
0101
0000
0001
1000
0100
0000
,
0010
0000
0011
0000
0100
1000
0010
0000
,
0100
0000
1001
0000
0001
0010
0100
0000
,
0010
0000
0011
0000
0001
1000
0010
0000
,
0100
0000
0101
0000
0010
1000
0001
0000
,
0010
0000
1100
0000
1000
0100
0010
0000
,
0001
0000
0101
0000
0100
0010
0100
0000
,
0001
0000
1001
0000
1000
0100
0010
0000
,
0001
0000
1000
0000
0010
1000
0100
0000
,
1000
0000
0010
0000
0100
0001
0010
0000
,
0100
0000
1000
0000
0010
1000
0001
0000
,
0010
0000
0100
0000
0010
0001
0010
0100
,
1000
0000
0001
0000
0100
0010
1000
0000
,
0001
0000
0010
0000
0100
1000
0010
0000
,
0200
0000
0000
0000
,
0000
0000
0000
0000
0300
0010
0100
0001
,
0000
0001
1000
0000
1100
0000
1000
0010
,
0000
0001
0010
0000
0110
0000
0100
0001
,
0000
1000
0100
0000
0011
0000
0010
0100
,
0000
0001
0100
0000
1100
0000
1000
0001
,
0000
0100
0010
0000
1010
0000
0010
0001
,
0000
0010
1000
0000
0101
0000
0001
0010
,
0000
1000
0010
0000
0110
0000
0100
1000
,
0000
0001
0100
0000
1010
0000
0101
0000
,
0001
1000
0100
0000
0011
0000
0100
1000
,
0000
0010
0100
0000
0101
0000
0001
1000
,
0000
0100
0010
0000
0011
0000
0100
1000
,
0000
0010
0100
0000
0101
0000
0010
1000
,
0000
0010
0001
0000
0011
0000
0010
1000
,
0000
0100
0001
0000
0101
0000
0100
1000
,
0000
0001
0100
0000
1010
0000
0010
0001
,
0000
0010
1000
0000
1001
0000
0110
0000
,
0010
0000
0011
0000
1100
0000
0001
0100
,
0010
0000
0100
0001
0000
1000
0100
0000
,
0011
0000
1100
0000
1001
0000
0001
1000
,
0010
0000
0100
0001
0000
1000
0100
0000
,
0011
0000
1100
0000
1001
0000
0001
0100
,
0000
0010
0100
0000
0101
0000
0001
0010
,
0000
1000
0010
0000
0011
0000
0100
1000
,
0000
0001
0100
0000
1010
0000
0101
0000
,
2002
0000
0000
0000
,
0000
0000
3003
0000
;

//---------------dance-single - ----------------
#NOTES:
     dance-single:
     :
     Medium:
     5:
     0.331,0.389,0.304,0.021,0.000:
0000
0000
0000
0000
,
0000
0000
0000
0000
,
0000
0000
0000
0000
,
0000
0000
0000
0000
,
0001
0000
0100
0000
0000
0010
0000
1000
,
0000
0001
0000
0010
0100
0000
1000
0000
,
0010
0000
0100
0000
0000
0010
0000
1000
,
0000
0001
0000
0010
0100
0000
0010
0000
,
0001
0000
0010
0000
0000
0001
0010
0000
,
0100
0000
1000
0000
0000
0100
1000
0000
,
0001
0000
0100
0000
0000
0001
0100
0000
,
0010
0100
0000
1001
,
0010
0000
0100
0000
0000
0001
1000
0000
,
0100
0000
0010
0000
0000
0001
1000
0000
,
0010
0000
0100
0000
0000
0010
1000
0000
,
0001
0000
0010
0000
0000
0100
1000
0000
,
0010
0000
1000
0000
0100
1000
0010
0000
,
0100
0000
0001
0000
0010
0001
1000
0000
,
0100
0000
0010
0000
0001
0100
0010
0000
,
1000
0010
0100
1001
,
0100
0000
0010
0000
0001
0010
0100
0000
,
1000
0000
0001
0000
0100
0000
0010
1000
,
0002
0000
0000
0000
,
0003
0000
0000
0000
0000
1000
0001
1000
,
0010
0000
0100
0000
0101
0000
0001
1000
,
0000
0100
1000
0000
1100
0000
0010
0000
,
0001
0000
1000
0000
1010
0000
0010
0100
,
0000
0001
0100
0000
1001
0000
0001
0000
,
0010
0000
0100
0000
1100
0000
1000
0010
,
0000
1000
0001
0000
0011
0000
0010
0000
,
0100
0000
1000
0000
1001
0000
0001
0100
,
0000
0010
0100
0000
1001
0000
0110
0000
,
0011
0000
1100
0000
0011
0000
0100
1000
,
0000
0001
0100
0000
1010
0000
0010
0000
,
0100
0000
0101
0000
1001
0000
1000
0100
,
0000
0010
0001
0000
0011
0000
0100
0000
,
1100
0000
1001
0000
0101
0000
0001
0010
,
0000
0001
1000
0000
1001
0000
0110
0000
,
0010
0000
0011
0000
1100
0000
0010
1000
,
0000
0001
0100
0000
0110
0000
1001
0000
,
0001
0000
0010
0000
0100
1000
0001
0000
,
0100
0000
0010
0100
0000
0010
0100
0000
,
0001
0000
0010
0000
0100
1000
0001
0000
,
0100
0000
0010
0100
0000
0010
0100
0000
,
0001
0010
0100
0110
,
0100
1000
0001
1001
,
0001
0000
0100
0000
0010
0000
1000
0100
,
0000
0010
0001
0000
1000
0000
0010
0000
,
0200
0000
0000
0000
,
0000
0000
0300
0000
;

//---------------dance-single - ----------------
#NOTES:
     dance-single:
     :
     Easy:
     2:
     0.147,0.181,0.021,0.021,0.000:
0000
0000
0000
0000
,
0000
0000
0000
0000
,
1000
0000
0001
0000
,
0100
0000
0010
0000
,
1000
0000
0100
0000
,
1000
0000
0001
0000
,
0100
0000
0010
0000
,
0100
0000
0001
0000
,
0010
0000
0000
0010
,
0100
0000
0000
0100
,
1000
0000
0000
1000
,
0001
0000
0000
0001
,
0100
0000
0000
0100
,
0010
0000
0000
0010
,
0100
0000
0000
0100
,
0001
0000
0000
0001
,
1000
0000
0100
0000
,
1000
0000
0001
0000
,
0100
0000
0010
0000
,
0100
0000
0001
0000
,
0010
0000
0100
0000
,
1000
0000
0001
0000
,
0200
0000
0000
0000
,
0300
0000
0000
0000
,
0010
0000
0100
0000
,
0010
0010
0010
0000
,
1000
0000
0001
0000
,
0010
0000
0000
0000
,
0100
0000
1000
0000
,
0001
0001
0001
0000
,
0100
0000
0010
0000
,
1000
0000
0000
0000
,
0001
0000
0010
0000
,
0100
0100
0100
0000
,
1000
0000
0010
0000
,
0100
0000
0000
0000
,
0010
0000
1000
0000
,
0001
0001
0001
0000
,
0010
0000
0100
0000
,
1000
1000
1000
0000
,
1001
0000
0110
0000
,
0010
0000
0100
0000
,
1000
1000
1000
0000
,
0010
0000
0100
0000
,
0001
0000
0010
0000
,
0100
0100
0100
0000
,
0010
0000
0001
0000
,
1000
0000
0010
0000
,
0200
0000
0000
0000
,
0000
0000
0300
0000
;

//---------------dance-double - ----------------
#NOTES:
     dance-double:
     :
     Hard:
     7:
     0.425,0.441,0.366,0.021,0.089: // measure 1
00000000
00000000
00000000
00000000
,  // measure 2
00000000
00000000
00000000
00000000
,  // measure 3
00000000
00000000
00000000
00000000
,  // measure 4
00000000
00000000
00000000
00000000
,  // measure 5
00011000
00000000
01010000
00000000
00000000
00011000
00000000
00011000
,  // measure 6
00000000
00001100
00000000
00001100
00000000
00001000
00000001
00000000
,  // measure 7
00000110
00000000
00001001
00000000
00000000
00001001
00000000
00001001
,  // measure 8
00000000
00000000
00001100
00000000
00000000
00000000
00011000
00000000
00000000
00000000
00010000
00001000
00010000
00000000
00001000
00000000
,  // measure 9
00010000
00000000
01000000
00000000
10000000
00100000
00010000
00001000
,  // measure 10
00000100
00000000
00000001
00000000
00000010
00001000
00010000
01000000
,  // measure 11
10000000
00000000
00100000
00000000
00010000
00001000
00000100
00000001
,  // measure 12
00000010
00000000
00000100
00000000
00010000
00001000
00100000
00010000
,  // measure 13
10000000
00000000
00100000
00000000
01000000
00001000
00010000
00000100
,  // measure 14
00001000
00000000
00000010
00000000
00000100
00000001
00000010
00001000
,  // measure 15
00011000
00000000
00001000
00000000
00100000
00010000
01000000
00100000
,  // measure 16
10000000
00000000
10000000
00000000
01000000
00100000
00001000
00100000
,  // measure 17
00010000
00000000
10000000
00000000
00000000
00100000
00000000
00000000
01000000
00000000
00000000
00010000
00000000
00100000
00000000
00000000
,  // measure 18
00001000
00000000
00010000
00000000
00000100
00000000
00000000
00000000
00001000
00000000
00000000
00000010
00000000
00000100
00000000
00000000
,  // measure 19
00000001
00000000
00000010
00000000
00000000
00000100
00000000
00000000
00010000
00000000
00000000
00001000
00000000
00100000
00000000
00000000
,  // measure 20
00010000
00000000
10000000
00000000
00100000
00000000
00000000
00000000
01000000
00000000
00010000
00100000
00010000
00000000
00100000
00000000
,  // measure 21
00001000
00000000
00010000
00000000
00000100
00000000
00000000
00000000
00000100
00000000
00000000
00001000
00000000
00000010
00000000
00000000
,  // measure 22
00000100
00000000
00000001
00000000
00000010
00000000
00000000
00000000
00000100
00000000
00000000
00010000
00000000
00001000
00000000
00000000
,  // measure 23
00020000
00001000
00000000
00000100
00000000
00001000
00000000
01030000
,  // measure 24
00010000
00001000
00000100
00001000
00010000
01000000
00010000
00001000
,  // measure 25
00000000
00010000
00000100
00000000
00010100
00000000
00000100
00000010
,  // measure 26
00000000
00000001
00000010
00000000
00000011
00000000
00000001
00000100
,  // measure 27
00000000
00000100
00001000
00000000
00110000
00000000
00010000
00000010
,  // measure 28
00000000
00001000
00000001
00000000
00000101
00000000
00000100
00001000
,  // measure 29
00000000
00010000
01000000
00000000
01010000
00000000
01000000
00010000
,  // measure 30
00000000
00001000
00000100
00000000
00001100
00000000
00000100
00000001
,  // measure 31
00000000
00000001
00000010
00000000
00000011
00000000
00000010
00000100
,  // measure 32
00000000
00000100
00010000
00000000
00011000
00000000
00010000
00001000
,  // measure 33
00000000
00001000
00100000
00000000
00110000
00000000
00100000
00010000
,  // measure 34
00000000
00010000
10000000
00000000
10100000
00000000
10000000
00100000
,  // measure 35
00000000
00100000
00010000
00000000
00001100
00000000
00000100
00000010
,  // measure 36
00000000
00000100
00001000
00000000
01010000
00000000
01000000
10000000
,  // measure 37
00000000
01000000
00010000
00000000
00011000
00000000
00010000
00000100
,  // measure 38
00000000
00000100
00001000
00000000
00001001
00000000
00001000
00000010
,  // measure 39
00000000
00000010
00010000
00000000
00110000
00000000
00100000
01000000
,  // measure 40
00000000
00000000
01000000
00000000
00001000
00000000
00000000
00000000
00010000
00000000
00001000
00010000
00001000
00000000
00010000
00000000
,  // measure 41
00010100
00000000
00000100
00000010
00000001
00000100
00001000
00010000
,  // measure 42
01000000
00000000
00000000
11000000
00000000
00000000
10010000
00000000
,  // measure 43
10000000
00100000
00010000
00001000
00000010
00000001
00000100
00001000
,  // measure 44
00010000
00000000
00000000
00000000
00000000
00000000
00001000
00000000
00010000
00000000
00001000
00010000
00001000
00000000
00010000
00000000
,  // measure 45
00000000
00001000
01000000
00000000
01010000
00000000
01000000
00100000
,  // measure 46
00000000
10000000
01000000
00000000
01100000
00000000
01000000
00100000
,  // measure 47
00000000
00100000
00001000
00000000
00011000
00000000
00010000
00000100
,  // measure 48
00000000
00000000
00000100
00000000
00000010
00000000
00000000
00000000
00000110
00000000
00000001
00001000
00000001
00000000
00001000
00000000
,  // measure 49
00000020
00000000
00000000
00000000
,  // measure 50
00000000
00000000
00000030
00000000
;

//---------------dance-double - ----------------
#NOTES:
     dance-double:
     :
     Easy:
     3:
     0.168,0.207,0.052,0.063,0.000:
00000000
00000000
00000000
00000000
,
00000000
00000000
00000000
00000000
,
00020000
00000000
00000000
00000000
,
00002000
00000000
00000000
00003000
,
00031000
00010000
00000000
00000000
,
01000000
00000000
10000000
00000000
,
00100000
00010000
00000000
00000000
,
00001000
00000000
00000010
00000000
,
00000001
00000000
00000000
00000000
00000000
00000100
00000000
00001000
,
00000000
00000000
00000000
00000000
00000000
00010000
00000000
00100000
,
00000000
00000000
00000000
00000000
00000000
10000000
00000000
01000000
,
00000000
00000000
00000000
00010000
,
00001000
00000000
00000000
00000000
00000000
00001000
00000000
00000100
,
00000000
00000000
00000000
00000000
00000000
00000001
00000000
00000011
,
00000000
00000000
00000000
00000000
00000000
00000010
00000000
00001000
,
00000000
00000000
00000000
00010000
,
00001000
00000000
00010000
00000000
,
01000000
00000000
10000000
00000000
,
00100000
00000000
00010000
00000000
,
00001000
00000000
00000100
00000000
,
00000001
00000000
00000010
00000000
,
00001000
00000000
00010000
00000000
,
00002000
00000000
00000000
00000000
,
00020000
00000000
00000000
00000000
00033000
00000000
00000000
00010000
,
00000000
00000000
00001000
00000000
,
00001000
00000000
00000001
00000000
00001000
00000000
00000000
00010000
,
00000000
00000000
10000000
00000000
,
00100000
00000000
10000000
00000000
01000000
00000000
00000000
00001000
,
00000000
00000000
00010000
00000000
,
00000100
00000000
00000010
00000000
00001001
00000000
00000000
00000001
,
00000000
00000000
00000100
00000000
,
00001000
00000000
00010000
00000000
00011000
00000000
00000000
00010000
,
00000000
00000000
00000000
00000000
01000000
00000000
00000000
10000000
,
00000000
00000000
00000000
00000000
00100000
00000000
00000000
00010000
,
00000000
00000000
00000000
00000000
00001000
00000000
00000000
00000010
,
00000000
00000000
00000100
00000000
,
00000010
00001000
00000001
00000000
,
00000100
00001000
00010000
00000000
,
00010000
00001000
00010000
00000000
,
00001000
00010000
00011000
00000000
,
00010000
00010000
01000000
10000000
,
01000000
00000000
01000000
00000000
,
01000000
00010000
00001000
00000100
,
00000001
00000000
00000001
00000000
,
00000001
00000000
00000000
00000000
00000010
00000000
00000000
00000100
,
00000000
00000000
00000000
00000000
00010000
00000000
00000000
00001000
,
00000000
00000000
00000000
00000000
00100000
00000000
00000000
00100000
,
00000000
00000000
01000000
00000000
,
00022000
00000000
00000000
00000000
,
00000000
00000000
00033000
00000000
;

//---------------dance-double - ----------------
#NOTES:
     dance-double:
     :
     Medium:
     5:
     0.334,0.337,0.366,0.031,0.000:
00000000
00000000
00000000
00000000
,
00000000
00000000
00000000
00000000
,
00000000
00000000
00000000
00000000
,
00000000
00000000
00000000
00000000
,
00011000
00000000
01010000
00000000
00000000
01000000
00000000
00100000
,
00000000
10000000
00000000
01000000
00000000
00010000
00001000
00000000
,
00011000
00000000
00001100
00000000
00000000
00001000
00000000
00000010
,
00000000
00000100
00000000
00000001
00000000
00000010
00000100
00000000
,
00000110
00000000
00001100
00000000
00000000
00000100
00010000
00001000
,
00000000
00000000
00011000
00000000
00000000
00001000
00100000
00010000
,
00000000
00000000
00110000
00000000
00000000
00010000
10000000
01000000
,
00000000
11000000
00000000
10000000
,
00010000
00000000
01010000
00000000
00000000
01000000
00010000
00001000
,
00000000
00000000
00011000
00000000
00000000
00010000
00000100
00000110
,
00000000
00000000
00001001
00000000
00000000
00000001
00000100
00001000
,
00000000
00011000
00001000
00100000
,
00010000
00000000
10000000
00000000
01000000
10000000
01000000
00000000
,
00010000
00000000
00001000
00000000
00000100
00000001
00000100
00000000
,
00001000
00000000
00010000
00000000
00100000
10000000
00100000
00000000
,
00010000
00000000
00001000
00000000
00000010
00000001
00000010
00000000
,
00001000
00000000
00010000
00000000
01000000
10000000
00100000
00000000
,
01000000
00000000
00001000
00000000
00010000
00000100
00001000
00000000
,
00000000
00000010
00000000
00000100
00000000
00001000
00000000
00010000
,
00002000
00000000
00000000
00000000
,
00013000
00000000
01000000
00000000
11000000
00000000
10000000
00100000
,
00000000
01000000
00010000
00000000
01010000
00000000
01000000
00000000
,
00001000
00000000
00010000
00000000
00011000
00000000
00010000
00000010
,
00000000
00000010
00000100
00000000
00000110
00000000
00000100
00000000
,
00000001
00000000
00001000
00000000
00010000
00000000
00100000
00010000
,
00000000
00010000
00100000
00000000
00110000
00000000
00010000
00000000
,
01000000
00000000
00100000
00000000
10010000
00000000
10000000
01000000
,
00000000
00010000
00001000
00000000
00011000
00000000
00001000
00000000
,
00010000
00000000
00000010
00000000
00000110
00000000
00000100
00000001
,
00000000
00000010
00000100
00000000
00000110
00000000
00000100
00000000
,
00010000
00000000
00001000
00000000
00011000
00000000
00001000
00100000
,
00000000
00010000
00100000
00000000
01100000
00000000
01000000
00000000
,
10000000
00000000
00010000
00000000
01010000
00000000
01000000
00001000
,
00000000
00010000
00001000
00000000
00011000
00000000
00010000
00000000
,
00000100
00000000
00000010
00000000
00000101
00000000
00000100
00001000
,
00000000
00010000
00001000
00000000
00011000
00000000
00001000
00000000
,
00011000
01000000
10000000
01000000
,
00010000
00000000
00000000
00001000
00000000
00000000
00000000
00000000
,
00001000
00000100
00000001
00000100
,
00001000
00000000
00000000
00010000
00000000
00000000
00000000
00000000
,
00100000
00000000
10000000
00000000
11000000
00000000
10000000
01000000
,
00000000
00100000
00010000
00000000
10010000
00000000
10000000
00000000
,
00010000
00000000
01000000
00000000
01010000
00000000
01000000
00100000
,
00000000
00100000
01000000
00000000
01100000
00000000
00001000
00000000
,
00022000
00000000
00000000
00000000
,
00000000
00000000
00033000
00000000
;

//---------------dance-single - ----------------
#NOTES:
     dance-single:
     :
     Challenge:
     7:
     0.512,0.648,0.325,0.010,0.131:
0000
0000
0000
0000
,
0000
0000
0000
0000
,
0000
0000
0000
0000
,
0000
0000
0000
0000
,
1100
0001
1001
0000
0001
0100
0010
0100
,
1000
0100
0010
0100
0001
1000
0001
0000
,
0101
1000
1001
0000
1000
0100
0010
0100
,
0001
0000
0100
0000
0010
0000
0100
0000
1000
0000
0001
1000
0001
0000
0001
0000
,
1000
0100
1000
0001
1000
0100
0010
0001
,
0100
0001
1000
0001
0100
0001
0010
0100
,
1000
0001
1000
0100
1000
0010
0100
0001
,
0100
0010
0100
0001
0100
1000
0100
0000
,
0010
1000
0001
1000
0010
0100
0001
0010
,
0001
1000
0001
0010
0001
0100
0010
1000
,
0001
0010
0001
1000
0001
0100
0010
1000
,
0100
0010
0100
1000
0100
0010
0001
0000
,
1000
0000
0001
0000
0100
0010
0000
0010
1000
0000
0000
0001
0000
1000
0000
0000
,
1000
0000
0010
0000
0100
0000
0000
0000
0001
0000
0000
0001
0000
1000
0000
0000
,
0001
0000
0100
0000
0010
0100
0000
0001
0100
0000
0000
0001
0000
1000
0000
0000
,
1000
0000
0010
0000
0100
0001
0000
0001
1000
0000
0100
0000
1100
0000
0000
0000
,
1001
0000
0001
0000
0100
0010
0000
0010
1000
0000
0000
0000
1000
0000
0100
0000
,
0001
0000
0001
0100
1000
0000
0001
0100
,
1000
0100
0001
0100
1000
0100
0001
1000
,
0001
1000
0001
1000
0001
1000
0001
1000
0001
1000
0001
1000
0001
1000
0001
1000
,
0001
0010
0100
1000
1100
0000
1000
0001
,
0000
0001
0100
0010
1010
0000
1000
0010
,
0000
0010
0100
0001
0011
0000
0001
0010
,
0000
0010
0100
1000
1100
0000
1000
0010
,
0000
0010
0100
0001
0101
0000
0001
0010
,
0000
0010
0001
0100
0110
0000
0010
1000
,
0000
1000
0100
0001
0101
0000
0001
0100
,
0000
0000
0100
0000
0010
0000
0001
0000
1001
0000
0001
1000
0001
0000
0010
0000
,
0000
0010
0001
0100
0110
0000
0100
0010
,
0000
0010
1000
0100
0110
0000
0010
0001
,
0000
0001
0100
0010
1001
0000
0001
1000
,
0000
1000
0100
0010
1001
0000
0001
0100
,
0000
0100
1000
0100
0110
0000
0010
1000
,
0000
0100
0001
0100
0110
0000
0010
0001
,
0000
0001
0100
1000
1100
0000
1000
0100
,
0000
0100
0001
0010
0011
0000
1100
0000
,
1001
0000
0001
0100
1000
0001
1000
0100
,
0001
0010
0100
1001
0000
0000
0000
1100
,
0000
1000
0010
0001
1000
0001
0010
1000
,
0100
0010
0001
1001
0000
0000
0001
0100
,
0000
0100
0010
1000
1100
0000
0100
1000
,
0000
1000
0100
0010
0011
0000
0010
0100
,
0000
0100
1000
0010
0101
0000
0100
0001
,
0000
0000
0001
0000
0010
0000
0100
0000
1100
0000
1000
0001
1000
0000
0001
0000
,
0020
0000
0000
0000
,
0000
0000
0030
0000
;

//---------------dance-double - ----------------
#NOTES:
     dance-double:
     :
     Challenge:
     8:
     0.552,0.648,0.335,0.010,0.168: // measure 1
00000000
00000000
00000000
00000000
,  // measure 2
00000000
00000000
00000000
00000000
,  // measure 3
00000000
00000000
00000000
00000000
,  // measure 4
00000000
00000000
00000000
00000000
,  // measure 5
00011000
00000010
00001010
00000000
00000010
00001000
00000100
00000001
,  // measure 6
00000100
00001000
00000100
00000001
00000100
00010000
00001000
00000000
,  // measure 7
00011000
00100000
00110000
00000000
00010000
01000000
10000000
01000000
,  // measure 8
00010000
00000000
01000000
00000000
10000000
00000000
01000000
00000000
00001000
00000000
00010000
00001000
00010000
00000000
00001000
00000000
,  // measure 9
00000010
00000001
00000010
00000001
00000100
00001000
00010000
01000000
,  // measure 10
10000000
00100000
10000000
00100000
10000000
01000000
00010000
00001000
,  // measure 11
00000100
00000010
00000100
00000010
00000100
00001000
00010000
01000000
,  // measure 12
00100000
01000000
00100000
01000000
10000000
00010000
01010000
00000000
,  // measure 13
00010000
01000000
00010000
01000000
00100000
00010000
00001000
00000100
,  // measure 14
00000010
00001000
00000010
00001000
00000100
00000010
00001000
00010000
,  // measure 15
01000000
10000000
01000000
10000000
01000000
00010000
00000010
00001000
,  // measure 16
00000100
00000001
00000100
00000001
00000100
00001000
00001100
00000000
,  // measure 17
00001000
00000000
00000100
00000000
00010000
00001000
00000000
00001000
00010000
00000000
00000000
00001000
00000000
01000000
00000000
00000000
,  // measure 18
00010000
00000000
00110000
00000000
10000000
00000000
00000000
00000000
01000000
00000000
00000000
10000000
00000000
00010000
00000000
00000000
,  // measure 19
01000000
00000000
00001000
00000000
00010000
00001000
00000000
00001000
00010000
00000000
00000000
00001000
00000000
00010000
00000000
00000000
,  // measure 20
00000100
00000000
00001000
00000000
00000100
00001000
00000000
00001000
00000100
00000000
00000000
00000010
00000000
00000001
00000000
00000000
,  // measure 21
00000100
00000000
00001000
00000000
00010000
00001000
00000000
01000000
00010000
00000000
00000000
10000000
00000000
01000000
00000000
00000000
,  // measure 22
10000000
00000000
10100000
00000000
00010000
00000000
00000000
00000000
10000000
00000000
00000000
00010000
00000000
10000000
00000000
00000000
,  // measure 23
10000000
01000000
00010000
00001000
00000100
00000001
00000100
00001000
,  // measure 24
00010000
00001000
00010000
00001000
00100000
00001000
00100000
00001000
00010000
00001000
00010000
00001000
00010000
00000100
00010000
00000100
,  // measure 25
00001000
00000010
00000100
00000001
00001000
00000010
00001000
00001100
,  // measure 26
00000000
00000100
00010000
00001000
01000000
10000000
01000000
01100000
,  // measure 27
00000000
00100000
10000000
01000000
00010000
00001000
00010000
00010010
,  // measure 28
00000000
00000010
00010000
00001000
00000100
00000001
00000100
00000101
,  // measure 29
00000000
00000100
00000001
00000010
00001000
00010000
00001000
00011000
,  // measure 30
00000000
00010000
01000000
10000000
00100000
00010000
00100000
10100000
,  // measure 31
00000000
00100000
10000000
01000000
00010000
00001000
00010000
00011000
,  // measure 32
00000000
00000000
00010000
00000000
00001000
00000000
00000010
00000000
00000001
00000000
00001000
00000001
00001000
00000000
00001001
00000000
,  // measure 33
00000000
00000001
00000010
00001000
00010000
01000000
00010000
00011000
,  // measure 34
00000000
00001000
00010000
01000000
10000000
00010000
10000000
10010000
,  // measure 35
00000000
10000000
00100000
10000000
01000000
00010000
00001000
00011000
,  // measure 36
00000000
00010000
00000010
00010000
00001000
00000100
00000001
00000101
,  // measure 37
00000000
00000001
00000100
00001000
00010000
00100000
00010000
00011000
,  // measure 38
00000000
00010000
01000000
10000000
00100000
00010000
00100000
10100000
,  // measure 39
00000000
10000000
01000000
00010000
00001000
00000100
00001000
00011000
,  // measure 40
00000000
00000000
00010000
00000000
00000100
00000000
00000010
00000000
00000001
00000000
00001000
00000001
00001000
00000000
00000001
00000000
,  // measure 41
00000011
00000000
00000001
00000010
00000001
00000100
00001000
00010000
,  // measure 42
01000000
10000000
00100000
10000000
01000000
00010000
00001000
00000100
,  // measure 43
00000010
00001000
00000100
00000001
00000100
00010000
01000000
10000000
,  // measure 44
00100000
00010000
00001000
00000100
00000001
00000010
00000100
00000110
,  // measure 45
00000000
00000010
00000001
00000100
00001100
00001000
00010000
00011000
,  // measure 46
00000000
00010000
01000000
10000000
10100000
10000000
00010000
00110000
,  // measure 47
00000000
00010000
10000000
01000000
01010000
00010000
00001000
00011000
,  // measure 48
00000000
00000000
00001000
00000000
00000100
00000000
00000001
00000000
00000101
00000000
00000100
00001000
00010000
00000000
01000000
00000000
,  // measure 49
00200000
00000000
00000000
00000000
,  // measure 50
00000000
00000000
00300000
00000000
;
