#TITLE:Hi;
#SUBTITLE:;
#ARTIST:Go-qualia;
#TITLETRANSLIT:;
#SUBTITLETRANSLIT:;
#ARTISTTRANSLIT:;
#GENRE:;
#CREDIT:;
#BANNER:Hi.png;
#BACKGROUND:Hi-bg.png;
#LYRICSPATH:;
#CDTITLE:;
#MUSIC:Hi.ogg;
#OFFSET:-8.812630;
#SAMPLESTART:60.917530;
#SAMPLELENGTH:15.000000;
#SELECTABLE:YES;
#BPMS:0.000000=83.000000
,60.000000=166.000000
;
#STOPS:
;
#BGCHANGES:;
#KEYSOUNDS:;
#ATTACKS:;

//---------------dance-single - ----------------
#NOTES:
     dance-single:
     :
     Beginner:
     1:
     0.094550,0.122442,0.000000,0.044123,0.000000,75.000000,75.000000,0.000000,5.000000,0.000000,0.000000,0.094550,0.122442,0.000000,0.044123,0.000000,75.000000,75.000000,0.000000,5.000000,0.000000,0.000000:
0000
0000
0000
0000
,
0001
0000
1000
0000
,
0001
0000
1000
0000
,
0010
0000
0100
0000
,
0010
0000
0100
0000
,
0001
0000
1000
0000
,
0001
0000
1000
0000
,
0100
0000
0010
0000
,
0100
0000
0010
0000
,
0001
0000
0001
0000
,
1000
0000
1000
0000
,
0010
0000
0010
0000
,
0100
0000
0100
0000
,
0001
0000
0010
0000
,
0100
0000
1000
0000
,
0001
0000
0000
0000
,
1000
0000
0000
0000
,
0001
0000
0000
0000
,
1000
0000
0000
0000
,
0010
0000
0000
0000
,
0000
0000
0010
0000
,
1000
0000
0000
0000
,
0000
0000
1000
0000
,
0001
0000
0000
0000
,
0000
0000
0001
0000
,
0100
0000
0000
0000
,
0000
0000
0100
0000
,
0010
0000
0000
0000
,
1000
0000
0000
0000
,
0100
0000
0000
0000
,
0001
0000
0000
0000
,
1000
0000
0000
0000
,
0010
0000
0000
0000
,
0100
0000
0000
0000
,
0001
0000
0000
0000
,
0002
0000
0003
0000
,
0001
0000
0001
0000
,
0020
0000
0030
0000
,
0100
0000
0100
0000
,
0200
0000
0300
0000
,
1000
0000
1000
0000
,
2000
0000
3000
0000
,
0100
0000
0100
0000
,
0001
0000
0000
0000
,
0100
0000
0000
0000
,
1000
0000
0000
0000
,
0010
0000
0000
0000
,
0001
0000
0000
0000
,
1000
0000
0000
0000
,
0100
0000
0000
0000
,
0010
0000
0000
0000
,
0001
0000
0000
0000
,
1000
0000
1000
0000
,
0100
0000
0000
0000
,
0001
0000
0001
0000
,
0200
0000
0300
0000
;

//---------------dance-single - ----------------
#NOTES:
     dance-single:
     :
     Easy:
     3:
     0.209270,0.220396,0.070597,0.150019,0.000000,166.000000,158.000000,8.000000,17.000000,0.000000,0.000000,0.209270,0.220396,0.070597,0.150019,0.000000,166.000000,158.000000,8.000000,17.000000,0.000000,0.000000:
0000
0000
0000
0000
,
0001
1000
0001
1000
,
0001
1000
0010
0010
,
0100
0010
0100
0010
,
0100
0010
1000
1000
,
0001
0100
1000
0100
,
0001
0100
1000
0100
,
0001
0010
1000
0010
,
0001
0010
1000
0010
,
0002
0003
1000
0100
,
0001
0100
0010
1000
,
0100
0010
0001
1000
,
0010
0100
0001
1000
,
0002
0003
1000
0010
,
1000
0001
0100
0010
,
0100
0001
0100
0000
,
0100
1000
0100
0000
,
1000
0010
1000
0000
,
0001
0010
0001
0000
,
0210
0000
0310
0000
,
0001
0001
0001
0000
,
0120
0000
0130
0000
,
1000
1000
1000
0000
,
0012
0000
0013
0000
,
1000
0100
1000
0000
,
2010
0000
3010
0000
,
0001
0100
0001
0000
,
2000
0000
0100
0000
,
0001
0001
3001
0000
,
0002
0000
0100
0000
,
1000
1000
1003
0000
,
0020
0000
1000
0000
,
0100
0100
0130
0000
,
0020
0000
0001
0000
,
0100
0100
0130
0000
,
1000
0000
0100
0000
,
0001
1000
1001
0000
,
0010
0000
1000
0000
,
0001
0010
0110
0000
,
0001
0000
0100
0000
,
0010
1000
0010
1000
,
0100
0000
1000
0000
,
0001
0010
0001
0000
,
1000
0000
0010
0000
,
0200
0001
0301
0000
,
0010
0000
1000
0000
,
0200
1000
1300
0000
,
0001
0000
0010
0000
,
2000
0010
3010
0000
,
1000
0000
0010
0000
,
0002
0010
0013
0000
,
2001
0000
3010
0000
,
0001
1000
0001
0000
,
1002
0000
0013
0000
,
1000
0001
1000
0000
,
0200
0000
0300
0000
;

//---------------dance-single - ----------------
#NOTES:
     dance-single:
     :
     Medium:
     5:
     0.332815,0.342837,0.202967,0.123545,0.158844,264.000000,241.000000,23.000000,14.000000,0.000000,0.000000,0.332815,0.342837,0.202967,0.123545,0.158844,264.000000,241.000000,23.000000,14.000000,0.000000,0.000000:
0000
0000
0000
0000
,
0001
0000
0000
0001
0000
0000
0000
0000
1000
0000
0000
1000
0000
0000
0000
0000
,
0001
0000
0000
0001
0000
0000
0000
0000
1000
0000
0000
1000
0000
0000
0000
0000
,
0010
0000
0000
0010
0000
0000
0000
0000
0100
0000
0000
0100
0000
0000
0000
0000
,
0010
0000
0000
0010
0000
0000
0000
0000
0100
0000
0000
0100
0000
0000
0000
0000
,
0001
0000
0000
0100
0000
0000
0001
0000
1000
0000
0000
0100
0000
0000
1000
0000
,
0001
0000
0000
0100
0000
0000
0001
0000
1000
0000
0000
0100
0000
0000
1000
0000
,
0001
0000
0000
0010
0000
0000
0001
0000
1000
0000
0000
0010
0000
0000
1000
0000
,
0001
0000
0000
0010
0000
0000
0001
0000
1000
0000
0000
0010
0000
0000
0100
0000
,
0210
0000
0000
0000
0300
0000
0001
0000
1000
0000
0000
0100
0000
0000
0000
0000
,
0001
0000
0000
0100
0000
0000
0010
0000
1000
0000
0000
0100
0000
0000
0000
0000
,
1000
0000
0000
0100
0000
0000
0010
0000
0001
0000
0000
0100
0000
0000
0000
0000
,
0010
0000
0000
0010
0000
0000
0100
0000
0010
0000
0000
0010
0000
0000
0100
0000
,
0001
0000
0000
1000
0000
0000
0000
0000
0001
0000
0000
1000
0000
0000
0010
0000
,
1000
0000
0000
0001
0000
0000
0000
0000
1000
0000
0000
0001
0000
0000
1000
0000
,
1100
1001
0010
0010
,
0101
1001
0010
0010
,
1000
0100
1000
0000
0001
0000
0001
0000
,
0100
0001
0100
0000
0010
0100
0010
0000
,
2010
0010
0010
3010
,
0100
0010
0100
0000
0011
0000
0000
0100
,
2100
0100
0100
3100
,
0010
1000
0010
0000
0100
0000
0000
0001
,
0102
0100
0100
0103
,
0010
0100
0010
0000
0100
0000
0000
0001
,
0012
0010
0010
0013
,
0100
1000
0100
0000
1001
0000
0000
0010
,
1000
0001
0100
0010
,
1000
0100
1000
0000
0001
0000
0100
0000
,
0001
0010
0100
1000
,
0001
0010
0001
0000
1000
0000
0010
0000
,
0100
0000
0001
0000
1000
0000
0100
1000
,
0001
0100
0010
1000
,
0002
0000
2003
0000
,
3020
0000
0000
0000
0230
0000
0000
0000
0301
0000
0000
0001
0000
0000
0001
0000
,
1000
0000
0001
1000
0000
0010
1000
0000
,
0001
1010
1001
0101
,
0001
0000
1000
0100
0000
1000
0001
0000
,
1000
0011
0110
1100
,
0001
0000
1000
0010
0000
0100
0001
0000
,
1000
0001
1000
0000
0001
0000
1000
0000
,
0010
0000
1000
0001
0000
0001
0010
0000
,
0001
1000
0001
0000
0010
0000
0100
0000
,
0201
0000
0000
0310
0000
0000
1000
0000
,
0100
0000
0000
0100
0000
0000
0100
0000
0000
0000
0000
0000
0001
0000
0000
0000
,
2100
0000
0000
3100
0000
0000
0010
0000
,
0100
0000
0000
0100
0000
0000
0100
0000
0000
0000
0000
0000
0010
0000
0000
0000
,
2010
0000
0000
3010
0000
0000
0001
0000
,
0010
0000
0000
0010
0000
0000
0010
0000
0000
0000
0000
0000
0100
0000
0000
0000
,
0012
0000
0000
0013
0000
0000
1000
0000
,
0010
0000
0000
0010
0000
0000
0010
0000
0000
0000
0000
0000
1000
0000
0000
0000
,
1010
0000
0000
0000
0000
0000
1000
0000
0000
0000
0010
0000
0000
0100
0000
0000
,
0001
0000
0000
0001
0000
0000
0001
0000
0000
0000
0000
0000
0000
0000
0000
0000
,
0011
0000
0000
0000
0000
0000
0001
0000
0000
0000
0010
0000
0000
0100
0000
0000
,
1000
0000
0000
1000
0000
0000
1000
0000
0000
0000
0000
0000
0100
0000
0000
0000
,
0020
0000
0030
0000
;

//---------------dance-single - ----------------
#NOTES:
     dance-single:
     :
     Hard:
     7:
     0.461403,0.563233,0.626550,0.317687,0.242678,366.000000,295.000000,71.000000,36.000000,0.000000,0.000000,0.461403,0.563233,0.626550,0.317687,0.242678,366.000000,295.000000,71.000000,36.000000,0.000000,0.000000:
0000
0000
0000
0000
,
1000
0000
0000
0001
0000
0000
0010
0000
0100
0000
0000
1000
0000
0000
0001
0000
,
0100
0000
0000
0010
0000
0000
1000
0000
0010
0000
0000
0100
0000
0000
0001
0000
,
0010
0000
0000
0001
0000
0000
0100
0000
0010
0000
0000
1000
0000
0000
0100
0000
,
0001
0000
0000
0100
0000
0000
1000
0000
0010
0000
0000
0001
0000
0000
0010
0000
,
1001
0000
0000
0001
0000
0000
1000
0000
1010
0000
0000
0100
0000
0000
0001
0000
,
0011
0000
0000
0100
0000
0000
1000
0000
1001
0000
0000
0100
0000
0000
0010
0000
,
0101
0000
0000
0010
0000
0000
1000
0000
1100
0000
0000
0001
0000
0000
0100
0000
,
0110
0000
0000
0010
0000
0000
1000
0000
1001
0000
0000
0110
0000
0000
1001
0000
,
1002
0000
0000
1003
0000
0000
1100
0000
1001
0000
0000
0001
0000
0000
0011
0000
,
1001
0000
0000
1000
0000
0000
1010
0000
1001
0000
0000
0001
0000
0000
0101
0000
,
1100
0000
0000
0100
0000
0000
0110
0000
0011
0000
0000
0001
0000
0000
0101
0000
,
1010
0000
0000
1000
0000
0000
1001
0000
0110
0000
0000
0100
0000
0000
1100
0000
,
0012
0000
0000
1003
0000
0000
1000
0000
0001
0000
0000
0001
0000
0000
0001
0000
,
0100
0000
0000
0100
0000
0000
0100
0000
0010
0000
0000
0010
0000
0000
0010
0000
,
1000
0000
0101
0000
1000
0100
0001
0000
,
1000
0000
1010
0000
0001
0010
1000
0000
,
0001
0000
1100
0000
0001
0100
1000
0000
,
1000
0100
0010
0001
0100
0010
1000
0000
,
0102
0100
0100
0103
,
1100
0000
0000
1100
0000
0000
1100
0000
0000
0000
0000
0000
0001
0000
1000
0000
,
2100
0100
0100
3100
,
0101
0000
0000
0101
0000
0000
0101
0000
0000
0000
0010
0000
1000
0000
0001
0000
,
0012
0010
0010
0013
,
1010
0000
0000
1010
0000
0000
1010
0000
0000
0000
0000
0000
0001
0000
1000
0000
,
2010
0010
0010
3010
,
0011
0000
0000
0011
0000
0000
0011
0000
0000
0000
1000
0000
0100
0000
0010
0000
,
0002
0000
0100
0000
0010
0000
1003
0001
,
0011
0000
0000
1010
0000
0000
0011
0000
0000
0000
0001
0000
0010
0000
0100
0000
,
2000
0000
0100
0000
0010
0000
3001
1000
,
1100
0000
0000
0101
0000
0000
1100
0000
0000
0000
0100
0000
1000
0000
0001
0000
,
2000
0000
0000
0000
0100
0000
0000
0000
3002
0000
0000
0000
0103
0000
0000
0010
,
2000
0000
0000
0000
3200
0000
0000
0000
0310
0000
0000
0001
0000
0000
1000
0000
,
1020
1000
0230
0001
,
0302
0000
0000
0000
2003
0000
0000
0000
3200
0000
0000
0320
0000
0000
0032
0000
,
0103
0000
1010
0000
0100
0001
1000
0100
,
0010
0011
1020
0130
,
0001
0010
1000
0000
1000
0100
0010
0100
,
1000
1100
0201
0310
,
2010
3010
0002
0013
,
0200
0320
2030
3002
,
0203
0010
0302
0100
,
1003
0000
0100
0000
0010
0001
1000
0001
,
0020
0000
0000
0000
0000
0000
0130
0000
0000
0000
1000
0000
0010
1000
0000
0000
,
0110
0000
0000
0110
0000
0000
0110
0000
0000
0000
0001
0000
1000
0100
1000
0000
,
0020
0000
0000
0000
0000
0000
0031
0000
0000
0000
1000
0000
0001
0100
0000
0000
,
1001
0000
0000
1001
0000
0000
1001
0000
0000
0000
0010
0000
1000
0001
1000
0000
,
0200
0000
0000
0000
0000
0000
0310
0000
0000
0000
0001
0000
1000
0100
0000
0000
,
1100
0000
0000
0011
0000
0000
1100
0000
0000
0000
1000
0000
0001
0010
0001
0000
,
0200
0000
0000
0000
0000
0000
0310
0000
0000
0000
0001
0000
1000
0010
0000
0000
,
0101
0000
0000
1010
0000
0000
0101
0000
0000
0000
1000
0000
0100
0000
0010
0000
,
0002
0000
0000
0000
0000
0000
0013
0000
0000
0000
0000
0000
0001
1000
0000
0000
,
0100
0000
0000
0100
0000
0000
0100
0000
0000
0000
0010
0000
0001
0010
0001
0000
,
2000
0000
0000
0000
0000
0000
3100
0000
0000
0000
0000
0000
1000
0001
0000
0000
,
0100
0000
0000
0100
0000
0000
0100
0000
0000
0000
0001
0000
1000
0001
1000
0001
,
0020
0000
0030
0000
;

//---------------dance-double - ----------------
#NOTES:
     dance-double:
     :
     Hard:
     7:
     0.450057,0.563233,0.582427,0.264739,0.233853,357.000000,291.000000,66.000000,30.000000,0.000000,0.000000,0.450057,0.563233,0.582427,0.264739,0.233853,357.000000,291.000000,66.000000,30.000000,0.000000,0.000000:
00000000
00000000
00000000
00000000
,
00001000
00000000
00000000
00000001
00000000
00000000
00000010
00000000
00000100
00000000
00000000
00010000
00000000
00000000
00001000
00000000
,
01000000
00000000
00000000
00100000
00000000
00000000
10000000
00000000
01000000
00000000
00000000
00010000
00000000
00000000
00001000
00000000
,
00000010
00000000
00000000
00000001
00000000
00000000
00000100
00000000
00000010
00000000
00000000
00001000
00000000
00000000
00000001
00000000
,
00000100
00000000
00000000
00001000
00000000
00000000
00010000
00000000
00100000
00000000
00000000
10000000
00000000
00000000
00100000
00000000
,
10010000
00000000
00000000
00010000
00000000
00000000
10000000
00000000
10100000
00000000
00000000
01000000
00000000
00000000
00001000
00000000
,
00011000
00000000
00000000
00000100
00000000
00000000
00000001
00000000
00001001
00000000
00000000
00000100
00000000
00000000
00000010
00000000
,
00000101
00000000
00000000
00000010
00000000
00000000
00010000
00000000
00011000
00000000
00000000
00100000
00000000
00000000
01000000
00000000
,
01100000
00000000
00000000
10000000
00000000
00000000
00010000
00000000
10010000
00000000
00000000
01100000
00000000
00000000
01001000
00000000
,
00021000
00000000
00000000
00031000
00000000
00000000
00010100
00000000
00001100
00000000
00000000
00001000
00000000
00000000
00001010
00000000
,
00001001
00000000
00000000
00000001
00000000
00000000
00000011
00000000
00001001
00000000
00000000
00001000
00000000
00000000
00001100
00000000
,
00010100
00000000
00000000
00010000
00000000
00000000
00011000
00000000
00101000
00000000
00000000
00100000
00000000
00000000
01100000
00000000
,
10010000
00000000
00000000
10000000
00000000
00000000
10100000
00000000
01010000
00000000
00000000
00100000
00000000
00000000
00101000
00000000
,
00012000
00000000
00000000
00013000
00000000
00000000
00010000
00000000
00000100
00000000
00000000
00000100
00000000
00000000
00000100
00000000
,
00000010
00000000
00000000
00000010
00000000
00000000
00000010
00000000
00000001
00000000
00000000
00000001
00000000
00000000
00000001
00000000
,
00001000
00000000
00001010
00000000
00000001
00000100
00001000
00000000
,
00010000
00000000
00110000
00000000
10000000
01000000
00010000
00000000
,
00001000
00000000
00001100
00000000
00000001
00000010
00001000
00000000
,
00010000
00000000
01000000
10000000
00100000
01000000
00010000
00000000
,
00120000
00100000
00100000
00130000
,
00101000
00000000
00001000
00010000
00000000
00010000
00000010
00001000
,
00002010
00000010
00000010
00003010
,
00010010
00000000
00000000
00010000
00000000
00000000
00001000
00000000
00000000
00000000
00001000
00000000
00100000
00000000
00010000
00000000
,
01020000
01000000
01000000
01030000
,
01001000
00000000
00001000
00010000
00000000
00010000
00000100
00001000
,
00002100
00000100
00000100
00003100
,
00010100
00000000
00000000
00010000
00000000
00000000
00001000
00000000
00000000
00000000
00010000
00000000
01000000
00000000
10000000
00000000
,
00020000
00100000
10000000
01000000
,
00031000
00000000
00000000
00000010
00000000
00000000
00000100
00000000
00000000
00000000
00001000
00000000
00000100
00000000
00000001
00000000
,
00002000
00000010
00000001
00000100
,
00013000
00000000
00000000
00100000
00000000
00000000
01000000
00000000
00000000
00000000
10000000
00000000
00010000
00000000
00000000
00000000
,
20000000
00000000
00000000
00000000
32000000
00000000
00000000
00000000
03020000
00000000
00000000
00000000
00031000
00000000
00000000
00000010
,
00000002
00002003
00003200
00000320
,
00000032
00000000
00000000
00000000
00000203
00000000
00000000
00000000
00002300
00000000
00000000
00000000
00013000
00000000
00000000
00100000
,
20000000
00000000
00000000
00010000
00000000
00000000
30010000
00000000
00000000
00000000
00000000
00100000
00000000
01000000
00000000
00000000
,
20000000
00000000
30100000
00010000
00001000
00000100
00000001
00000000
,
00000011
00001001
00000110
00001001
,
00000002
00000000
00000013
00001000
00010000
01000000
10000000
00000000
,
10100000
10010000
01100000
10010000
,
20000000
00000000
31000000
00010000
00001000
00000010
00000001
00000000
,
00000101
00001001
00000110
00001001
,
00000002
00000000
00000103
00001000
00010000
00100000
10000000
00000000
,
11000000
10010000
01100000
10010000
,
02000000
00000000
00000000
00000000
00000000
00000000
03100000
00000000
00000000
00000000
00001000
00000000
00010000
00000010
00000000
00000000
,
00000110
00000000
00000000
00000110
00000000
00000000
00000110
00000000
00000000
00000000
00000001
00000000
00000000
00001000
00000010
00000000
,
00000200
00000000
00000000
00000000
00000000
00000000
00000310
00000000
00000000
00000000
00010000
00000000
00001000
00100000
00000000
00000000
,
01100000
00000000
00000000
01100000
00000000
00000000
01100000
00000000
00000000
00000000
10000000
00000000
00010000
01000000
00010000
01000000
,
00200000
00000000
00000000
00000000
00000000
00000000
01300000
00000000
00000000
00000000
00001000
00000000
00010000
00000100
00000000
00000000
,
00000110
00000000
00000000
00000110
00000000
00000000
00000110
00000000
00000000
00000000
00000001
00000000
00001000
00000100
00001000
00000100
,
00000020
00000000
00000000
00000000
00000000
00000000
00000130
00000000
00000000
00000000
00010000
00000000
00001000
01000000
00000000
00000000
,
01100000
00000000
00000000
01100000
00000000
00000000
01100000
00000000
00000000
00000000
10000000
00000000
01000000
00010000
00000000
00000000
,
00002000
00000000
00000000
00003100
00000000
00000001
00000010
00000000
,
00001000
00000000
00000000
00001000
00000000
00000000
00010000
00000000
00000000
00000000
00100000
00000000
10000000
00000000
01000000
00000000
,
00020000
00000000
00000000
01030000
00000000
10000000
00100000
00000000
,
00010000
00000000
00000000
00010000
00000000
00000000
00001000
00000000
00000000
00000000
00000010
00000000
00000001
00000000
00000200
00000000
,
00000000
00000000
00000300
00000000
;

//---------------dance-double - ----------------
#NOTES:
     dance-double:
     :
     Medium:
     5:
     0.336597,0.342837,0.247090,0.097071,0.150019,267.000000,239.000000,28.000000,11.000000,0.000000,0.000000,0.336597,0.342837,0.247090,0.097071,0.150019,267.000000,239.000000,28.000000,11.000000,0.000000,0.000000:
00000000
00000000
00000000
00000000
,
00010000
00000000
00000000
00010000
00000000
00000000
00000000
00000000
10000000
00000000
00000000
10000000
00000000
00000000
00000000
00000000
,
01000000
00000000
00000000
01000000
00000000
00000000
00000000
00000000
00010000
00000000
00000000
00010000
00000000
00000000
00000000
00000000
,
00001000
00000000
00000000
00001000
00000000
00000000
00000000
00000000
00000100
00000000
00000000
00000100
00000000
00000000
00000000
00000000
,
00000001
00000000
00000000
00000001
00000000
00000000
00000000
00000000
00000010
00000000
00000000
00000010
00000000
00000000
00000000
00000000
,
00000001
00000000
00000000
00000100
00000000
00000000
00000001
00000000
00001000
00000000
00000000
00000100
00000000
00000000
00010000
00000000
,
00001000
00000000
00000000
01000000
00000000
00000000
00010000
00000000
10000000
00000000
00000000
01000000
00000000
00000000
10000000
00000000
,
00010000
00000000
00000000
00100000
00000000
00000000
00010000
00000000
10000000
00000000
00000000
00100000
00000000
00000000
10000000
00000000
,
00010000
00000000
00000000
00100000
00000000
00000000
00001000
00000000
00010000
00000000
00000000
00000010
00000000
00000000
00001000
00000000
,
00000001
00000000
00000000
00000100
00000000
00000000
00000010
00000000
00001000
00000000
00000000
00000100
00000000
00000000
00000000
00000000
,
00010000
00000000
00000000
00001000
00000000
00000000
01000000
00000000
00100000
00000000
00000000
10000000
00000000
00000000
00000000
00000000
,
00010000
00000000
00000000
01000000
00000000
00000000
00100000
00000000
10000000
00000000
00000000
01000000
00000000
00000000
00000000
00000000
,
00010000
00000000
00000000
00010000
00000000
00000000
00001000
00000000
00010000
00000000
00000000
00010000
00000000
00000000
00000010
00000000
,
00001000
00000000
00000000
00000001
00000000
00000000
00000000
00000000
00000100
00000000
00000000
00000010
00000000
00000000
00010000
00000000
,
00001000
00000000
00000000
01000000
00000000
00000000
00000000
00000000
00010000
00000000
00000000
01000000
00000000
00000000
00100000
00000000
,
10100000
10010000
00100000
00100000
,
01001000
00010100
00000010
00000010
,
00000001
00000010
00000001
00000000
00001000
00000000
00001000
00000000
,
00000100
00010000
00000100
00000000
00010000
00001000
00010000
00000000
,
00012000
00000000
00000000
00010000
00000000
00000000
00103000
00000000
,
00010000
00000000
10000000
01000000
10000000
00000000
00110000
00000000
,
00021000
00000000
00000000
00001000
00000000
00000000
00030010
00000000
,
00001000
00000000
00000001
00000100
00000001
00000000
00001010
00000000
,
00012000
00000000
00000000
00010000
00000000
00000000
01003000
00000000
,
00010000
00000000
10000000
00100000
10000000
00000000
01010000
00000000
,
00021000
00000000
00000000
00001000
00000000
00000000
00030100
00000000
,
00001000
00000000
00000001
00000010
00000001
00000000
00001100
00000000
,
00001000
00000001
00000100
00000010
,
00010000
00001000
00010000
00000000
00100000
00000000
01000000
00000000
,
00010000
10000000
01000000
00100000
,
00001000
00010000
00001000
00000000
00000010
00000000
00000100
00000000
,
00001000
00000001
00000010
00000100
,
00010000
00001000
00010000
00000000
01000000
00000000
00100000
00000000
,
00010000
10000000
00100000
01000000
,
00001000
00010000
00001000
00000000
00000100
00000000
00000010
00000000
,
00001000
00000000
00000001
00000100
00000000
00000010
00001000
00000000
,
00000100
00010100
00011000
01001000
,
00010000
00000000
10000000
01000000
00000000
00100000
00010000
00000000
,
01000000
01001000
00011000
00010010
,
00001000
00000000
00000001
00000010
00000000
00000100
00001000
00000000
,
00000010
00010010
00011000
00101000
,
00010000
00000000
10000000
00100000
00000000
01000000
00010000
00000000
,
00100000
00101000
00011000
00010100
,
00000020
00000000
00000000
00000031
00000000
00000000
00001000
00000000
,
00000100
00000000
00000000
00000100
00000000
00000000
00000100
00000000
00000000
00000000
00000000
00000000
00011000
00000000
00000000
00000000
,
00200000
00000000
00000000
10300000
00000000
00000000
00010000
00000000
,
01000000
00000000
00000000
01000000
00000000
00000000
01000000
00000000
00000000
00000000
00000000
00000000
00011000
00000000
00000000
00000000
,
00000200
00000000
00000000
00000301
00000000
00000000
00001000
00000000
,
00000010
00000000
00000000
00000010
00000000
00000000
00000010
00000000
00000000
00000000
00000000
00000000
00011000
00000000
00000000
00000000
,
02000000
00000000
00000000
13000000
00000000
00000000
00010000
00000000
,
00100000
00000000
00000000
00100000
00000000
00000000
00100000
00000000
00000000
00000000
00000000
00000000
00011000
00000000
00000000
00000000
,
00000200
00000000
00000000
00000301
00000000
00000010
00000100
00000000
,
00010000
00000000
00000000
00010000
00000000
00000000
00001000
00000000
00000000
00000000
00000000
00000000
00100000
00000000
00000000
00000000
,
02000000
00000000
00000000
13000000
00000000
00100000
01000000
00000000
,
00001000
00000000
00000000
00001000
00000000
00000000
00010000
00000000
00000000
00000000
00000100
00000000
00000020
00000000
00000000
00000000
,
00000000
00000000
00000030
00000000
;

//---------------dance-double - ----------------
#NOTES:
     dance-double:
     :
     Easy:
     3:
     0.191621,0.220396,0.052948,0.238265,0.000000,152.000000,146.000000,6.000000,27.000000,0.000000,0.000000,0.191621,0.220396,0.052948,0.238265,0.000000,152.000000,146.000000,6.000000,27.000000,0.000000,0.000000:
// measure 0
00000000
00000000
00000000
00000000
,  // measure 1
10000000
00000000
01000000
00000000
,  // measure 2
00100000
00000000
00010000
00000000
,  // measure 3
00001000
00000000
00000100
00000000
,  // measure 4
00000010
00000000
00000001
00000000
,  // measure 5
00002000
00000000
00003000
00000100
00020000
00000000
00030000
00001000
,  // measure 6
00200000
00000000
00300000
00010000
20000000
00000000
00000000
00000000
,  // measure 7
30020000
00000000
00030000
01000000
00002000
00000000
00003000
00010000
,  // measure 8
00000200
00000000
00000300
00001000
00000002
00000000
00000000
00000000
,  // measure 9
00001003
00000000
00000001
00000100
,  // measure 10
00001000
00010000
01000000
10000000
,  // measure 11
00010000
00000000
10000000
01000000
,  // measure 12
00010000
00001000
00000100
00000001
,  // measure 13
00001000
00000000
00000001
00000010
,  // measure 14
00000100
00001000
00010000
00100000
,  // measure 15
01000000
10000000
01000000
00000000
,  // measure 16
01000000
00010000
01000000
00000000
,  // measure 17
00010000
00001000
00010000
00000000
,  // measure 18
00001000
00000010
00001000
00000000
,  // measure 19
00000020
00000000
00000031
00000000
,  // measure 20
00000100
00000100
00000100
00000000
,  // measure 21
00021000
00000000
00031000
00000000
,  // measure 22
01000000
01000000
01000000
00000000
,  // measure 23
00200000
00000000
10300000
00000000
,  // measure 24
01000000
01000000
01000000
00000000
,  // measure 25
00012000
00000000
00013000
00000000
,  // measure 26
00000010
00000010
00000010
00000000
,  // measure 27
00000200
00000000
00000301
00000000
,  // measure 28
00000010
00000010
00000010
00000000
,  // measure 29
00021000
00000000
00031000
00000000
,  // measure 30
00100000
00100000
00100000
00000000
,  // measure 31
02000000
00000000
13000000
00000000
,  // measure 32
00100000
00100000
00100000
00000000
,  // measure 33
00012000
00000000
00013000
00000000
,  // measure 34
00000010
00000010
00000010
00000000
,  // measure 35
00000200
00000000
00000001
00000000
,  // measure 36
00000010
00000010
00000310
00000000
,  // measure 37
00002000
00000000
00010000
00000000
,  // measure 38
00100000
00100000
00103000
00000000
,  // measure 39
02000000
00000000
10000000
00000000
,  // measure 40
00100000
00100000
03100000
00000000
,  // measure 41
00020000
00000000
00001000
00000000
,  // measure 42
00000010
00000010
00030010
00000000
,  // measure 43
00001000
00000000
00000100
00000000
,  // measure 44
00000020
00000001
00000031
00000000
,  // measure 45
00000100
00000000
00001000
00000000
,  // measure 46
00020000
00100000
00130000
00000000
,  // measure 47
10000000
00000000
01000000
00000000
,  // measure 48
00200000
00010000
00310000
00000000
,  // measure 49
01000000
00000000
00001000
00000000
,  // measure 50
00020000
00000010
00030010
00000000
,  // measure 51
00002001
00000000
00003010
00000000
,  // measure 52
00001000
00000100
00010000
00000000
,  // measure 53
10020000
00000000
00130000
00000000
,  // measure 54
00010000
01000000
00001000
00000000
,  // measure 55
00020000
00000000
00030000
00000000
;
