#TITLE:Hello Happiness;
#SUBTITLE:;
#ARTIST:P*Light feat. mow*2;
#TITLETRANSLIT:;
#SUBTITLETRANSLIT:;
#ARTISTTRANSLIT:;
#GENRE:;
#CREDIT:;
#BANNER:Hello Happiness.png;
#BACKGROUND:Hello Happiness-bg.png;
#LYRICSPATH:;
#CDTITLE:;
#MUSIC:Hello Happiness.ogg;
#OFFSET:-0.177373;
#SAMPLESTART:14.757000;
#SAMPLELENGTH:15.000000;
#SELECTABLE:YES;
#BPMS:0.000000=182.000000
;
#STOPS:
;
#BGCHANGES:0.000=Hello Happiness.avi=1.000=1=0=0=StretchNoLoop==CrossFade==,
99999=-nosongbg-=1.000=0=0=0 // don't automatically add -songbackground-
;
#KEYSOUNDS:;
#ATTACKS:;

//---------------dance-single - ----------------
#NOTES:
     dance-single:
     :
     Beginner:
     1:
     0.089541,0.145636,0.009217,0.129044,0.000000,68.000000,67.000000,1.000000,14.000000,0.000000,0.000000,0.089541,0.145636,0.009217,0.129044,0.000000,68.000000,67.000000,1.000000,14.000000,0.000000,0.000000:
0000
0000
0000
0000
,
0000
0000
0000
0000
,
0000
0000
0000
0000
,
1000
0000
0000
0000
,
0000
0000
0000
0000
,
0010
0000
0000
0000
,
0000
0000
0000
0000
,
0100
0000
0000
0000
,
0000
0000
0000
0000
,
0001
0000
0000
0000
,
0000
0000
0000
0000
,
0100
0000
0000
0000
,
0100
0000
0000
0000
,
0010
0000
0000
0000
,
0010
0000
0000
0000
,
1000
0000
0000
0000
,
1000
0000
0000
0000
,
0001
0000
0000
0000
,
0001
0000
0000
0000
,
0100
0000
0000
0000
,
1000
0000
0000
0000
,
0100
0000
0000
0000
,
0001
0000
0000
0000
,
1000
0000
0000
0000
,
0010
0000
0000
0000
,
0001
0000
0000
0000
,
0010
0000
0000
0000
,
0100
0000
0000
0000
,
1000
0000
0000
0000
,
0100
0000
0000
0000
,
1000
0000
0000
0000
,
0010
0000
0000
0000
,
0001
0000
0000
0000
,
0010
0000
0000
0000
,
0001
0000
0000
0000
,
0100
0000
0000
0000
,
0001
0000
0000
0000
,
1000
0000
0000
0000
,
0010
0000
0000
0000
,
0001
0000
0000
0000
,
0010
0000
0000
0000
,
0100
0000
0000
0000
,
1000
0000
0000
0000
,
0002
0003
0000
0000
,
2000
3000
0000
0000
,
0020
0000
0000
0030
,
0000
0000
0000
0000
,
0002
0000
0003
0000
,
2000
0000
3000
0000
,
0020
0000
0000
0030
,
0000
0000
0000
0000
,
0100
0000
0000
0000
,
0000
0000
0000
0000
,
0100
0000
0000
0000
,
0000
0000
0000
0000
,
0010
0000
0000
0000
,
0010
0000
0000
0000
,
0010
0000
0000
0000
,
0010
0000
0000
0000
,
0020
0000
0000
0030
,
0100
0000
0100
0000
,
0001
0000
0000
0000
,
1000
0000
0000
0000
,
0001
0000
0000
0000
,
1000
0000
0000
0000
,
0010
0000
0000
0000
,
0100
0000
0000
0000
,
0010
0000
0000
0000
,
0100
0000
0000
0000
,
0002
0003
0000
0000
,
2000
3000
0000
0000
,
0020
0000
0000
0030
,
0000
0000
0000
0000
,
0002
0000
0003
0000
,
2000
0000
3000
0000
,
0010
0000
0000
0000
,
0100
0000
0000
0000
,
2002
0000
0000
0000
,
0000
0000
0000
0000
,
3003
0000
0000
0000
;

//---------------dance-single - ----------------
#NOTES:
     dance-single:
     :
     Easy:
     4:
     0.350263,0.546133,0.285741,0.230436,0.000000,266.000000,235.000000,31.000000,25.000000,0.000000,0.000000,0.350263,0.546133,0.285741,0.230436,0.000000,266.000000,235.000000,31.000000,25.000000,0.000000,0.000000:
0000
0000
0000
0000
,
0000
0000
0000
0000
,
1001
0000
1001
0000
,
0010
1000
0100
0010
,
0001
1000
0010
0100
,
0100
0001
1000
0100
,
0010
0001
1000
1001
,
0000
1001
1001
0000
,
0010
0010
0100
0010
,
1001
1001
0110
0110
,
0002
0000
1000
0003
,
1000
0100
0010
0000
,
0001
0100
0010
0000
,
1000
0010
0100
0000
,
0001
0010
0100
0000
,
1000
0001
0100
0010
,
1000
0100
0010
0001
,
1000
0010
0100
0001
,
0020
0000
0100
0030
,
0001
0100
0001
0100
,
0010
0100
0010
0100
,
0010
1000
0100
1000
,
0010
1000
0100
0000
,
1000
0100
1000
0100
,
0010
0100
0010
0100
,
0010
0001
0100
0001
,
0010
0000
1001
0000
,
0010
1000
0001
0100
,
0010
1000
0001
0100
,
0010
1000
0100
0010
,
0001
1000
0100
0010
,
0001
0000
1000
0000
,
0010
0000
0100
0000
,
0001
0100
0010
1000
,
1001
0000
0110
0000
,
0001
0100
0001
1000
,
0010
1000
0100
0010
,
0010
0001
0010
0100
,
1000
1000
0001
0001
,
0000
0001
1000
0000
,
0010
0100
0001
1000
,
0100
0100
0010
0010
,
0001
0000
1000
0000
,
0020
0000
0030
0100
,
0020
0000
0030
1000
,
0020
0000
0030
0001
,
0020
0000
0032
0000
,
0203
0000
0300
0010
,
0200
0000
0300
1000
,
0200
0000
0300
0010
,
0001
1000
1001
0000
,
0001
0000
0000
0000
,
1000
0000
0000
0000
,
0010
0000
0000
0000
,
0100
0000
0000
0000
,
1001
0001
0001
0000
,
1001
1000
1000
0000
,
0110
0010
0010
0010
,
0110
0110
0110
0110
,
2002
0000
0000
3003
,
1010
0000
0101
0000
,
1000
0100
1000
0100
,
0001
0100
0001
0100
,
0001
0010
0100
1000
,
0001
1000
0010
0100
,
0101
0000
0010
1000
,
1100
0000
0001
0010
,
0110
0001
1001
0010
,
0120
0100
0100
0030
,
2000
3100
0010
0001
,
2000
3100
0010
0001
,
2000
3010
0100
0001
,
2000
3010
0100
0001
,
0020
0000
0130
1000
,
0020
0000
0130
0001
,
0010
0100
1000
0001
,
2002
3003
0220
0330
,
2002
0000
0000
0000
,
0000
0000
0000
0000
,
3003
0000
0000
0000
;

//---------------dance-single - ----------------
#NOTES:
     dance-single:
     :
     Hard:
     8:
     0.587283,0.655360,0.405567,0.276523,0.027652,446.000000,402.000000,44.000000,30.000000,0.000000,0.000000,0.587283,0.655360,0.405567,0.276523,0.027652,446.000000,402.000000,44.000000,30.000000,0.000000,0.000000:
0000
0000
0000
0000
,
0000
0000
0000
0000
,
1001
0000
1001
0000
,
0010
1000
0100
0000
0010
0001
1000
0010
,
0100
0100
0010
0010
1000
0000
0001
0001
,
0001
1000
0100
0000
0010
0001
0000
1000
,
0010
1000
0000
0001
0100
0000
0110
0000
,
0000
0000
1000
0001
1001
0000
0000
1010
,
0000
0101
0000
0001
0010
0100
1000
0000
,
0001
0100
1000
0100
0001
0010
1000
0010
,
0002
0000
2000
3003
,
0010
0001
1000
0100
,
0001
0010
0100
1100
,
1010
0010
1000
0100
,
0110
0010
0011
1010
,
0001
1000
0010
0000
1000
0001
0010
0000
,
0001
0100
0010
0000
1000
0100
0010
0000
,
0001
0010
0100
1000
0010
0100
0001
1000
,
1010
0101
0110
1001
,
1000
0100
0010
0001
0100
0001
0100
0010
,
1000
0100
0010
0100
1000
0001
0100
0000
,
1100
0000
0101
0000
0010
0001
1000
0010
,
0100
0000
0001
0100
1000
0100
0001
0000
,
0001
0100
0010
1000
0100
1000
0100
0010
,
0001
0100
0010
0100
0001
1000
0010
0000
,
0011
0000
1010
0000
1000
0010
0001
0010
,
2000
0000
0002
3003
,
0001
0100
0010
0100
0001
1000
0010
1000
,
0100
1000
0001
0010
0100
1000
0001
0000
,
1000
0010
1000
0100
1000
0010
1000
0000
,
0001
0100
0001
0010
0001
0100
0001
0000
,
0100
0010
1000
0001
1000
0100
0010
0001
,
0100
0010
0100
0001
1000
0100
0010
0000
,
0011
1000
1010
1001
,
0220
0000
0000
0330
,
1000
0100
1000
0000
0001
0010
0100
0010
,
0001
0001
1000
1000
0010
0000
0100
0100
,
0100
0001
0100
0010
0100
0100
0000
0001
,
1000
0001
0000
0010
0001
0000
1001
0000
,
0010
0100
0010
0000
0001
1000
0000
1000
,
0010
0010
0100
0100
0001
0000
0001
0100
,
0010
0100
0010
0100
0001
1000
0001
1000
,
2002
0000
0000
3003
,
2010
0000
0000
3001
,
0012
0000
0000
1003
,
2001
0000
0000
3100
,
0010
0000
0000
0010
0000
0000
0010
0000
0000
0000
0000
0000
0001
0000
0000
0000
,
0102
0000
0000
1003
,
2100
0000
0000
3001
,
0010
0010
0000
0100
0000
0010
0000
0220
,
0000
0000
0000
0330
,
0001
0000
1000
0010
1000
0010
0000
0000
,
0100
0000
0000
0001
0000
0000
2000
0000
0000
0000
0000
0000
3000
0000
0000
0000
,
0100
0000
0010
0001
0000
1000
0000
1010
,
0000
0011
0000
0110
0000
0010
0100
0000
,
1000
0010
1000
0100
1000
0010
1000
0000
,
0001
0010
0001
0100
0001
0010
0001
0000
,
1000
0010
0001
0010
1000
0010
0001
0010
,
1000
1000
0100
0100
0010
0010
0001
0001
,
2002
0000
0000
3003
,
0020
0000
0200
0030
,
0301
1000
0010
0100
0001
1000
0100
1000
,
0010
0100
0001
0010
0001
0100
0010
1000
,
0100
0010
0100
1000
0010
1000
0001
0100
,
0010
0100
0001
0010
0100
1000
0100
0000
,
0011
0000
1000
0010
0100
0001
1000
0000
,
1010
0000
1000
0001
1001
0000
0110
0000
,
1100
0000
0101
0000
0001
0010
0100
1000
,
0020
0100
0001
1030
,
0200
0000
0310
0001
1000
0010
0100
0000
,
0002
0000
0013
0100
1000
0001
0100
0000
,
2000
0000
3001
0100
0010
1000
0100
0000
,
0010
0000
0000
0010
0000
0000
0010
0000
0100
0000
0010
0000
0001
0000
1000
0000
,
2100
0000
3001
0100
0001
0000
0010
0000
,
0102
0000
0000
0000
1003
0000
0001
1000
0000
0010
0000
1000
0001
0000
0000
0000
,
1000
0100
0010
0100
1000
0001
0100
0010
,
0200
0000
0020
0330
,
2002
0000
0000
0000
,
0000
0000
0000
0000
,
3003
0000
0000
0000
;

//---------------dance-single - ----------------
#NOTES:
     dance-single:
     :
     Medium:
     6:
     0.429269,0.582542,0.396350,0.267306,0.004609,326.000000,283.000000,43.000000,29.000000,0.000000,0.000000,0.429269,0.582542,0.396350,0.267306,0.004609,326.000000,283.000000,43.000000,29.000000,0.000000,0.000000:
0000
0000
0000
0000
,
0000
0000
0000
0000
,
1001
0000
1001
0000
,
1000
0100
1000
0000
0001
0000
0100
0010
,
0100
0000
0001
0000
1000
0000
0001
0010
,
0001
0000
0100
0000
0010
1000
0000
0001
,
0100
0001
0000
1000
0100
0000
0110
0000
,
0000
0000
0001
1000
0001
0000
0000
0010
,
0000
0010
0000
0010
0100
0000
1000
0001
,
1001
1001
0110
0110
,
2002
0000
0000
3003
,
1000
0010
0100
0001
,
1000
0100
0010
0011
,
1001
0010
1000
0001
,
1010
0100
0110
1001
,
0010
1000
0010
0000
0100
0000
0100
0000
,
0001
0010
0001
0000
0100
0000
0100
0000
,
1100
0101
1010
0011
,
0120
0000
0100
0030
,
1000
0000
0100
0000
0010
0001
0010
0000
,
0100
0000
1000
0000
0010
1000
0010
0000
,
1001
0110
0100
0001
,
1000
0000
0100
0000
0010
0100
0010
0000
,
0001
0000
1000
0000
0010
1000
0001
0000
,
0100
0000
0001
0000
1000
0100
1000
0000
,
1001
0110
0100
1000
,
0002
0000
0000
0000
2000
0000
0000
3003
,
0010
1000
0001
0100
,
0010
0000
1000
0100
0000
1000
0100
0000
,
0010
0001
1000
0010
,
0100
0000
0001
0010
0001
0000
0010
0000
,
0100
1000
0010
1000
,
0001
0000
0100
0001
0000
0100
0001
0000
,
1000
0010
0100
0001
,
0020
0000
0200
0330
,
1000
0100
0010
0001
,
1000
0010
1000
0000
0001
0000
0010
0000
,
0010
0000
0100
0000
1000
0001
0000
0100
,
0010
0100
0000
0001
1000
0000
0110
0000
,
0001
0000
0100
0000
0000
0010
0000
0010
,
1000
0001
1000
0000
0001
0000
1000
0000
,
0100
0010
0001
1000
,
0020
0000
0000
0000
0000
0030
0000
0000
,
2001
0000
3000
0010
,
0210
0000
0300
0001
,
0102
0000
0003
1000
,
0100
0000
0000
0100
0000
0000
0100
0000
0000
0000
0000
0000
0001
0000
0000
0000
,
0012
0000
0003
1000
,
2010
0000
3000
0100
,
0100
0010
0000
0001
0000
1000
0000
0020
,
0000
0000
0000
0030
,
0002
0000
0000
0003
,
2000
0000
0000
3000
,
0010
0000
0100
0001
0000
1000
0000
0100
,
0000
0010
0000
0002
0000
0000
0003
0000
,
1000
0010
1000
0000
0001
0000
0000
0000
,
0001
0010
0001
0000
1000
0000
0000
0000
,
0100
0010
0100
0000
1000
0001
1000
0000
,
1010
0101
0011
1100
,
2002
0000
0000
3003
,
0020
0000
0000
0000
0200
0000
0000
0330
,
0001
0100
0010
1000
,
0001
1000
0100
0010
,
0001
1000
0010
0100
,
0001
1000
0001
0000
0010
0100
0010
0000
,
0011
0000
1000
0010
,
1010
0000
1001
0010
,
1100
0101
1010
0011
,
2002
0000
0000
3003
,
0001
1000
0100
0000
1000
0000
0001
0000
,
1000
0001
0100
0000
0001
0000
1000
0000
,
0010
1000
0001
0000
1000
0000
0100
0000
,
0010
0001
1000
0000
0010
0000
1000
0000
,
0002
0000
0000
0003
0010
0000
0100
0000
,
2000
0000
0000
3001
0000
0000
0110
0000
,
1000
0100
0010
0000
0001
0100
0010
0000
,
0200
0000
0020
0330
,
2002
0000
0000
0000
,
0000
0000
0000
0000
,
3003
0000
0000
0000
;

//---------------dance-double - ----------------
#NOTES:
     dance-double:
     :
     Hard:
     8:
     0.559630,0.618951,0.331828,0.175131,0.000000,425.000000,389.000000,36.000000,19.000000,0.000000,0.000000,0.559630,0.618951,0.331828,0.175131,0.000000,425.000000,389.000000,36.000000,19.000000,0.000000,0.000000:
00000000
00000000
00000000
00000000
,
00000000
00000000
00000000
00000000
,
00011000
00000000
00011000
00000000
,
00000010
00001000
00000001
00000000
00000010
00000001
00001000
00000010
,
00010000
00001000
01000000
00001000
00010000
00000000
00011000
00000000
,
00100000
00010000
01000000
00100000
10000000
00010000
00000000
01000000
,
00100000
01000000
00000000
00001000
00010000
00000000
00011000
00000000
,
00000000
00000000
00001010
00000000
00000011
00000000
00000000
00001001
,
00000000
00000011
00000000
00000100
00001000
00000000
00000010
00000000
,
00010000
00001000
00100000
00010000
10000000
00100000
01000000
00010000
,
00200000
00000000
00002000
00303000
,
00010000
00010000
00000100
00000100
,
00001000
00000001
00000010
00000100
,
00010100
00011000
00001000
01000000
,
01100000
00100000
10100000
10010000
,
00010000
10000000
00100000
00000000
01000000
00001000
00010000
00000000
,
00001000
00010000
00000010
00000000
00001000
00000001
00000100
00000000
,
00000001
00000010
00001000
00010000
00100000
10000000
00010000
00000000
,
10100000
01010000
10010000
00000000
,
10000000
00100000
01000000
00010000
00000000
00100000
00001000
00010000
,
00000010
00000000
00010000
00001000
00000000
00000100
00000001
00000000
,
00000011
00000000
00001100
00000000
00000010
00000100
00010000
00000100
,
00000010
00000000
00000001
00000100
00000000
00000010
00001000
00000000
,
00000001
00000010
00000100
00001000
00000000
00000010
00010000
00001000
,
00100000
00000000
00001000
00010000
00000000
01000000
10000000
00000000
,
10100000
00000000
01010000
00000000
00100000
00100000
01000000
01000000
,
01100000
00000000
10010000
00000000
,
00010000
01000000
00001000
00100000
01000000
10000000
01000000
00010000
,
00001000
00010000
00000010
00010000
00001000
00000100
00000001
00000000
,
00001000
00000010
00001000
00000001
00000100
00000010
00010000
00001000
,
00100000
00010000
10000000
01000000
00010000
01000000
10000000
00000000
,
00010000
10000000
00100000
10000000
00010000
01000000
00001000
00010000
,
00000100
00000010
00000001
00000100
00000010
00001000
00000001
00000000
,
00001010
00000000
00000101
00010010
,
00022000
00000000
00000000
00033000
,
00100000
00010000
10000000
00000000
00100000
10000000
00010000
00100000
,
00001000
00010000
00000100
00010000
00001000
00000000
00011000
00000000
,
00000010
00001000
00000100
00000010
00000001
00001000
00000000
00000100
,
00000010
00000100
00000000
00010000
00001000
00000000
00011000
00000000
,
00100000
01000000
00100000
00000000
00010000
10000000
01000000
00010000
,
00001000
00100000
01000000
10000000
00100000
00000000
01001000
00000000
,
00010000
00000100
00010000
00000100
00001000
00000001
00001000
00000001
,
00002002
00000000
00003000
00000000
,
00000200
00000000
00000003
00000000
,
00002000
00000000
00000300
00000000
,
00020000
00000000
00003000
00000000
,
02030000
00000000
23000000
00000000
,
00200000
00000000
30000000
00000000
,
00020000
00000000
00300000
00000000
,
00031000
00000100
00001000
00000100
00000001
00000100
00000001
00000010
,
00000001
00000010
00001000
00000010
00001000
00010000
00001000
00010000
,
02000000
00000000
00000000
00000000
,
23000000
00000000
00000000
00000000
,
30200000
00000000
00000000
00000000
,
00000000
00000000
00000000
00000000
00000000
00310000
00000000
00000000
,
00001000
01000000
00001000
00100000
00001000
01000000
00001000
00000000
,
00010000
00000100
00010000
00000010
00010000
00000100
00010000
00000000
,
00001000
00000010
00000001
00000100
00000010
00001000
00000010
00010000
,
00001000
01000000
00100000
10000000
01000000
00010000
00001000
01000000
,
00020000
00000000
00000000
00030000
,
10010000
00000000
01100000
00000000
,
10000000
00010000
01000000
00100000
10000000
00010000
00100000
00001000
,
00010000
00000100
00000010
00000001
00000100
00000010
00001000
00000000
,
00000001
00000100
00000010
00010000
00001000
00010000
00000100
00010000
,
00001000
00100000
00010000
10000000
01000000
00010000
01000000
10000000
,
00000000
00100000
01000000
00000000
00010000
00100000
00010000
10000000
,
01000000
00010000
00001000
00000100
00000001
00000000
00001001
00000000
,
00000010
00000001
00000010
00000100
00001000
00000010
00010000
00001000
,
00100000
01100000
10010000
00000000
,
10000000
00010000
00100000
01000000
10000000
00010000
01000000
00001000
,
00010000
00000010
00000100
00000001
00000010
00000100
00001000
00000000
,
00000001
00000010
00000100
00010000
00001000
00010000
00000010
00010000
,
00001000
01000000
00010000
10000000
00100000
00000000
10010000
00000000
,
01000000
00100000
01000000
00010000
10000000
00100000
00010000
00001000
,
01000000
00001000
00010000
00001000
00000100
00000001
00000010
00000000
,
00000001
00000100
00000010
00000100
00000001
00001000
00000100
00010000
,
00002000
00000000
00000000
00000000
,
00020000
00000000
00000000
00000000
,
00000000
00000000
00000000
00000000
,
00033000
00000000
00000000
00000000
;

//---------------dance-double - ----------------
#NOTES:
     dance-double:
     :
     Medium:
     6:
     0.425319,0.582542,0.304175,0.230436,0.000000,323.000000,290.000000,33.000000,25.000000,0.000000,0.000000,0.425319,0.582542,0.304175,0.230436,0.000000,323.000000,290.000000,33.000000,25.000000,0.000000,0.000000:
00000000
00000000
00000000
00000000
,
00000000
00000000
00000000
00000000
,
00011000
00000000
00011000
00000000
,
01000000
00100000
01000000
00000000
00010000
00000000
10000000
00100000
,
10000000
00000000
00010000
00000000
01000000
00000000
00001000
00010000
,
00001000
00000000
00010000
00000000
00000010
00001000
00000000
00000001
,
00000100
00000010
00000000
00010000
00001000
00000000
00011000
00000000
,
00000000
00000000
01000000
00000000
01000000
00000000
00000000
00010000
,
00000000
00010000
00000000
00010000
10000000
00000000
01100000
00000000
,
00010000
00001000
00010000
00000000
00000100
00000010
00000100
00000000
,
00002002
00000000
00000000
00003003
,
00000001
00000010
00000001
00001000
,
00000010
00010000
00001000
01001000
,
01010000
10000000
00100000
01000000
,
01001000
00001000
00011000
00010010
,
00001000
00000000
00000001
00000100
00000001
00000000
00001000
00000000
,
00000100
00000000
00010000
00001000
00010000
00000000
00001000
00000000
,
00100000
00010000
00100000
00010000
10000000
00000000
01100000
00000000
,
00010000
00010000
00010000
00000000
,
10000000
00000000
01000000
00000000
00100000
00010000
00100000
00000000
,
00001000
00000000
00010000
00000000
00000100
00000010
00000100
00000000
,
00001000
00000000
00000001
00000000
00000010
00000100
00000010
00000100
,
00010000
00011000
01001000
01010000
,
10000000
00000000
00100000
00000000
01000000
00010000
01000000
00000000
,
00001000
00000000
00010000
00000000
00000010
00000100
00000010
00000000
,
00001000
00000000
00000001
00000000
00000100
00000010
00000100
00000010
,
00020000
00000000
00002000
00033000
,
00100000
00000000
00010000
01000000
00010000
00000000
10000000
00000000
,
01000000
00000000
00010000
00000000
00001000
00000000
00000100
00000001
,
00000100
00000001
00000010
00000100
,
00010000
00001000
00200000
00300000
,
00010000
00010000
10000000
10000000
,
00100000
00000000
01000000
00000000
00001000
00010000
00001000
00000000
,
00010000
00000100
00000010
00000001
,
00002002
00000000
00000000
00003003
,
00000100
00000010
00000100
00000000
00001000
00000000
00000001
00000010
,
00000001
00000000
00001000
00000000
00000100
00000000
00010000
00001000
,
00010000
00000000
00001000
00000000
00100000
00010000
00000000
10000000
,
01000000
00100000
00000000
00001000
00010000
00000000
00011000
00000000
,
00000100
00000000
00000100
00000000
00000001
00000010
00000001
00000000
,
00001000
00000100
00000010
00000110
,
00001000
00010000
00001000
00000000
01000000
00100000
01000000
00000000
,
20020000
00000000
00000000
30030000
,
02000000
00000000
00000000
00000000
,
03002000
00000000
00000000
00000000
,
00023000
00000000
00000000
00000000
,
00030010
00000010
00000100
00000100
,
00001002
00000000
00000000
00000003
,
00002000
00000000
00000000
00003000
,
00000100
00010000
00001000
00100000
,
02000000
00000000
00000000
03000000
,
20010000
00000000
00000000
00000000
,
30020000
00000000
00000000
00000000
,
00230000
00000000
00000000
00000000
,
00302000
00000000
00000000
00000000
00000000
00013000
00000000
00000000
,
00000100
00010000
00000100
00010000
00000100
00000000
00011000
00000000
,
01000000
00001000
01000000
00001000
01000000
00000000
00011000
00000000
,
00010000
00001000
00010000
00000000
00000010
00000100
00000010
00000000
,
00001001
00000101
00001010
00010100
,
00022000
00000000
00000000
00033000
,
00200000
00000000
02000000
03300000
,
10000000
00010000
01000000
00100000
,
10000000
00010000
00100000
00001000
,
00010000
00000100
00010000
00000010
,
00001000
00000001
00001000
00000000
00000010
00000100
00000010
00000000
,
00000000
00001001
00000100
00000010
,
00000001
00001000
00000010
00010000
,
00001000
00000000
01000000
00000000
00001000
00100000
00001000
00100000
,
00010000
10000000
10000000
00000000
,
00010000
00000000
10000000
00000000
01000000
00100000
01000000
00000000
,
00100000
00000000
00001000
00000000
00010000
00000100
00010000
00000000
,
00000010
00000000
00001000
00000000
00000001
00000100
00000001
00000000
,
00001000
00000001
00001001
00000000
,
00001000
00000000
00000001
00000000
00000100
00000010
00000100
00000000
,
00001000
00000000
00010000
00001000
00000000
01000000
00010000
00000000
,
10010000
11000000
00110000
01001000
,
00020000
00000000
00000000
00000000
,
00002000
00000000
00000000
00000000
,
00000000
00000000
00000000
00000000
,
00033000
00000000
00000000
00000000
;

//---------------dance-double - ----------------
#NOTES:
     dance-double:
     :
     Easy:
     3:
     0.268623,0.364089,0.138262,0.147479,0.000000,204.000000,189.000000,15.000000,16.000000,0.000000,0.000000,0.268623,0.364089,0.138262,0.147479,0.000000,204.000000,189.000000,15.000000,16.000000,0.000000,0.000000:
00000000
00000000
00000000
00000000
,
00000000
00000000
00000000
00000000
,
00011000
00000000
00011000
00000000
,
00000010
00000001
00000010
00000000
,
00000100
00010000
00010000
00001000
,
00000000
00100000
00010000
10000000
,
00100000
00000000
01000000
00010000
,
00000000
00100000
00001000
00000000
,
00010000
00000000
00000010
00000000
,
00001000
00000100
00010000
00001000
,
02000000
00000000
00000000
03000000
,
00010000
00010000
01000000
00000000
,
00001000
00001000
00010000
00000000
,
00000100
00000100
00000010
00000000
,
00001001
00000000
00000010
00000010
,
00000001
00000000
00000101
00000000
,
00010010
00000000
00001000
00001000
,
00100000
00010000
10000000
00100000
,
02000000
00000000
00000000
03000000
,
01001000
00000000
00001000
00000000
,
00010000
00010000
00010000
00000000
,
00000010
00001000
00000001
00000000
,
00000010
00000010
00000010
00000000
,
00010100
00000000
00010000
00000000
,
00001000
00001000
00001000
00000000
,
00100000
00010000
10000000
01000000
,
00100000
00000000
10010000
00000000
,
00100000
00100000
10000000
10000000
,
00010000
00000000
00100000
00000000
,
00001000
00001000
00010000
00010000
,
00000100
00000000
00000010
00000000
,
00000001
00000001
00001000
00001000
,
00000100
00000000
00010000
00000000
,
00011000
00000000
01001000
00000000
,
20020000
00000000
00000000
30030000
,
00100000
10000000
00100000
00000000
,
01000000
00001000
00001000
00010000
,
00000000
00000010
00001000
00000001
,
00000010
00000000
00000100
00010000
,
00001000
01000000
00000000
00100000
,
10000000
10000000
00010000
00010000
,
01000000
00000000
00001000
00000000
,
00022000
00000000
00000000
00033000
,
00200000
00000000
00000000
00000000
,
00302000
00000000
00000000
00000000
,
00023000
00000000
00000000
00000000
,
00030200
00000000
00000000
00000000
,
00000320
00000000
00000000
00000000
,
00000032
00000000
00000000
00000000
,
00002003
00000000
00000000
00000000
,
00003200
00000000
00000000
00000000
,
00010300
00000000
00000000
00000000
,
00001000
00000000
00000000
00000000
,
01000000
00000000
00000000
00000000
,
00100000
00000000
00000000
00000000
,
10000000
10000000
10000000
00000000
,
00010000
00010000
00010000
00000000
,
00001000
00001000
00000001
00000001
,
00001000
00001000
00000001
00000001
,
00001001
00000000
00000000
00000000
,
00000011
00000000
00001100
00000000
,
00000010
00000001
00000010
00000000
,
00000100
00001000
00000100
00000000
,
00010000
00001000
00010000
00000000
,
01000000
00100000
01000000
00000000
,
10000000
00010000
01000000
00000000
,
00010000
10000000
01000000
00000000
,
00100000
00100000
00001000
00000000
,
00010000
00010000
00000100
00000000
,
00000010
00000001
00000010
00000000
,
00000100
00001000
00000100
00000000
,
00010000
00001000
00010000
00000000
,
01000000
00100000
01000000
00000000
,
10000000
00010000
01000000
00000000
,
00010000
10000000
01000000
00000000
,
00100000
00100000
00001000
00001000
,
00020000
00000000
00000000
00000000
,
00002000
00000000
00000000
00000000
,
00000000
00000000
00000000
00000000
,
00033000
00000000
00000000
00000000
;

//---------------dance-single - ----------------
#NOTES:
     dance-single:
     :
     Challenge:
     10:
     0.799284,1.088810,0.341045,0.073740,0.737395,607.000000,570.000000,37.000000,8.000000,0.000000,0.000000,0.799284,1.088810,0.341045,0.073740,0.737395,607.000000,570.000000,37.000000,8.000000,0.000000,0.000000:
0000
0000
0000
0000
,
0000
0000
0000
0000
,
1001
0000
1001
0000
,
0100
0000
1000
0000
0001
0000
0000
0000
0100
0000
0001
0000
0000
0000
0100
0010
,
1000
0000
0100
0000
0001
0000
0100
0000
1000
0000
0000
0000
0010
0100
0010
0100
,
0010
1000
0001
0010
0100
1000
0000
0010
,
0100
0001
0000
1000
0001
0000
1001
0000
,
0000
0000
0110
0000
1001
0000
0000
0011
,
0000
0000
0110
0000
0000
0000
1100
0000
1001
0000
0000
0000
0010
0001
0010
0001
,
1000
0000
0010
1000
0001
0000
0010
0001
0010
0001
0100
0010
0100
0010
1000
0100
,
0020
0000
0030
0000
,
1001
0001
0001
0001
,
0100
0100
0100
0110
,
1001
1000
1000
1000
,
1010
0010
0110
1001
,
1000
0000
0100
0000
0010
0000
0001
0100
0001
0000
0010
0000
0100
0000
1000
0010
,
1000
0000
0100
0000
0010
0000
0001
0000
0100
0000
0010
0000
1000
0001
1000
0000
,
0001
0000
0100
0000
1000
0000
0100
0000
0001
0010
0001
1000
0010
1000
0001
0010
,
0100
0000
0000
0000
0110
0000
0000
0000
1001
0000
0000
0000
1000
0100
0010
0001
,
1000
0000
0001
0100
0000
1000
0100
0001
,
0010
0001
0100
0010
1000
0100
0001
0000
,
0110
0000
1001
0000
0001
0100
1000
0100
,
0001
0010
0100
1000
0010
0100
0001
0000
,
1001
0000
1000
0100
0000
0001
0100
1000
,
1010
0000
0010
0100
0101
0000
1001
0000
,
0011
0000
1100
0000
0010
0010
0100
0100
,
0110
0000
1001
0000
,
0001
0010
0100
1000
0001
0100
1000
0100
,
0010
1000
0100
0001
1000
0010
0001
0000
,
1000
0010
1000
0001
0010
1000
0010
0100
,
1000
0001
0100
1000
0001
0010
1000
0000
,
0001
0000
0010
0000
0001
0000
1000
0010
1000
0000
0001
0000
0100
0000
0010
1000
,
0010
1000
0100
0010
0001
0100
0010
1000
,
0001
0100
0001
0100
0010
1000
0010
1000
0100
0010
0100
0010
0001
1000
0001
1000
,
0020
0000
0000
0030
,
0100
0000
0001
0000
1000
0000
0000
0000
0100
0000
1000
0000
0000
0000
0100
0010
,
0001
0000
0100
0000
1000
0000
0100
0000
0001
0000
0000
0000
0010
0100
0010
0100
,
0010
0001
1000
0010
0100
0001
0000
0010
,
0100
1000
0000
0001
1000
0000
1001
0000
,
0001
0000
0100
0000
0010
0000
1000
0100
1000
0000
0010
0000
0100
0000
0001
0010
,
0001
0000
0100
0000
0010
0000
1000
0000
0100
0000
0010
0000
0001
1000
0001
1000
,
0001
0000
0100
0000
0010
0000
1000
0000
0001
0100
0001
1000
0100
0010
0001
0100
,
0020
0000
0000
0030
,
1000
0000
0001
0000
1000
0001
0000
0000
0100
0010
0000
0000
1000
0000
0000
0000
,
0001
0000
1000
0000
0001
1000
0000
0000
0100
0010
0000
0000
0001
0000
0000
0000
,
0010
0000
0100
0000
0010
0100
0000
0000
1000
0001
0000
0000
1000
0000
0000
0000
,
0010
0000
0010
1000
0000
1000
0100
0000
0100
0010
0000
0000
1001
0000
0000
0000
,
0001
0000
0010
0001
0000
0010
0001
0000
0100
0010
0000
0000
1000
0000
0000
0000
,
1000
0000
0010
1000
0000
0010
1000
0000
0100
0010
0000
0000
0001
0000
0000
0000
,
0100
0010
1000
0100
0010
0001
0100
0010
,
1000
0010
1000
0010
0100
0001
0100
0001
1000
0100
1000
0100
0010
0001
0010
0001
,
2000
0000
0000
0000
,
3002
0000
0000
0000
,
0203
0000
0000
0000
,
0000
0000
0000
0000
0000
0310
0000
0000
,
1000
0001
1000
0010
1000
0001
1000
0010
1000
0001
1000
0010
1000
0000
0000
0000
,
0001
1000
0001
0010
0001
1000
0001
0010
0001
1000
0001
0010
0001
0000
0000
0000
,
0010
0001
1000
0001
0010
0001
1000
0001
0100
0010
1000
0001
0010
0100
1000
0010
,
0100
0000
0000
0000
1001
0000
0000
0000
0001
0010
0100
1000
0100
0010
0001
0100
,
0010
0000
0000
0000
,
0110
0000
1001
0000
,
0010
0000
0001
0100
0000
0010
0000
0000
1000
0100
0000
0010
0001
0010
0100
0010
,
0001
0000
1000
0100
0000
0010
0000
0000
0100
1000
0100
0010
0001
1000
0010
0100
,
0000
0000
0001
0010
0000
0001
1000
0000
0010
0100
0010
0000
1000
0100
0010
0001
,
0010
0000
0001
0100
0000
0001
0010
0000
0001
1000
0100
1000
0001
0100
0010
1000
,
0100
0000
0010
0001
0000
0001
0100
0000
0100
0010
0000
0000
1000
0001
0100
0000
,
0010
0000
1000
0100
0000
0010
0001
0000
0100
0010
1000
0001
0000
1000
0100
0010
,
0001
0000
0001
0100
0000
0100
0010
0000
0110
0000
0101
0000
1001
0000
1010
0000
,
0110
0100
0100
0000
,
0010
0000
1000
0100
0000
0010
0000
0000
0001
0100
0000
0010
1000
0010
0100
0010
,
1000
0000
0001
0100
0000
0010
0000
0000
0100
0001
0100
0010
1000
0001
0010
0100
,
0000
0000
1000
0010
0000
1000
0001
0000
0010
0100
0010
0000
0001
0100
0010
1000
,
0010
0000
1000
0100
0000
1000
0010
0000
1000
0001
0100
0001
1000
0100
0010
0001
,
0100
0000
0010
1000
0000
1000
0100
0000
0100
0010
0000
0000
0001
1000
0100
0000
,
0010
0000
0001
0000
0100
0010
1000
0001
0000
0100
0000
0010
1000
0000
0000
0000
,
0001
0000
0001
0010
0000
0010
0100
0000
1000
0010
0100
0001
0010
0100
1000
0010
,
0200
0000
0000
0000
,
0020
0000
0000
0000
,
0000
0000
0000
0330
;

//---------------dance-double - ----------------
#NOTES:
     dance-double:
     :
     Challenge:
     10:
     0.755830,0.983040,0.267306,0.110609,0.566873,574.000000,545.000000,29.000000,12.000000,0.000000,0.000000,0.755830,0.983040,0.267306,0.110609,0.566873,574.000000,545.000000,29.000000,12.000000,0.000000,0.000000:
// measure 0
00000000
00000000
00000000
00000000
,  // measure 1
00000000
00000000
00000000
00000000
,  // measure 2
00011000
00000000
00011000
00000000
,  // measure 3
01000000
00000000
00010000
00000000
10000000
00000000
00000000
00000000
01000000
00000000
00010000
00000000
00000000
00000000
00001000
00010000
,  // measure 4
00001000
00000000
00000100
00000000
00000001
00000000
00000100
00000000
00000010
00000000
00000000
00000000
00001000
00000001
00001000
00000000
,  // measure 5
00000100
00000010
00001000
00010000
01000000
10000000
00100000
00010000
,  // measure 6
00001000
00000010
00000001
00001000
00000010
00000000
00000100
00001000
,  // measure 7
00000000
00000000
00011000
00000000
00110000
00000000
00000000
00011000
,  // measure 8
00000000
00001100
00000000
00000101
00001001
00000000
00000010
00000001
,  // measure 9
00000100
00001000
00010000
01000000
10000000
00100000
01000000
00010000
,  // measure 10
00002000
00000000
00000002
00003003
,  // measure 11
00000011
00000010
00000010
00000010
,  // measure 12
00001010
00001000
00001000
00011000
,  // measure 13
01010000
01000000
01000000
01000000
,  // measure 14
11000000
10000000
10010000
10010000
,  // measure 15
00100000
00000000
10000000
00000000
01000000
00000000
00010000
00001000
00010000
00000000
00100000
00000000
00010000
00000000
00001000
00010000
,  // measure 16
00001000
00000000
00000010
00000000
00001000
00000000
00010000
00001000
00010000
00000000
00001000
00000000
00000100
00000000
00000001
00000000
,  // measure 17
00000010
00000000
00000010
00000000
00000100
00000000
00000100
00000000
00001000
00000100
00010000
00000100
00010000
00001000
00100000
00001000
,  // measure 18
00100000
00000000
00000000
00000000
00110000
00000000
00000000
00000000
10010000
00000000
00000000
00000000
10000000
01000000
00100000
00010000
,  // measure 19
10000000
01000000
00010000
00001000
00000000
00000010
00000001
00000010
,  // measure 20
00000100
00000001
00000100
00001000
00000010
00010000
00001000
00000000
,  // measure 21
00000110
00000000
00001001
00000000
00000001
00000010
00000100
00000010
,  // measure 22
00000001
00000100
00001000
00010000
01000000
10000000
00010000
00000000
,  // measure 23
10000000
00100000
00010000
00001000
00000000
00000100
00000001
00000100
,  // measure 24
00000010
00000001
00000010
00001000
00000100
00010000
00001000
00000000
,  // measure 25
00000110
00000000
00001001
00000000
00000001
00000010
00000100
00001000
,  // measure 26
00020000
00000000
20000000
30030000
,  // measure 27
00100000
10000000
01000000
00010000
00000100
00000010
00000001
00000100
,  // measure 28
00010000
00001000
00000010
00000100
00001000
00010000
00100000
10000000
,  // measure 29
00010000
01000000
00100000
10000000
01000000
00001000
00010000
00100000
,  // measure 30
00010000
01000000
00001000
00010000
00000100
00000010
00000001
00000000
,  // measure 31
00000010
00000001
00000100
00001000
01000000
00100000
10000000
01000000
,  // measure 32
00001000
00010000
00100000
01000000
00010000
00001000
00000010
00000001
,  // measure 33
00001000
00000100
00010000
00100000
10000000
00010000
00001000
00000100
,  // measure 34
00000020
00000000
00000000
00000030
,  // measure 35
00000100
00000000
00001000
00000000
00000001
00000000
00000000
00000000
00000100
00000000
00001000
00000000
00000000
00000000
00010000
00001000
,  // measure 36
00010000
00000000
01000000
00000000
10000000
00000000
01000000
00000000
00100000
00000000
00000000
00000000
00010000
10000000
00010000
00000000
,  // measure 37
01000000
00100000
00010000
00001000
00000100
00000001
00000010
00001000
,  // measure 38
00010000
00100000
10000000
00010000
00100000
00000000
10010000
00000000
,  // measure 39
01000000
00000000
00010000
00000000
10000000
00000000
00000000
00000000
01000000
00000000
00010000
00000000
00000000
00000000
00001000
00010000
,  // measure 40
00001000
00000000
00000100
00000000
00000001
00000000
00000100
00000000
00001000
00000000
00000000
00000000
00010000
00001000
00010000
00001000
,  // measure 41
00010000
00100000
10000000
01000000
00010000
00001000
00000100
00000001
,  // measure 42
00002000
00000000
00000000
00003000
,  // measure 43
00000001
00000000
00000100
00000000
00000001
00000100
00000000
00000000
00001000
00010000
00000000
00001000
00010000
00000000
00100000
00000000
,  // measure 44
10000000
00000000
01000000
00000000
10000000
01000000
00000000
00000000
00010000
00001000
00000000
00010000
00001000
00000000
00000100
00000000
,  // measure 45
00000001
00000000
00000010
00000000
00000001
00000010
00000000
00000000
00001000
00010000
00000000
00001000
00010000
00000000
01000000
00000000
,  // measure 46
10000000
00000000
00100000
00000000
10000000
00100000
00000000
00000000
01100000
00000000
00000000
00000000
10010000
00000000
00000000
00000000
,  // measure 47
10000000
00000000
01000000
00000000
10000000
01000000
00000000
01000000
00010000
00000000
00010000
00001000
00000000
00000000
00000010
00000000
,  // measure 48
00000001
00000000
00000100
00000000
00000001
00000100
00000000
00000100
00001000
00000000
00001000
00010000
00000000
00000000
01000000
00000000
,  // measure 49
10000000
00100000
00010000
00001000
00000010
00000001
00000100
00000010
,  // measure 50
00001000
00000100
00001000
00000100
00010000
00001000
00010000
00001000
01000000
00100000
01000000
00100000
10000000
00010000
10000000
00010000
,  // measure 51
00200000
00000000
00000000
00000000
,  // measure 52
00302000
00000000
00000000
00000000
,  // measure 53
00003020
00000000
00000000
00000000
,  // measure 54
00000000
00000000
00000000
00000000
00000000
00000130
00000000
00000000
,  // measure 55
00010000
00000010
00001000
00000010
00010000
00000010
00001000
00000010
00010000
00000010
00001000
00000010
00010000
00000000
00000000
00000000
,  // measure 56
00001000
00100000
00010000
00100000
00001000
00100000
00010000
00100000
00001000
00100000
00010000
00100000
00001000
00000000
00000000
00000000
,  // measure 57
00010000
00000000
01000000
00000000
10000000
00000000
00010000
00000000
00100000
00001000
00100000
00001000
00010000
00000100
00010000
00000100
,  // measure 58
00001000
00000000
00000001
00000000
00000010
00000000
00001000
00000000
00100000
00010000
10000000
00100000
01000000
00010000
00100000
01000000
,  // measure 59
20000000
00000000
00000000
00000000
,  // measure 60
30010000
00000000
00001000
00000000
,  // measure 61
00000001
00000000
00000100
00000010
00000000
00001000
00000000
00000000
00000100
00010000
00000000
00001000
00100000
00001000
00010000
00000000
,  // measure 62
00100000
00000000
10000000
01000000
00000000
01000000
00100000
00000000
01000000
00000000
10000000
00010000
00000000
00010000
01000000
00100000
,  // measure 63
00000000
00000000
10000000
01000000
00000000
01000000
00010000
00000000
00010000
00001000
00000000
00000010
00000001
00000100
00000010
00000000
,  // measure 64
00001000
00000000
00000001
00000100
00000000
00000100
00000010
00000000
00001000
00000100
00001000
00000100
00010000
00001000
00010000
00001000
,  // measure 65
01000000
00000000
01000000
00100000
00000000
10000000
01000000
00000000
00010000
00001000
00000000
00000000
00100000
00010000
00100000
00000000
,  // measure 66
00001000
00000000
00010000
00000100
00000000
00000100
00000010
00000000
00000110
00000000
00000000
00000000
00001001
00000000
00000000
00000000
,  // measure 67
00000001
00000000
00000010
00000100
00000000
00000100
00001000
00000000
00010000
00000000
00100000
00000000
01000000
00000000
10000000
00000000
,  // measure 68
10010000
01100000
10010000
00000000
,  // measure 69
10000000
00000000
01000000
00100000
00000000
00010000
00000000
00000000
01000000
00001000
00000000
00010000
00000010
00010000
00001000
00000000
,  // measure 70
00000010
00000000
00000001
00000100
00000000
00000100
00000010
00000000
00000100
00000000
00000001
00001000
00000000
00001000
00000100
00000010
,  // measure 71
00000000
00000000
00000001
00000100
00000000
00000100
00001000
00000000
00001000
00010000
00000000
00100000
10000000
01000000
00100000
00000000
,  // measure 72
00010000
00000000
10000000
01000000
00000000
01000000
00100000
00000000
00010000
01000000
00010000
01000000
00001000
00010000
00001000
00010000
,  // measure 73
00000100
00000000
00000100
00000010
00000000
00000001
00000100
00000000
00001000
00010000
00000000
00000000
00000010
00001000
00000010
00000000
,  // measure 74
00010000
00000000
00001000
01000000
00000000
00100000
10000000
01000000
00000000
00100000
00000000
00010000
10000000
00000000
00000000
00000000
,  // measure 75
01000000
00000000
00010000
00000000
00001000
00000000
00000100
00000000
00000001
00000010
00000001
00001000
00000010
00000100
00000001
00000010
,  // measure 76
00000200
00000000
00000000
00000000
,  // measure 77
00000020
00000000
00000000
00000000
,  // measure 78
00000000
00000000
00000000
00000000
,  // measure 79
00000330
00000000
00000000
00000000
;
