#TITLE:He's A Pirate;
#SUBTITLE:;
#ARTIST:F-777;
#TITLETRANSLIT:;
#SUBTITLETRANSLIT:;
#ARTISTTRANSLIT:;
#GENRE:;
#CREDIT:;
#BANNER:He's A Pirate.png;
#BACKGROUND:He's A Pirate-bg.png;
#LYRICSPATH:;
#CDTITLE:;
#MUSIC:He's A Pirate.ogg;
#OFFSET:0.008000;
#SAMPLESTART:28.792000;
#SAMPLELENGTH:19.200001;
#SELECTABLE:YES;
#BPMS:0.000000=150.000000
;
#STOPS:
;
#BGCHANGES:;
#KEYSOUNDS:;
#ATTACKS:;

//---------------dance-single - ----------------
#NOTES:
     dance-single:
     :
     Beginner:
     2:
     0.111067,0.172873,0.064027,0.000000,0.000000,85.000000,78.000000,7.000000,0.000000,0.000000,0.000000,0.111067,0.172873,0.064027,0.000000,0.000000,85.000000,78.000000,7.000000,0.000000,0.000000,0.000000:
0000
0000
0000
0000
,
0000
0000
0000
0000
,
0000
0000
0000
0000
,
0000
0000
0000
0000
,
0000
0000
0000
0000
,
0001
0000
0001
0000
,
0001
0000
0000
0000
,
1000
0000
1000
0000
,
1000
0000
0000
0000
,
1001
0000
0100
0000
,
0010
0000
0000
0000
,
0001
0000
1000
0000
,
0010
0000
0000
0000
,
0100
0000
0010
0000
,
1000
0000
0000
0000
,
0001
0000
0010
0000
,
0100
0000
0000
0000
,
0110
0000
0000
0000
,
1001
0000
0001
0000
,
0100
0000
0000
0000
,
0010
0000
1000
0000
,
0100
0000
0000
0000
,
0010
0000
0001
0000
,
1000
0000
0000
0000
,
0010
0000
0100
0000
,
0001
0000
0000
0000
,
1001
0000
0100
0000
,
1000
0000
0000
0000
,
0001
0000
0010
0000
,
0001
0000
0000
0000
,
0100
0000
0010
0000
,
0100
0000
0000
0000
,
0001
0000
0010
0000
,
0100
0000
0000
0000
,
0110
0000
0000
0000
,
0100
0000
0000
0000
,
1000
0000
0000
0000
,
0001
0000
0000
0000
,
0100
0000
0000
0000
,
0010
0000
0000
0000
,
1000
0000
0000
0000
,
0001
0000
0000
0000
,
0010
0000
0000
0000
,
0100
0000
0000
0000
,
1000
0000
0000
0000
,
0001
0000
0000
0000
,
0010
0000
0000
0000
,
0100
0000
0000
0000
,
1000
0000
0000
0000
,
0001
0000
0001
0000
,
0001
0000
0000
0000
,
0100
0000
0000
0000
,
0010
0000
0000
0000
,
1000
0000
0000
0000
,
0001
0000
0000
0000
,
1001
0000
0001
0000
,
0100
0000
0000
0000
,
0010
0000
1000
0000
,
0100
0000
0000
0000
,
0010
0000
0001
0000
,
1000
0000
0000
0000
,
0100
0000
1000
0000
,
0010
0000
0000
0000
,
0110
0000
0000
0000
;

//---------------dance-single - ----------------
#NOTES:
     dance-single:
     :
     Easy:
     4:
     0.248268,0.316933,0.137201,0.036587,0.000000,190.000000,175.000000,15.000000,4.000000,0.000000,0.000000,0.248268,0.316933,0.137201,0.036587,0.000000,190.000000,175.000000,15.000000,4.000000,0.000000,0.000000:
0000
0000
0000
0000
,
0000
0000
0000
0000
,
0000
0000
0000
0000
,
0000
0000
0000
0000
,
0000
0000
0000
0000
,
1000
0000
0001
0000
,
0100
0000
0010
0000
,
1000
0000
0001
0000
,
0010
0000
0100
0000
,
1000
0100
1000
0001
,
0100
0010
0100
0110
,
0010
1000
0001
1000
,
0100
0010
0001
0011
,
0001
1000
0010
1000
,
0001
0100
0010
1001
,
0001
0010
0100
1000
,
0010
0100
1001
0000
,
0220
0000
0330
0000
,
0001
0100
0010
1000
,
0001
0010
0100
0110
,
0100
1000
0001
0100
,
0010
0100
0001
1001
,
0100
0010
0001
1000
,
0010
0100
0001
0101
,
0010
1000
0001
0010
,
0100
1000
1001
0000
,
0010
0100
0010
0010
,
1000
0001
0010
0000
,
0100
1000
0001
0001
,
0100
0010
1000
0000
,
0010
1000
0100
0100
,
1000
0001
0010
0000
,
0001
1000
0010
0010
,
0100
0001
1000
0000
,
0001
0000
0010
0000
,
0100
0000
1000
0000
,
0010
0000
0000
0000
,
0100
0000
0001
0000
,
1000
0000
1000
0000
,
0010
0000
0010
0000
,
0100
0000
0100
0000
,
0001
0000
0001
0000
,
0010
0000
0010
0000
,
0100
0100
1000
1000
,
0001
0000
0100
0000
,
0010
0010
0100
0100
,
0001
0000
0010
0000
,
0100
0000
1000
0000
,
0001
0000
0100
0000
,
0010
0000
0010
0000
,
0100
0000
0001
0000
,
0010
0000
0100
0000
,
1000
0000
0001
0000
,
0100
0000
0010
0000
,
0220
0000
0330
0000
,
0100
0010
0100
0001
,
0010
0100
1000
1100
,
1000
0001
0100
0010
,
1000
0001
0010
0011
,
0001
1000
0010
0100
,
0001
0010
0100
0110
,
0001
1000
0010
0100
,
0001
1000
1001
0000
,
0110
0000
0000
0000
;

//---------------dance-single - ----------------
#NOTES:
     dance-single:
     :
     Medium:
     7:
     0.416828,0.432182,0.338428,0.009147,0.073174,319.000000,282.000000,37.000000,1.000000,0.000000,0.000000,0.416828,0.432182,0.338428,0.009147,0.073174,319.000000,282.000000,37.000000,1.000000,0.000000,0.000000:
0000
0000
0000
0000
,
0000
0000
0000
0000
,
0000
0000
0000
0000
,
0000
0000
0000
0000
,
0000
0000
0000
0000
,
1000
1000
0001
0001
,
0100
0100
0010
0000
,
0100
0100
0001
0001
,
1000
1000
0100
0000
,
0010
0000
0001
1000
0010
0000
1000
0001
,
0010
0000
0001
1000
0010
0000
0100
0000
,
1001
0000
0001
1000
0100
0000
1000
0001
,
0100
0000
0001
1000
0100
0000
1100
0000
,
1001
0000
0001
0010
0100
0000
0010
0001
,
0100
0000
0001
0010
0100
0000
1001
0000
,
0110
0000
0010
1000
0100
0000
0010
0100
,
1000
0000
0010
1000
0100
0000
0110
0000
,
1001
0000
0000
0000
,
0110
0000
0010
1000
0001
0000
0010
0001
,
1000
0000
0010
1000
0001
0000
0011
0000
,
1100
0000
1000
0001
0100
0000
0001
1000
,
0100
0000
1000
0001
0100
0000
0101
0000
,
1010
0000
0010
1000
0001
0000
1000
0010
,
0100
0000
0010
1000
0001
0000
0011
0000
,
1100
0000
1000
0001
0100
0000
0001
1000
,
0100
0000
1000
0001
0110
0000
0000
0000
,
0010
1010
1000
1001
,
0001
0010
0001
1000
0001
0000
1000
0000
,
0010
0110
0100
0101
,
0001
1000
0001
1000
0100
0000
0010
0000
,
0001
0011
0100
1100
,
1000
0010
1000
0010
0100
0000
0001
0000
,
1000
0110
0001
0110
,
0100
1000
0100
1000
0001
0000
0100
0000
,
0110
0010
0000
0000
0000
0000
0000
0000
,
0110
0100
0000
0000
0101
0001
0000
0000
,
1001
1000
0000
0000
0000
0000
0000
0000
,
1100
0100
1000
0000
0010
0000
0000
0000
,
0100
0001
0100
0010
,
1000
0001
0010
0100
,
1000
0100
0010
0001
,
1000
0010
0100
0001
,
0010
0000
0100
0000
0010
0000
0100
1000
,
0100
0000
1000
0001
1000
0000
0001
0000
,
0100
0010
1000
0010
,
0100
0000
0000
0000
0000
0000
0000
0000
0000
0000
0000
0000
0001
0000
0000
0000
0000
0000
0000
0000
0000
0100
0000
0000
0001
0000
0000
0000
0000
0000
0000
0000
0000
0000
0000
0000
1000
0000
0000
0000
0000
0000
0000
0000
1000
0000
0000
0000
,
0100
0000
0000
0010
0000
0010
0001
0000
0000
0100
0000
0100
,
0010
0000
0000
0100
0000
0100
0001
0000
0000
1000
0000
1000
,
0100
0000
0000
0010
0000
0010
0001
0000
0000
0100
0000
0100
,
0010
0000
0100
0010
0000
0100
0010
0000
0000
0100
0000
0100
,
0001
0100
0010
1000
,
0001
0000
0001
0010
0000
0010
0100
0000
0000
1000
0000
0000
,
0001
0100
0010
0100
,
0001
0000
0001
1000
0000
1000
0100
0000
0000
0010
0000
0001
,
0000
2000
0000
0000
0000
0000
3000
0000
,
1010
0000
1000
0001
0010
0000
0001
0100
,
0010
0000
0100
0001
1000
0000
1100
0000
,
0011
0000
0001
0010
0100
0000
0010
0001
,
1000
0000
0010
1000
0100
0000
0110
0000
,
1001
0000
0001
0100
0010
0000
0100
0001
,
1000
0000
0100
1000
0010
0000
1010
0000
,
0101
0000
0001
0010
0100
0000
0010
0001
,
1000
0000
0010
1000
0100
0000
0110
0000
,
1001
0000
0000
0000
;

//---------------dance-single - ----------------
#NOTES:
     dance-single:
     :
     Hard:
     9:
     0.625896,0.633867,0.338428,0.036587,0.498495,479.000000,442.000000,37.000000,4.000000,0.000000,0.000000,0.625896,0.633867,0.338428,0.036587,0.498495,479.000000,442.000000,37.000000,4.000000,0.000000,0.000000:
0000
0000
0000
0000
,
0000
0000
0000
0000
,
0000
0000
0000
0000
,
0000
0000
0000
0000
,
0000
0000
0000
0000
,
1000
0000
1000
0001
0000
0001
0010
0000
0010
0100
0000
0100
,
1000
0000
1000
0001
0100
0001
0100
0000
0000
0010
0000
0100
,
0001
0000
0001
1000
0000
1000
0100
1000
0000
0001
0100
0001
,
0100
0000
0100
0010
1000
0010
1000
0000
0000
0001
0000
0000
,
0010
0000
0000
0001
0100
0000
0010
0000
1000
0000
0000
0001
1000
0000
0100
0000
,
0010
0000
0000
0100
1000
0000
0010
0000
0100
0001
0000
0000
1001
0000
1000
0000
,
0100
0000
0000
1000
0001
0000
0010
0000
0001
0000
0000
0100
0010
0000
0100
0000
,
0001
0000
0000
1000
0100
0000
0010
0000
0001
1000
0000
0000
1010
0000
0010
0000
,
0100
0000
0000
0010
1000
0000
0100
0000
0010
0000
0000
0100
1000
0000
0001
0000
,
0100
0000
0000
0010
0100
0000
0001
0000
1000
0100
0000
0000
1100
0000
1000
0000
,
0010
0000
0000
0100
0001
0000
0010
0000
0100
0000
0000
1000
0100
0000
0010
0000
,
0001
0000
0000
1000
0010
0000
0100
0000
0001
1000
0000
0000
1001
0000
0000
0000
,
0220
0000
0000
0330
,
1001
0000
0000
0001
0010
0000
0100
0000
1100
0000
0000
1000
0001
0000
0100
0000
,
0110
0000
0000
0010
1000
0000
0001
0000
0010
0001
0000
0000
1001
0000
1000
0000
,
1010
0000
0000
0010
0100
0000
0001
0000
1001
0000
0000
1000
0100
0000
0010
0000
,
0011
0000
0000
0001
1000
0000
0010
0000
0100
0001
0000
0000
0101
0000
0100
0000
,
0110
0000
0000
0010
1000
0000
0001
0000
0011
0000
0000
0010
0100
0000
1000
0000
,
1001
0000
0000
0001
0100
0000
0010
0000
1000
0000
0001
0000
1001
0000
0000
0000
,
0011
0000
0000
0010
0001
0000
1000
0000
1010
0000
0000
0010
0100
0000
0001
0000
,
1001
0000
0000
1000
0100
0000
0010
0000
0110
0000
0000
0000
1001
0000
0000
0000
,
0110
0000
1001
0001
0100
0000
1010
0010
,
0100
0001
1000
0100
0010
0000
0011
0100
,
1000
0010
0100
0001
0100
0010
1000
0001
,
0010
0000
0100
0000
1000
0000
0010
0000
0100
0000
0001
1000
0001
0000
1000
0000
,
1100
0000
0100
1000
1010
0000
0010
0100
,
0001
1000
0100
1000
1001
0000
1000
0100
,
0010
0001
1000
0010
1000
0001
0100
0010
,
1000
0000
0001
0000
0010
0000
0100
0000
1000
0000
0010
0100
0010
0000
1000
0000
,
1001
0100
0000
0010
0001
1000
0000
0000
,
1010
0100
0000
0001
1001
1000
0000
0000
,
1100
0100
0000
0010
0001
1000
0000
0000
,
1001
0010
0100
0001
1000
0000
0001
1000
,
0100
0000
0000
0000
0010
0000
0001
0000
1000
0000
0000
0000
0010
0000
0100
0001
,
0100
0000
0000
0000
0010
0000
1000
0000
0001
0000
0000
0000
0010
0001
0010
0001
,
0010
0000
0100
1000
0001
0000
0100
0010
,
1000
0000
0000
0000
0001
0000
0010
0000
0100
1000
0100
1000
0001
0000
0100
0000
,
0010
0000
1000
0001
0010
0000
0100
1000
,
0010
0000
0000
0000
1000
0000
0001
0000
0010
0000
0000
0000
0100
0000
1000
0001
,
1000
0001
0100
0010
1000
0001
0000
0000
,
0010
0000
0000
0000
0000
0000
0001
0000
0000
0000
0000
0000
1000
0000
0000
0000
0000
0000
0000
0000
0000
0010
0000
0000
0100
0000
0000
0000
0000
0000
0000
0000
0000
0000
0000
0000
0001
0000
0000
0000
0000
0000
0000
0000
0100
0000
0000
0000
,
0010
0000
0010
0100
0000
0100
0001
0000
0001
1000
0100
1000
,
0100
0000
0100
1000
0001
1000
0001
0100
0000
0100
0000
0001
,
1000
0000
1000
0100
0000
0100
0010
0000
0010
0001
1000
0001
,
1000
0000
1000
0001
0000
0001
1000
0000
0000
0001
1000
0001
,
0100
0000
0100
1000
0000
1000
0010
0000
0010
0001
0000
0001
,
0100
0000
0010
1000
0010
1000
0001
0000
0000
0010
0000
0001
,
1000
0000
0100
1000
0000
0001
0100
0001
0000
0100
0010
0100
,
0010
0000
1000
0001
1000
0001
0010
0000
0100
0000
0000
2000
,
0000
0002
0000
0000
0000
0000
3003
0000
,
0001
0000
0100
0010
0100
0000
0001
0000
1000
0000
0100
1000
0100
0000
0010
0000
,
0001
0000
1000
0010
1000
0000
0001
0000
0010
0001
0000
0000
1001
0000
1000
0000
,
0010
0000
1000
0001
1000
0000
0100
0000
0010
0000
0001
0010
0001
0000
0100
0000
,
0010
0000
1000
0100
1000
0000
0010
0000
0100
0001
0000
0000
1001
0000
0001
0000
,
0010
0000
0001
1000
0001
0000
1000
0000
0010
0000
0100
0001
0100
0000
0010
0000
,
1000
0000
0001
0010
0001
0000
0010
0000
0100
0000
0010
0000
0110
0000
0100
0000
,
1000
0000
0001
1000
0001
0000
0100
0000
0010
0000
1000
0010
1000
0000
0001
0000
,
0010
0000
0001
1000
0001
0000
1000
0000
0010
0000
0100
0000
0001
1000
0000
0010
,
0100
0000
0000
0000
;

//---------------dance-double - ----------------
#NOTES:
     dance-double:
     :
     Hard:
     9:
     0.571016,0.576242,0.109760,0.100614,0.443615,437.000000,425.000000,12.000000,11.000000,0.000000,0.000000,0.571016,0.576242,0.109760,0.100614,0.443615,437.000000,425.000000,12.000000,11.000000,0.000000,0.000000:
00000000
00000000
00000000
00000000
,
00000000
00000000
00000000
00000000
,
00000000
00000000
00000000
00000000
,
00000000
00000000
00000000
00000000
,
00000000
00000000
00000000
00000000
,
10000000
00000000
10000000
01000000
00000000
01000000
00010000
00000000
00010000
00001000
00000000
00001000
,
00000010
00000000
00000010
00000001
00000100
00000010
00000100
00000000
00000000
00001001
00000000
00000000
,
00000001
00000000
00000001
00000100
00000000
00000100
00000010
00010000
00000000
00010000
00001000
00100000
,
00010000
00000000
00010000
10000000
01000000
00100000
01000000
00000000
00000000
00000000
00000000
00000000
,
10000000
00000000
00010000
00000000
01000000
00000000
00010000
10000000
01000000
00000000
00100000
00000000
00001000
00000000
00010000
00000100
,
00001000
00000000
00000000
00000001
00000000
00000000
00000010
00000001
00000010
00000001
00000000
00000000
00001000
00000000
00000000
00000000
,
00000001
00000000
00001000
00000000
00000100
00000000
00001000
00000001
00000100
00000000
00000010
00000000
00010000
00000000
00001000
01000000
,
00010000
00000000
00000000
10000000
00000000
00000000
00100000
10000000
00100000
00000000
00000000
00000000
10010000
00000000
00000000
00000000
,
01000000
00000000
10000000
00000000
00100000
00000000
00000000
00010000
00001000
00000000
00000100
00000000
00000001
00000000
00000000
00000001
,
00000010
00000000
00000000
00000000
00000100
00000000
00001000
00000010
00001000
00000000
00000001
00000000
00000010
00000000
00001000
00000000
,
00010000
00000000
01000000
00000000
10000000
00000000
00010000
00100000
00010000
00000000
10000000
00000000
01000000
00000000
00010000
00000000
,
00001000
00000000
00000000
00001000
00000100
00000000
00000001
00000010
00000001
00000000
00000000
00000000
00000100
00000000
00000000
00000000
,
00002002
00000000
00000000
00003003
,
00000010
00000000
00001000
00000000
00000010
00000000
00001000
00000100
00010000
00000000
00001000
00000000
00010000
00000000
00001000
01000000
,
00010000
10000000
01000000
00010000
01000000
00000000
10010000
00000000
,
00100000
00000000
00010000
00000000
00100000
00000000
00010000
01000000
00001000
00000000
00010000
00000000
00001000
00000000
00010000
00000100
,
00001000
00000001
00000100
00001000
00000100
00000000
00001001
00000000
,
00000010
00000000
00000001
00000000
00000100
00000000
00001000
00000100
00001000
00000000
00000100
00000000
00000010
00000000
00010000
00001000
,
00100000
00000000
00000000
00000000
01000000
00000000
10000000
00010000
10000000
00000000
00000000
00000000
01100000
00000000
00000000
00000000
,
00100000
00000000
10000000
00000000
01000000
00000000
00010000
00001000
00010000
00000000
00100000
00000000
00010000
00000000
00001000
00010000
,
00001000
00000000
00000000
00001000
00000100
00000000
00000001
00000010
00000001
00000000
00000000
00000000
00001001
00000000
00000000
00000000
,
00001000
00000000
00000001
00000100
00001000
00000000
00010000
00001000
,
00000010
00010000
00000010
00000100
00010000
00000000
01000000
10000000
,
00100000
00010000
00100000
01000000
00001000
00000100
00000001
00001000
,
00000010
00000000
00000100
00000000
00010000
00000000
01000000
00000000
00100000
00000000
10000000
00010000
10000000
00000000
00000000
00000000
,
00010000
00000000
10000000
01000000
00010000
00000000
00001000
00010000
,
00100000
00001000
00100000
01000000
00001000
00000000
00000100
00000001
,
00000010
00001000
00000010
00000100
00010000
01000000
10000000
00010000
,
00100000
00000000
00001000
00000000
00000010
00000000
00000001
00000000
00001000
00000000
00000100
00000010
00000100
00000000
00001000
00000000
,
00001001
00000002
00000000
00000103
00000010
00000200
00000000
00000000
,
00001300
00020000
00000000
00130000
01000000
00200000
00000000
00000000
,
10300000
20000000
00000000
31000000
00010000
02000000
00000000
03000000
,
00010000
00000000
00001000
00010000
00001000
00000000
00000010
00000000
00000100
00000000
00000000
00000000
00001000
00000000
00000000
00000000
,
00000001
00000000
00000020
00000000
00000030
00000000
00000100
00010000
,
00001000
00000000
00100000
00000000
00010000
00000000
10000000
00000000
01000000
00000000
00000000
00000000
10000000
00100000
10000000
00100000
,
01000000
00000000
10000000
01000000
00010000
00000000
00100000
00001000
,
00010000
00010000
00000010
00001000
00000001
00000000
00000000
00000000
,
00001001
00000000
00000001
00000000
00001000
00000000
00010000
00100000
,
01000000
00000000
00000000
00000000
10000000
00000000
01000000
00000000
00010000
00000000
00000000
00000000
00001000
00000000
00100000
00010000
,
00100000
00001000
00010000
00000100
00000010
00000001
00000000
00000000
,
00001000
00000000
00000010
00000000
00000100
00000000
00000001
00001000
00000001
00000000
00000000
00000000
00000100
00000000
00000000
00000000
,
00001001
00000000
00000001
00000100
00000000
00000100
00001000
00000000
00001000
00010000
00000000
00010000
,
00100000
00000000
00100000
10000000
01000000
00100000
01000000
10000000
00000000
00010000
00000000
00010000
,
10000000
00000000
10000000
01000000
00000000
01000000
00100000
00000000
00100000
00001000
00100000
00001000
,
00010000
00000000
00010000
00001000
00000000
00001000
00000100
00000000
00000000
00000001
00000010
00000100
,
00001000
00000000
00001000
00000001
00000000
00000001
00000100
00000000
00000100
00001000
00000000
00001000
,
00010000
00000000
00010000
00100000
01000000
00100000
10000000
00000000
00000000
00010000
00000000
10000000
,
01000000
00000000
01000000
00100000
00000000
00100000
00001000
00010000
00000000
00010000
00001000
00000100
,
00000010
00000000
00000010
00001000
00000001
00000100
00000020
00000000
00000000
00000000
00000000
00000000
,
00000200
00000000
00000000
00000330
,
00000001
00000000
00001000
00000000
00000100
00000000
00001000
00000001
00000100
00000000
00000010
00000000
00010000
00000000
00001000
01000000
,
00010000
00000000
00000000
10000000
00000000
00000000
00100000
10000000
00100000
10000000
00000000
00000000
00010000
00000000
00000000
00000000
,
10000000
00000000
00010000
00000000
01000000
00000000
00010000
10000000
01000000
00000000
00100000
00000000
00001000
00000000
00010000
00000100
,
00001000
00000000
00000000
00000001
00000000
00000000
00000010
00000001
00000010
00000000
00000000
00000000
00001001
00000000
00000000
00000000
,
00000100
00000000
00000001
00000000
00000010
00000000
00000000
00001000
00010000
00000000
01000000
00000000
10000000
00000000
00000000
10000000
,
00100000
00000000
00000000
00000000
01000000
00000000
00010000
00100000
00010000
00000000
10000000
00000000
00100000
00000000
00010000
00000000
,
00001000
00000000
00000100
00000000
00000001
00000000
00001000
00000010
00001000
00000000
00000001
00000000
00000100
00000000
00001000
00000000
,
00010000
00000000
00000000
00010000
01000000
00000000
10000000
00100000
10000000
00000000
00010000
00000000
00100000
00000000
00001000
00000000
,
00011000
00000000
00000000
00000000
;

//---------------dance-double - ----------------
#NOTES:
     dance-double:
     :
     Medium:
     8:
     0.452108,0.460994,0.082320,0.036587,0.064027,346.000000,337.000000,9.000000,4.000000,0.000000,0.000000,0.452108,0.460994,0.082320,0.036587,0.064027,346.000000,337.000000,9.000000,4.000000,0.000000,0.000000:
00000000
00000000
00000000
00000000
,
00000000
00000000
00000000
00000000
,
00000000
00000000
00000000
00000000
,
00000000
00000000
00000000
00000000
,
00000000
00000000
00000000
00000000
,
00010000
00000000
00000000
00010000
00000000
00000000
00001000
00000000
00001000
00100000
00000000
00000000
,
00010000
10000000
01000000
00000000
,
00010000
00000000
00000000
00010000
00000000
00001000
00000100
00000000
00000000
00000001
00000000
00000000
,
00001000
00000010
00000100
00000000
,
00000001
00000010
00001000
00000000
00010000
00100000
10000000
00000000
,
01000000
10000000
00010000
01000000
00001000
00000000
00010000
00000000
,
00100000
01000000
00010000
00000000
10000000
01000000
00100000
00000000
,
00001000
00010000
00001000
00000100
00000010
00000000
00001000
00000000
,
00000100
00010000
00001000
00000000
00100000
00010000
01000000
00000000
,
10000000
00000000
01000000
00010000
00100000
00001000
00010000
00000000
,
00000100
00000000
00000010
00000001
00001000
00000100
00010000
00001000
,
00100000
00010000
10000000
01000000
,
20020000
00000000
00000000
30030000
,
10000000
01000000
00010000
00000000
00001000
00000100
00000001
00000000
,
00000010
00000001
00000010
00001000
00010000
00000100
00000010
00000000
,
00000001
00000100
00001000
00000000
00010000
01000000
10000000
00000000
,
00100000
10000000
00100000
01000000
00001000
00010000
00100000
10000000
,
00010000
00000000
10000000
00100000
00010000
00000000
00001000
00000010
,
00000001
00000000
00000100
00001000
00010000
00001000
00000010
00000001
,
00001000
00000000
00000001
00000100
00001000
00010000
01000000
10000000
,
00010000
00000000
01000000
00100000
10010000
00000000
00000000
00000000
,
11000000
00000000
10000000
01000000
10000000
00100000
00010000
00001000
,
00000100
00001000
00010000
00001000
00000010
00000000
00000001
00000100
,
00001000
00010000
00001000
00000010
00000100
00001000
00000001
00000000
,
00001000
00000100
00010000
00001000
01000000
00000000
10010000
00000000
,
10100000
00000000
10000000
00100000
10000000
01000000
00010000
00001000
,
00000010
00001000
00010000
00001000
00000100
00000000
00000001
00000010
,
00001000
00010000
00001000
00100000
00010000
10000000
00010000
01000000
,
10000000
01000000
00100000
10000000
00010000
00000000
01000000
00001000
,
00010000
00010000
00000000
00000100
00000010
00000010
00000000
00000000
,
00000001
00000001
00000000
00000100
00001000
00001000
00000000
00000000
,
00010000
00001000
00000000
00100000
00010000
00100000
00000000
00000000
,
01000000
10000000
01000000
00100000
00010000
00000000
10000000
00000000
,
01000000
00000000
00010000
00001000
00010000
00000000
00000100
00000010
,
00000100
00000000
00001000
00000001
00001000
00000000
00000010
00001000
,
00000001
00000000
00000100
00001000
00010000
00000000
00001000
00010000
,
00100000
00100000
10000000
00010000
01000000
00000000
00010000
00000000
,
10000000
00000000
01000000
00100000
00010000
00000000
00100000
00010000
,
00001000
00000000
00010000
00100000
10000000
00000000
10000000
00100000
,
01000000
00010000
00001000
00000010
00000001
00001000
00000000
00000000
,
00000010
00000000
00000000
00001000
00000000
00000000
00000100
00000000
00000000
00001000
00000000
00000000
00000001
00000000
00000000
00000000
00000000
00000000
00000100
00000000
00000000
00000000
00000100
00000000
,
00001000
00000000
00000000
00010000
00000000
00010000
00001000
00000000
00000000
00100000
00000000
00100000
,
00010000
00000000
00010000
10000000
00000000
00000000
00010000
00000000
00000000
01000000
00000000
01000000
,
00001000
00000000
00001000
00010000
00000000
00010000
00000100
00000000
00000100
00000010
00000000
00000000
,
00001001
00000110
00001001
00000000
,
00000010
00000000
00000000
00000001
00000000
00000001
00000100
00000000
00000000
00001000
00000000
00001000
,
00010000
01000000
10000000
00000000
,
00100000
00000000
00000000
10000000
00000000
10000000
01000000
00000000
00000000
00010000
00000000
00010000
,
00001000
00000100
00000001
00000000
,
00002002
00000000
00000000
00003003
,
00000001
00000100
00001000
00000000
00010000
01000000
10000000
00000000
,
00100000
10000000
00100000
00010000
00001000
01000000
00100000
00000000
,
10000000
01000000
00010000
00000000
00001000
00000100
00000001
00000000
,
00000010
00000001
00000010
00000100
00010000
00001000
00000010
00000001
,
00001000
00000000
00000001
00000010
00001000
00000000
00010000
00100000
,
10000000
00000000
01000000
00010000
00001000
00010000
00100000
10000000
,
00010000
00000000
01000000
00100000
10000000
01000000
00010000
00001000
,
00000100
00000000
00000001
00000010
00000001
00001000
00000100
00010000
,
00001000
00000000
00000000
00000000
;

//---------------dance-double - ----------------
#NOTES:
     dance-double:
     :
     Easy:
     4:
     0.261334,0.316933,0.091467,0.018293,0.000000,200.000000,190.000000,10.000000,2.000000,0.000000,0.000000,0.261334,0.316933,0.091467,0.018293,0.000000,200.000000,190.000000,10.000000,2.000000,0.000000,0.000000:
// measure 0
00000000
00000000
00000000
00000000
,  // measure 1
00000000
00000000
00000000
00000000
,  // measure 2
00000000
00000000
00000000
00000000
,  // measure 3
00000000
00000000
00000000
00000000
,  // measure 4
00000000
00000000
00000000
00000000
,  // measure 5
00001000
00000000
00010000
00000000
,  // measure 6
00100000
00100000
10000000
00000000
,  // measure 7
00010000
00000000
00100000
00000000
,  // measure 8
00001000
00010000
00000100
00000000
,  // measure 9
00000010
00000001
00001000
00000010
,  // measure 10
00010000
00001000
00010000
00011000
,  // measure 11
00100000
10000000
00010000
00100000
,  // measure 12
00001000
00010000
00001000
00000000
,  // measure 13
00010000
00001000
00000100
00000001
,  // measure 14
00001000
00000010
00000100
00001000
,  // measure 15
00001000
00010000
01000000
10000000
,  // measure 16
00010000
10000000
00100000
01000000
,  // measure 17
10010000
00000000
00000000
00000000
,  // measure 18
10000000
01000000
00100000
00010000
,  // measure 19
10000000
00100000
00010000
00011000
,  // measure 20
00001000
00000100
00000001
00001000
,  // measure 21
00000010
00000100
00000001
00001001
,  // measure 22
00000100
00000010
00010000
00001000
,  // measure 23
01000000
00100000
10000000
00000000
,  // measure 24
00010000
10000000
01000000
00010000
,  // measure 25
00001000
00000100
00000001
00000000
,  // measure 26
00001000
00001000
00000010
00000010
,  // measure 27
00010000
00001000
01000000
00010000
,  // measure 28
10000000
01000000
00010000
00001000
,  // measure 29
00000100
00000001
00001000
00001000
,  // measure 30
00010000
00010000
00100000
00100000
,  // measure 31
00001000
00010000
00000100
00001000
,  // measure 32
00000001
00000100
00001000
00010000
,  // measure 33
01000000
10000000
00010000
01000000
,  // measure 34
10010000
00000000
01000000
00000000
,  // measure 35
00001000
00000000
00010000
00000000
,  // measure 36
00011000
00000000
00000000
00000000
,  // measure 37
00000100
00000100
00000002
00000003
,  // measure 38
00001000
00000000
00000001
00000000
,  // measure 39
00000100
00001000
00010000
00000000
,  // measure 40
01000000
00000000
10000000
00000000
,  // measure 41
00100000
00010000
00001000
00000000
,  // measure 42
00000100
00000100
00000001
00000001
,  // measure 43
00001000
00001000
00000100
00000000
,  // measure 44
00010000
00010000
00011000
00000000
,  // measure 45
00100000
10000000
00010000
00000000
,  // measure 46
10000000
00000000
00100000
00000000
,  // measure 47
01000000
00000000
00010000
00000000
,  // measure 48
00001000
00000000
00000010
00000000
,  // measure 49
00000100
00000100
00000001
00000000
,  // measure 50
00000010
00000001
00001000
00000100
,  // measure 51
00010000
00001000
00100000
00000000
,  // measure 52
00010000
10000000
01000000
00000000
,  // measure 53
00010000
00001000
00001000
00000000
,  // measure 54
00000200
00000000
00000000
00000300
,  // measure 55
00000001
00000010
00000100
00001000
,  // measure 56
00000001
00000100
00001000
00011000
,  // measure 57
00010000
00100000
10000000
00010000
,  // measure 58
01000000
00100000
10000000
10010000
,  // measure 59
01000000
00100000
00001000
00010000
,  // measure 60
00000100
00000010
00000001
00000000
,  // measure 61
00001000
00000001
00000100
00001000
,  // measure 62
00010000
01000000
10000000
00010000
,  // measure 63
10010000
00000000
00000000
00000000
;
