#TITLE:ハマナスの花;
#SUBTITLE:;
#ARTIST:Galileo Galilei;
#TITLETRANSLIT:Hamanasu Flower;
#SUBTITLETRANSLIT:;
#ARTISTTRANSLIT:;
#GENRE:;
#CREDIT:;
#BANNER:Hamanasu Flower.png;
#BACKGROUND:Hamanasu Flower-bg.png;
#LYRICSPATH:;
#CDTITLE:;
#MUSIC:Hamanasu Flower.ogg;
#OFFSET:-0.349000;
#SAMPLESTART:69.186203;
#SAMPLELENGTH:22.325584;
#SELECTABLE:YES;
#BPMS:0.000000=129.000000
;
#STOPS:
;
#BGCHANGES:;
#KEYSOUNDS:;
#ATTACKS:;

//---------------dance-single - ----------------
#NOTES:
     dance-single:
     :
     Beginner:
     1:
     0.068430,0.076163,0.000000,0.000000,0.000000,50.000000,50.000000,0.000000,0.000000,0.000000,0.000000,0.068430,0.076163,0.000000,0.000000,0.000000,50.000000,50.000000,0.000000,0.000000,0.000000,0.000000:
0000
0000
0000
0000
,
0000
0000
0000
0000
,
0000
0000
0000
0000
,
0000
0000
0000
0000
,
1000
0000
0000
0000
,
0001
0000
0000
0000
,
1000
0000
0000
0000
,
0001
0000
0000
0000
,
0100
0000
0000
0000
,
0010
0000
0000
0000
,
0100
0000
0000
0000
,
0010
0000
0000
0000
,
1000
0000
0000
0000
,
0001
0000
0000
0000
,
0010
0000
0000
0000
,
0001
0000
0000
0000
,
1000
0000
0000
0000
,
0010
0000
0000
0000
,
0100
0000
0000
0000
,
0010
0000
0000
0000
,
1000
0000
0000
0000
,
0001
0000
0000
0000
,
0010
0000
0000
0000
,
0100
0000
0000
0000
,
1000
0000
0000
0000
,
0001
0000
0000
0000
,
0100
0000
0000
0000
,
0010
0000
0000
0000
,
1000
0000
0000
0000
,
0000
0001
0000
0000
,
0001
0000
0000
0000
,
1000
0000
0000
0000
,
1000
0000
0000
0000
,
0010
0000
0000
0000
,
0010
0000
0000
0000
,
0100
0000
0000
0000
,
0100
0000
0000
0000
,
0001
0000
0000
0000
,
0001
0000
0000
0000
,
1000
0000
0000
0000
,
1000
0000
0000
0000
,
0100
0000
0000
0000
,
0100
0000
0000
0000
,
0010
0000
0000
0000
,
0010
0000
0000
0000
,
0001
0000
0000
0000
,
0010
0000
0000
0000
,
0100
0000
0000
0000
,
1000
0000
0000
0000
,
0001
0000
0000
0000
,
0100
0000
0000
0000
,
0010
0000
0000
0000
,
1000
0000
0000
0000
,
0001
0000
0000
0000
;

//---------------dance-single - ----------------
#NOTES:
     dance-single:
     :
     Hard:
     7:
     0.379102,0.438713,0.076642,0.134123,0.177234,277.000000,269.000000,8.000000,14.000000,0.000000,0.000000,0.379102,0.438713,0.076642,0.134123,0.177234,277.000000,269.000000,8.000000,14.000000,0.000000,0.000000:
0000
0000
0000
0000
,
0000
0000
0000
0000
,
0000
0000
0000
0000
,
0000
0000
0000
0000
,
0001
0000
0000
0001
0000
0000
0001
0000
0100
0000
0000
0100
0000
0000
0100
0000
,
0010
0000
0000
0010
0000
0000
0010
0000
1000
0010
0000
1000
0000
0000
0010
0000
,
0100
0000
0000
0100
0000
0000
0100
0000
0001
0000
0000
0001
0000
0000
0001
0000
,
1000
0000
0000
1000
0000
0000
1000
0000
0100
1000
0000
0100
0000
0000
1000
0000
,
0010
0000
0000
0100
0000
0000
0001
0000
0100
0000
0000
0010
0000
0000
0100
0000
,
0001
0000
0000
1000
0000
0000
0100
0000
1000
0100
0000
1000
0000
0000
0010
0000
,
0100
0000
0000
0001
0000
0000
0100
0000
0010
0000
0000
1000
0000
0000
0001
0000
,
1000
0000
0000
0100
0000
0000
0010
0000
0001
1000
0000
0001
0000
0000
0100
0000
,
0020
0000
0000
0030
,
0100
0000
0000
0001
0000
0000
0100
0000
0000
0000
0010
0000
0000
0000
1000
0000
,
0001
0000
0000
0010
0000
0000
0100
0000
0000
0000
1000
0000
0000
0000
0001
0000
,
0100
0000
0000
0010
0000
0000
0100
0000
0000
0000
0001
0000
0000
0000
0010
0000
,
0000
0100
0000
2000
0000
0000
3001
0100
,
0010
0000
0000
1000
0000
0000
0100
0000
0000
0000
0010
0000
0000
0000
0001
0000
,
1000
0000
0000
0010
0000
0000
0100
0000
0000
0000
0010
0000
0000
0000
1000
0000
,
0100
0000
0000
0010
0000
0000
0001
0000
0000
0000
0100
0000
0000
0000
0010
0000
,
0000
1000
0000
0002
0000
0000
0003
0100
,
0010
0000
0000
1000
0000
0000
0100
0000
0000
0000
0010
0000
0000
0000
0001
0000
,
1000
0000
0000
0010
0000
0000
0100
0000
0000
0000
0001
0000
0000
0000
1000
0000
,
0100
0000
0000
0010
0000
0000
0001
0000
0000
0000
1000
0000
0010
0000
0100
0000
,
0001
0000
0000
0010
0000
0000
0200
0000
0000
0000
0000
0000
1300
0000
0100
0000
,
1000
0000
0000
0010
0000
0000
0100
0000
0000
0000
0001
0000
0000
0000
0010
0000
,
0100
0000
0000
1000
0000
0000
0001
0000
0000
0000
0100
0000
0000
0000
0010
0000
,
0100
0000
0000
0001
0000
0000
1000
0000
0000
0000
0100
0000
0000
0000
0010
0000
,
0000
0001
1000
0020
0000
0000
0130
0000
,
0000
1001
0100
0010
,
0001
0000
1000
0000
0010
1000
0000
0100
,
1000
0100
1000
0100
1000
0100
1000
0100
,
0010
0001
0010
0001
0010
0001
0010
0001
,
0100
0000
0010
0100
0010
1000
0001
1000
,
0000
0100
0000
0020
0000
0000
0031
0100
,
0010
0100
0001
1000
0000
0100
1000
0010
,
0200
0000
0000
0010
0020
0000
0330
0000
,
1000
0000
0000
0000
0001
0000
0000
0010
0001
0000
1000
0000
0010
0000
0100
0000
,
0002
0000
1000
0000
1000
0000
1003
0100
,
1000
0010
0100
0002
0000
0010
0000
2003
,
0000
0000
0100
0000
0100
0000
3100
1000
,
0010
0000
0100
0000
0001
0010
0100
1000
,
0020
0000
0100
0000
0001
0000
0130
0010
,
1000
0001
0010
0100
0000
0010
0000
0001
,
1000
0000
0010
0100
0000
0010
1000
0001
,
0010
0100
1000
0001
0000
1001
0000
0010
,
0100
0001
0000
0100
0010
1000
0000
0001
,
0010
0100
1000
0010
0000
1010
0000
1000
,
0001
0000
0000
0010
0000
0000
0100
0000
0000
0000
1100
0000
0000
0000
1000
0000
,
0010
0000
0000
0100
0000
0000
0101
0000
0000
0000
1001
0000
0000
0000
1000
0000
,
0100
0000
0000
0010
0000
0000
0011
0000
0000
0000
1100
0000
0000
0000
1000
0000
,
0020
0000
0100
0000
0100
0000
0130
0001
,
1000
0100
1000
0001
0010
0001
0100
0010
,
2000
0000
0000
0000
0000
0000
3001
0001
;

//---------------dance-single - ----------------
#NOTES:
     dance-single:
     :
     Easy:
     3:
     0.162863,0.181066,0.009580,0.000000,0.000000,119.000000,118.000000,1.000000,0.000000,0.000000,0.000000,0.162863,0.181066,0.009580,0.000000,0.000000,119.000000,118.000000,1.000000,0.000000,0.000000,0.000000:
0000
0000
0000
0000
,
0000
0000
0000
0000
,
0000
0000
0000
0000
,
0000
0000
0000
0000
,
1000
0000
0010
0000
,
0100
0000
0001
0000
,
0010
0000
0001
0000
,
0100
0000
0010
0000
,
1000
0000
0100
0000
,
1000
0000
0010
0000
,
0100
0000
0001
0000
,
0010
0000
0001
0000
,
1000
0000
0000
0000
,
0010
0000
0100
0000
,
0001
0010
0100
0000
,
1000
0000
0001
0000
,
0100
0010
1000
0000
,
0001
0000
0010
0000
,
0100
1000
0010
0000
,
0100
0000
0001
0000
,
0010
0100
1000
0000
,
0010
0000
1000
0000
,
0001
0010
0100
0000
,
1000
0000
0100
0000
,
0010
0001
1000
0000
,
0010
0000
0100
0000
,
0001
0010
0100
0000
,
1000
0000
0010
0000
,
0100
0001
1000
0000
,
0000
1001
0000
0000
,
0100
0000
0010
0000
,
0001
0000
0100
0000
,
0010
0000
1000
0000
,
0001
0000
0010
0000
,
0100
0000
1000
0001
,
0100
0000
0010
0000
,
1000
0000
0001
0000
,
0010
0000
0010
0000
,
0100
0000
0100
0000
,
1000
0100
0010
0001
,
0100
0000
0010
0000
,
1000
0000
0001
0000
,
0010
0000
0100
0000
,
1000
0100
0010
0001
,
1000
0000
0010
0000
,
0100
0001
0100
0001
,
1000
0000
0100
0000
,
0010
0001
0010
0001
,
1000
0000
0010
0000
,
0100
0010
0100
0010
,
1000
0000
0001
0000
,
0010
0000
0100
0000
,
1000
0000
0001
0001
,
0100
0000
0000
0000
,
0100
0000
0000
0000
;

//---------------dance-single - ----------------
#NOTES:
     dance-single:
     :
     Medium:
     5:
     0.302460,0.309680,0.038321,0.047901,0.000000,221.000000,217.000000,4.000000,5.000000,0.000000,0.000000,0.302460,0.309680,0.038321,0.047901,0.000000,221.000000,217.000000,4.000000,5.000000,0.000000,0.000000:
0000
0000
0000
0000
,
0000
0000
0000
0000
,
0000
0000
0000
0000
,
0000
0000
0000
0000
,
0001
0000
0100
0000
0010
1000
0001
0000
,
0010
0000
0100
0000
1000
0001
0100
0000
,
0010
0000
1000
0000
0010
1000
0001
0000
,
0010
0000
0100
0000
1000
0010
0100
0000
,
0001
0000
0100
0000
0010
1000
0001
0000
,
0010
0000
0100
0000
1000
0001
0010
0000
,
0100
0000
1000
0000
0010
1000
0001
0000
,
0100
0000
0010
0000
1000
0001
0100
0000
,
0020
0000
0000
0000
,
0130
0001
0100
0001
,
1000
0000
0100
0000
1000
0001
0100
0000
,
0010
1000
0001
0010
,
0100
0000
1000
0000
0010
1000
0100
0000
,
0010
0001
1000
0100
,
0010
0000
0100
0000
1000
0001
0100
0000
,
0010
1000
0001
0010
,
0100
0000
1000
0000
0001
1000
0001
0000
,
0100
0000
0010
0000
0100
0001
1000
0000
,
0100
0010
0110
0000
,
0001
0000
0010
0000
0100
1000
0001
0000
,
0100
0010
1010
0000
,
0010
0000
1000
0000
0001
1000
0100
0000
,
0010
0001
0101
0000
,
0100
0000
0010
0000
0100
0001
0010
0000
,
0100
0000
1000
0000
0001
0000
0100
0010
,
0000
0110
0100
0100
,
0001
0001
1000
1000
,
0100
0100
0100
0100
,
0010
0010
0001
0001
,
1000
0000
0010
0000
0000
1000
0001
0000
,
0010
0000
0100
0000
0000
1000
0001
0000
,
0100
0000
0010
0100
0000
0010
0000
1000
,
0001
0010
0100
1000
,
0010
0000
0100
0000
0001
0000
0010
0001
,
2000
0001
0001
3001
,
0100
0000
0010
1000
0000
0100
0000
2000
,
0000
0010
0010
3010
,
0100
0000
0001
0000
0010
0001
0010
0000
,
0002
0100
0100
0103
,
0010
0000
1000
0010
0000
1000
0000
0000
,
0001
0000
0010
0001
0000
0100
0000
0000
,
0010
0000
0100
0010
0000
0100
0000
0000
,
0001
0000
1000
0001
0000
1000
0001
0000
,
0010
0000
0100
0010
0000
0010
0100
0000
,
1000
0000
0100
1000
0000
0100
1000
0000
,
0001
0100
0001
0100
,
0010
0000
1000
0000
0010
1000
0100
0000
,
0010
0000
0100
0000
0010
0001
1000
0000
,
0010
0100
0001
1000
,
0200
0000
0000
0000
0000
0000
0010
0310
;

//---------------dance-double - ----------------
#NOTES:
     dance-double:
     :
     Hard:
     8:
     0.481747,0.541940,0.296986,0.057481,0.325727,352.000000,321.000000,31.000000,6.000000,0.000000,0.000000,0.481747,0.541940,0.296986,0.057481,0.325727,352.000000,321.000000,31.000000,6.000000,0.000000,0.000000:
00000000
00000000
00000000
00000000
,
00000000
00000000
00000000
00000000
,
00000000
00000000
00000000
00000000
,
00000000
00000000
00000000
00000000
,
00001000
00000000
00000000
00001000
00000100
00000000
00000000
00000000
00000001
00000000
00000000
00000001
00000010
00000000
00001000
00000000
,
00010000
00000000
00000000
00010000
01000000
00000000
00000000
00000000
10000000
00010000
00000000
01000000
00000000
00000000
00001000
00000000
,
00010000
00000000
00000000
00010000
00100000
00000000
00000000
00100000
10000000
00000000
00000000
00000000
00010000
10000000
00000000
10000000
,
01000000
00000000
00000000
00000000
01010000
00000000
00000000
00000000
00001000
00000010
00000000
00000001
00000000
00000000
00000100
00000000
,
00000010
00000000
00000000
00000010
00001000
00000000
00000000
00000001
00000000
00001000
00000100
00000000
00010000
00000000
00000000
00010000
,
00100000
00000000
00000000
00000000
10010000
00000000
00000000
00000000
10000000
01000000
10000000
01000000
10000000
00000000
00010000
00000000
,
00100000
00000000
00000000
00000000
00101000
00000000
00000000
00001000
00010000
00000000
00000000
00000000
00010010
00000000
00000000
00010000
,
00001000
00000000
00000000
00000000
00000110
00000000
00000000
00000000
00000001
00000010
00000000
00001000
00000000
00000000
00010000
00000000
,
00200000
00000000
00000000
00300000
,
01100000
00000000
00000000
10000000
00000000
00000000
00010000
00000000
00000000
00000000
11000000
00000000
10000000
00000000
00000000
10000000
,
00100000
00000000
00000000
00010000
00000000
00000000
00001000
00000100
00000000
00000000
00000010
00000000
00000000
00000000
00000100
00000000
,
00000110
00000000
00000000
00000001
00000000
00000000
00001000
00000000
00000000
00000000
00000110
00000000
00001000
00000000
00000000
00001000
,
00010000
00000000
00000000
00000000
00100000
00000000
00000000
00100000
10000000
00000000
00010000
00000000
01000000
00000000
00100000
00000000
,
01100000
00000000
00000000
10000000
00000000
00000000
00010000
00000000
00000000
00000000
10100000
00000000
10000000
00000000
00000000
10000000
,
01000000
00000000
00000000
00010000
00000000
00000000
00001000
00000010
00000000
00000000
00000100
00000000
00000000
00000000
00000010
00000000
,
00000110
00000000
00000000
00000000
00001001
00000000
00000000
00000001
00000010
00000000
00000000
00000000
00001010
00000000
00000000
00001000
,
00010000
00001000
00000000
00001000
01000000
00000000
01000000
00010000
00000000
00010000
10000000
00000000
01000000
00000000
00100000
00000000
,
01100000
00000000
00000000
10000000
00000000
00000000
00010000
00000000
00100000
00000000
00001000
00000000
00000100
00000010
00000000
00000000
,
00000110
00000000
00000000
00000001
00000000
00000000
00001000
00000000
00000010
00000000
00010000
00000000
01000000
00100000
00000000
00000000
,
10010000
00000000
00000000
10000000
00100000
00000000
01000000
00000000
00001000
00000000
00010000
00000000
00000100
00000010
00000000
00000000
,
00000001
00000000
00000000
00000001
00000100
00000000
00001000
00000000
00010000
00000000
00000000
00000000
01000000
00100000
01000000
00000000
,
10000000
00000000
00000000
00010000
00100000
00000000
01000000
00000000
00010000
00000000
00001000
00000000
00000010
00000001
00000000
00000000
,
00001000
00000000
00000001
00000000
00000100
00000000
00001000
00000000
00010000
00000000
01000000
00000000
10000000
00100000
00000000
00000000
,
10000000
00000000
00000000
10000000
00010000
00000000
00000000
00000000
00110000
00000000
00000000
00000000
00100000
00001000
00000000
00000000
,
00011000
00000000
00000000
00010000
00000100
00000000
00000010
00000000
00000001
00000000
00000100
00000000
00001000
00010000
00001000
00000000
,
00000000
02000000
00000000
03000000
,
00100000
00100000
10000000
10000000
01000000
01000000
00010000
00010000
,
00011000
00000000
00000100
00000100
00000001
00000001
00000010
00000010
,
00001000
00000000
00001000
00000000
00011000
00000000
00000000
00000000
01100000
00000000
00000000
00000000
10000000
00010000
00000000
00000000
,
10000000
01000000
00010000
00100000
,
10000000
01000000
00010000
00001000
,
00000010
00000000
00000001
00000001
00000000
00001000
00001000
00000000
,
00000100
00000000
00000010
00000000
00000010
00000000
00000001
00000100
00000010
00000000
00001000
00000100
00000010
00000000
00000100
00010000
,
00001000
00000000
00000000
00001000
00010000
00000000
00000000
00010000
00100000
00000000
10000000
00000000
01000000
00000000
00010000
00000000
,
00001000
00000100
00000001
00000010
,
00001000
00010000
00001000
00000100
00000000
00000010
00001000
00010000
,
01000000
00100000
10000000
11000000
,
00010000
00000000
00000000
00010000
00001000
00000000
00000000
00001000
00000010
00000000
00000001
00000000
00000100
00000000
00001000
00000000
,
00010000
01000000
10000000
00100000
,
00010000
00001000
00010000
01000000
00000000
00100000
00010000
00001000
,
00000100
00000000
00000000
00000000
00000010
00000000
00000001
00000000
00000100
00000000
00000010
00000000
00010000
00000000
00001000
00010000
,
00001000
00100000
00100000
00010000
00000000
10010000
00000000
10000000
,
01000000
00100000
00001000
00010000
00000000
01000000
00010000
00001000
,
00010000
00000010
00000010
00001000
00000000
00001001
00000000
00000001
,
00000010
00001000
00010000
00100000
00000000
10100000
00000000
10000000
,
00010000
00000000
00000000
00100000
01000000
00000000
00010000
00000000
00000000
00000000
00011000
00000000
00000100
00000001
00000000
00000000
,
00001000
00000000
00000000
00000010
00000100
00000000
00001000
00000000
00000000
00000000
00011000
00000000
01000000
10000000
00000000
00000000
,
20020000
00000000
00000000
00000000
30030000
00000000
00100000
00010000
,
00000000
00000000
00001000
00000000
00000100
00000000
00000010
00000000
00000100
00000010
00000100
00000010
00000100
00000000
00000010
00000000
,
00002002
00000000
00000000
00000000
00000000
00003003
00000100
00000110
;

//---------------dance-double - ----------------
#NOTES:
     dance-double:
     :
     Medium:
     5:
     0.294249,0.334708,0.105382,0.296986,0.000000,215.000000,204.000000,11.000000,31.000000,0.000000,0.000000,0.294249,0.334708,0.105382,0.296986,0.000000,215.000000,204.000000,11.000000,31.000000,0.000000,0.000000:
// measure 0
00000000
00000000
00000000
00000000
,  // measure 1
00000000
00000000
00000000
00000000
,  // measure 2
00000000
00000000
00000000
00000000
,  // measure 3
00000000
00000000
00000000
00000000
,  // measure 4
00010000
00000000
00001000
00000000
00100000
00000000
00010000
10000000
,  // measure 5
01000000
00000000
00100000
00000000
00001000
00000000
00010000
00000100
,  // measure 6
00001000
00000000
00000010
00000000
00000100
00000000
00000001
00000010
,  // measure 7
00000100
00010000
00001000
00100000
,  // measure 8
10010000
00000000
01000000
00000000
00100000
00000000
10000000
01000000
,  // measure 9
00010000
00021000
00000010
00030100
,  // measure 10
00001001
00000000
00000100
00000000
00000010
00000000
00000001
00000100
,  // measure 11
00001000
00012000
00100000
01003000
,  // measure 12
20020000
00000000
00000000
30030000
,  // measure 13
10000000
01000000
00000000
00100000
00000000
00010000
00000000
10000000
,  // measure 14
00200000
01000000
10000000
00310000
,  // measure 15
00002000
00010000
00000100
00010000
,  // measure 16
00003020
00000001
00002000
00003030
,  // measure 17
00000001
00000100
00000000
00000010
00000000
00001000
00000000
00000001
,  // measure 18
00000020
00000100
00000001
00001030
,  // measure 19
00020000
00001000
01000000
00001000
,  // measure 20
00230000
10000000
00020000
00330000
,  // measure 21
10000000
01000000
00000000
00010000
00000000
00001000
00000000
00000100
,  // measure 22
00000001
00000100
00000000
00001000
00000000
00010000
00000000
00000000
,  // measure 23
00001000
00010000
00000000
00000200
00000000
00020300
00000000
00032000
,  // measure 24
00000000
02003000
00000000
03020000
00000000
00000000
00030000
00000000
,  // measure 25
10000000
00100000
00000000
00010000
00000000
00001000
00000000
00000010
,  // measure 26
00000001
00000010
00000000
00001000
00000000
00010000
00000000
00000000
,  // measure 27
00001000
00010000
00000000
00000020
00000000
00020030
00000000
00032000
,  // measure 28
00000000
00203000
00000000
00320000
00000000
00000000
00030000
00000000
,  // measure 29
00000000
20000000
00000000
00000000
,  // measure 30
31000000
00100000
00010000
00001000
,  // measure 31
00000100
00000000
00000000
00000000
00000000
00000000
00000010
00000001
,  // measure 32
00001000
00001000
00000100
00000100
,  // measure 33
00010000
00001000
00001000
01000000
,  // measure 34
01000000
00000000
00010000
00000000
00010000
00000000
00000000
10000000
,  // measure 35
01000000
10000000
01000000
00100000
00000000
00001000
00010000
00000000
,  // measure 36
00011000
00000000
00000000
00000100
00000010
00000000
00001001
00000000
,  // measure 37
00000001
00000000
00000100
00000000
00001000
00000000
00000100
00000001
,  // measure 38
00000010
00000100
00001000
00010000
,  // measure 39
00100000
00010000
00100000
00020000
00000000
20030000
00000000
32000000
,  // measure 40
00000000
00100000
00100000
03100000
,  // measure 41
10000000
00000000
01000000
00000000
00010000
00000000
01000000
10000000
,  // measure 42
00100000
01000000
00010000
00001000
,  // measure 43
00000010
00001000
00000010
00002000
00000000
00003002
00000000
00000103
,  // measure 44
00000010
00000110
00001001
00000000
,  // measure 45
00000001
00000000
00000100
00000010
00000100
00000000
00001000
00000000
,  // measure 46
00010000
00100000
10000000
01010000
,  // measure 47
10000000
00000000
01000000
00100000
01000000
00000000
00010000
00000000
,  // measure 48
00001000
00000100
00001001
00000000
,  // measure 49
00000001
00000000
00000010
00000001
00000010
00000000
00000100
00000000
,  // measure 50
00001000
00000000
00000100
00010000
00000100
00000000
00010000
00000000
,  // measure 51
00002000
00000000
00000000
00010000
00000000
00000000
01000000
02003000
,  // measure 52
00000000
00010000
00000000
00010000
00000000
03010000
00000000
10000000
,  // measure 53
00200000
00000000
00000000
00300000
;

//---------------dance-double - ----------------
#NOTES:
     dance-double:
     :
     Easy:
     3:
     0.175181,0.231721,0.009580,0.057481,0.000000,128.000000,127.000000,1.000000,6.000000,0.000000,0.000000,0.175181,0.231721,0.009580,0.057481,0.000000,128.000000,127.000000,1.000000,6.000000,0.000000,0.000000:
// measure 0
00000000
00000000
00000000
00000000
,  // measure 1
00000000
00000000
00000000
00000000
,  // measure 2
00000000
00000000
00000000
00000000
,  // measure 3
00000000
00000000
00000000
00000000
,  // measure 4
00010000
00000000
00100000
00000000
,  // measure 5
01000000
00000000
10000000
00000000
,  // measure 6
00010000
00000000
00100000
00000000
,  // measure 7
00001000
00000000
00010000
00000000
,  // measure 8
00000100
00000000
00001000
00000000
,  // measure 9
00000010
00000000
00000100
00000000
,  // measure 10
00000001
00000000
00000010
00000000
,  // measure 11
00000100
00000000
00001000
00000000
,  // measure 12
00000002
00000000
00000000
00000000
,  // measure 13
00001003
00000000
00000001
00000000
,  // measure 14
00000100
00001000
00010000
01000000
,  // measure 15
10000000
00000000
00010000
00000000
,  // measure 16
10000000
01000000
00100000
00000000
,  // measure 17
00010000
00000000
10000000
00000000
,  // measure 18
01000000
00010000
00001000
00000100
,  // measure 19
00000001
00000000
00001000
00000000
,  // measure 20
00000001
00000100
00000010
00000000
,  // measure 21
00001000
00000000
00000001
00000000
,  // measure 22
00000010
00001000
00010000
00100000
,  // measure 23
10000000
00000000
00010000
00000000
,  // measure 24
10000000
00100000
01000000
00000000
,  // measure 25
00010000
00000000
10000000
00000000
,  // measure 26
00100000
00010000
00001000
00000010
,  // measure 27
00000001
00000000
00001000
00000000
,  // measure 28
00000001
00000010
00000100
00000000
,  // measure 29
00000000
00022000
00000000
00033000
,  // measure 30
00010000
00000000
01000000
00000000
,  // measure 31
10000000
00000000
01000000
00000000
,  // measure 32
00010000
00001000
00010000
00001000
,  // measure 33
00010000
00000100
00001000
00000100
,  // measure 34
00001000
00000001
00000100
00000001
,  // measure 35
00000100
00000000
00000100
00000000
,  // measure 36
00000010
00000000
00000010
00000000
,  // measure 37
00001000
00000100
00010000
00001000
,  // measure 38
01000000
00000000
00010000
00010000
,  // measure 39
10000000
00000000
01000000
00000000
,  // measure 40
00010000
00000000
00001000
00100000
,  // measure 41
00010000
01000000
00001000
00010000
,  // measure 42
00000100
00000000
00001000
00001000
,  // measure 43
00000001
00000000
00000100
00000000
,  // measure 44
00001000
00000000
00010000
00000010
,  // measure 45
00001000
00000001
00001000
00000000
,  // measure 46
00000100
00000010
00000100
00000000
,  // measure 47
00010000
00001000
00010000
00000000
,  // measure 48
00100000
01000000
00100000
00000000
,  // measure 49
10000000
00010000
10000000
00000000
,  // measure 50
01000000
00100000
01000000
00000000
,  // measure 51
00020000
00000000
00000000
00000000
,  // measure 52
00032000
00000000
00000000
00000000
,  // measure 53
00003200
00000000
00000000
00000300
;
