#TITLE:華爛漫 -Flowers- (2nd EDITION);
#SUBTITLE:;
#ARTIST:TЁЯRA;
#TITLETRANSLIT:HANA RANMAN -Flowers- (2nd EDITION);
#SUBTITLETRANSLIT:;
#ARTISTTRANSLIT:TERRA;
#GENRE:;
#CREDIT:;
#BANNER:HANA RANMAN -Flowers- (2nd EDITION).png;
#BACKGROUND:HANA RANMAN -Flowers- (2nd EDITION)-bg.png;
#LYRICSPATH:;
#CDTITLE:;
#MUSIC:HANA RANMAN -Flowers- (2nd EDITION).ogg;
#OFFSET:0.754000;
#SAMPLESTART:93.740997;
#SAMPLELENGTH:12.000000;
#SELECTABLE:YES;
#BPMS:0.000000=160.000000
,185.000000=80.000000
,192.000000=160.000000
;
#STOPS:184.000000=1.125000
;
#BGCHANGES:;
#KEYSOUNDS:;
#ATTACKS:;

//---------------dance-single - ----------------
#NOTES:
     dance-single:
     :
     Beginner:
     3:
     0.157547,0.247033,0.000000,0.000000,0.000000,125.000000,125.000000,0.000000,0.000000,0.000000,0.000000,0.157547,0.247033,0.000000,0.000000,0.000000,125.000000,125.000000,0.000000,0.000000,0.000000,0.000000:
0000
0000
0000
0000
,
0000
0000
0000
0000
,
0000
0000
0000
0000
,
0000
0000
0000
0000
,
0000
0000
0000
0000
,
0000
0000
0000
0000
,
0001
0000
0001
0000
,
0001
0000
0001
0000
,
0010
0000
0010
0000
,
0010
0000
0010
0000
,
0100
0000
0100
0000
,
0100
0000
0100
0000
,
1000
0000
1000
0000
,
1000
0000
1000
0000
,
0010
0000
0010
0000
,
0010
0000
0010
0000
,
0001
0000
0001
0000
,
0001
0000
0001
0000
,
0100
0000
0100
0000
,
0010
0000
0010
0000
,
0100
0000
0100
0000
,
0010
0000
0010
0000
,
1000
0000
1000
0000
,
0001
0000
1000
0000
,
0001
0000
1000
0000
,
0001
0000
0000
0000
,
1000
0000
1000
0000
,
0010
0000
0010
0000
,
0001
0000
0001
0000
,
0100
0000
0100
0000
,
0010
0000
0010
0000
,
1000
0000
1000
0000
,
0010
0000
0010
0000
,
0100
0000
0100
0000
,
0001
0000
0000
0000
,
1000
0000
0000
0000
,
0001
0000
0000
0000
,
0001
0000
0000
0000
,
0100
0000
0010
0000
,
0001
0000
0000
0000
,
0001
0000
0010
0000
,
1000
0000
0000
0000
,
0100
0000
0100
0000
,
0100
0000
0100
0000
,
0001
0000
0001
0000
,
0001
0000
0001
0000
,
0010
0000
0100
0010
,
0100
0010
1000
0001
,
1000
0000
0010
0000
,
0010
0000
0001
0000
,
0001
0000
0100
0000
,
0100
0000
1000
0000
,
1000
0000
0010
0000
,
0010
0000
0100
0000
,
0100
0000
0010
0000
,
0010
0000
1000
0000
,
1000
0000
0001
0000
,
0001
0000
1000
0000
,
1000
0000
0010
0000
,
0010
0000
0100
0000
,
0010
0000
1000
0000
,
0010
0000
1000
0000
,
0010
0000
1000
0000
,
0010
0000
0001
0000
,
0001
0000
1000
0000
,
0100
0000
1000
0000
,
0100
0000
1000
0000
,
0010
0000
0100
0000
,
0100
0000
0001
0000
,
1000
0000
0001
0000
,
1000
0000
0000
0000
;

//---------------dance-single - ----------------
#NOTES:
     dance-single:
     :
     Hard:
     8:
     0.547002,0.586704,0.255856,0.052936,0.132339,434.000000,405.000000,29.000000,6.000000,0.000000,0.000000,0.547002,0.586704,0.255856,0.052936,0.132339,434.000000,405.000000,29.000000,6.000000,0.000000,0.000000:
0000
0000
0000
0000
,
0000
0000
0000
0000
,
0000
0000
0000
0000
,
0000
0000
0000
0000
,
0000
0000
0000
0000
,
0000
0000
0000
0000
,
1100
1000
0101
0001
,
0110
1001
0110
0000
,
0101
0001
1100
1000
,
0110
0000
0000
0000
1001
0000
0000
0000
0110
0000
1000
0000
0001
0000
0010
0001
,
0010
0000
0001
0100
1000
0000
0100
0001
,
0000
0010
0001
0100
0010
0000
1001
0000
,
0100
0000
1000
0010
0001
0000
0010
1000
,
0000
0100
0010
0001
0100
0010
1000
0001
,
0100
0000
0001
0010
1000
0000
0010
0001
,
0000
0100
0001
0010
0100
0000
1001
0000
,
0010
0000
1000
0100
0001
0000
0100
1000
,
0000
0000
0010
0000
0100
0000
0001
0000
0010
0000
0100
0000
1000
0000
0010
1000
,
0001
0000
0000
0001
0100
0000
0000
0100
1000
0000
0000
1000
0100
0000
0000
0100
,
0001
0000
0010
0001
0100
0000
0110
0000
,
1000
0000
0000
1000
0100
0000
0000
0100
0001
0000
0000
0001
0100
0000
0000
0100
,
1000
0000
0010
0100
0001
0000
1001
0000
,
0010
0000
0000
1000
0100
0000
0000
0001
0100
0000
0000
1000
0010
0000
0000
0100
,
0001
0000
1000
0100
0000
0001
0100
1000
,
0010
1001
0100
1001
,
0010
0000
0001
1000
,
1100
0000
0010
1000
0100
0000
0010
0001
,
0100
0000
0000
1000
0100
0000
0001
0000
0010
0000
0000
0000
0100
0000
1000
0000
,
0010
0000
0100
0001
0010
0000
0100
1000
,
0010
0000
0000
0001
0010
0000
1000
0000
0010
0000
0000
0000
1000
0000
0100
0000
,
0001
0000
0001
0100
1000
0000
0010
1000
,
0100
0000
0000
0010
0001
0000
0100
0000
0010
0000
0000
0000
1000
0000
0010
0000
,
0001
0000
0001
0010
1000
0000
0001
0100
,
0010
0000
0000
1000
0010
0000
0100
0000
0001
0000
0000
0000
0011
0000
0000
0000
,
2100
0000
3000
1000
0020
0000
0030
0010
,
0200
0000
0300
0100
0001
0010
1000
0010
,
0001
0100
1000
0100
0001
0010
0001
0010
,
0100
1000
0100
0000
0110
0000
1001
0000
,
0021
0000
0230
0000
,
1300
0010
0100
0001
1000
0100
0010
0001
,
2000
0100
0000
0001
0000
0010
0000
3001
,
0010
0001
1000
0010
1000
0001
0010
0001
,
1000
0000
0010
1000
0001
0000
0100
1000
,
0100
0001
0010
0001
1000
0000
0010
1000
,
0001
0000
0010
0001
1000
0000
0100
0001
,
0100
1000
0010
1000
0001
0000
0100
0000
,
1001
0000
0000
0000
0010
0000
0000
0001
0100
0000
0000
0010
1000
0000
0100
0010
,
0001
0000
1000
0000
0010
0000
0000
1000
0100
0000
0000
0010
0001
0000
0100
0010
,
1000
0000
0001
0100
1000
0000
0001
0010
,
1000
0000
0000
0000
0100
0000
0010
0000
0001
0000
0000
1000
0010
0000
0100
0000
,
0001
0000
1000
0100
0001
0000
1000
0010
,
0001
0000
0000
0000
0100
0000
0010
0000
1000
0000
0000
0001
0010
0000
0100
0000
,
1000
0000
0010
1000
0100
0010
0001
0100
,
1000
0000
0100
0000
0001
0000
0010
0000
0100
0000
0000
1000
0010
0000
0100
0000
,
0001
0000
0010
0001
0100
0010
1000
0100
,
0001
0000
0100
0000
1000
0000
0010
0000
0100
0000
0000
0001
0010
0000
0100
0000
,
1000
0000
0001
0100
1000
0100
0001
0010
,
1000
0000
0010
0000
0001
0000
1000
0000
0010
0000
0000
0100
0010
0000
1000
0000
,
0001
0000
1000
0100
0001
0100
1000
0010
,
0001
0000
0010
0000
1000
0000
0001
0000
0010
0000
0000
0100
0010
0000
0001
0000
,
1000
0000
1001
0000
0010
0001
0100
1000
,
0000
0100
0010
0100
0001
0010
1000
0010
,
0000
0001
0100
0001
1000
0010
0100
0001
,
0000
1000
0100
0010
0011
0000
1100
0000
,
0110
0000
1001
0000
0010
1000
0100
0001
,
0000
0100
0010
0100
1000
0010
0001
0010
,
0000
1000
0100
1000
0001
0010
0100
1000
,
0000
0001
0100
0010
1000
0100
0001
0100
,
1000
0000
0010
0000
1001
0000
1000
0100
,
0010
0001
0100
0010
0001
0010
1000
0100
,
0010
0000
0000
0000
;

//---------------dance-double - ----------------
#NOTES:
     dance-double:
     :
     Hard:
     9:
     0.543221,0.617583,0.105871,0.044113,0.074992,431.000000,419.000000,12.000000,5.000000,0.000000,0.000000,0.543221,0.617583,0.105871,0.044113,0.074992,431.000000,419.000000,12.000000,5.000000,0.000000,0.000000:
00000000
00000000
00000000
00000000
,
00000000
00000000
00000000
00000000
,
00000000
00000000
00000000
00000000
,
00000000
00000000
00000000
00000000
,
00000000
00000000
00000000
00000000
,
00000000
00000000
00000000
00000000
,
00010000
00000000
00001000
00000000
00100000
01000000
10000000
00000000
,
00100000
01000000
00010000
00001000
00000100
00000000
00000010
00000000
,
00001000
00000000
00010000
00000000
00000010
00000100
00000001
00000000
,
00000010
00000100
00001000
00010000
01000000
00000000
10010000
00000000
,
00010000
00000000
10000000
01000000
00010000
00000000
00001000
00000100
,
00000001
00000010
00000001
00000100
00001000
00000000
00010000
00000000
,
00000010
00000000
00000100
00000001
00000010
00000000
00000100
00001000
,
00000000
00010000
00100000
01000000
10000000
01000000
00010000
00001000
,
00000100
00000000
00000001
00000100
00001000
00000000
00010000
01000000
,
10000000
00100000
10000000
01000000
00010000
00000000
00001000
00000000
,
00100000
00000000
01000000
10000000
00100000
00000000
01000000
00010000
,
00000000
00001000
00000010
00000100
00000001
00000010
00001000
00000010
,
00000001
00000100
00001000
01000000
10000000
01000000
00010000
00001000
,
00000010
00000100
00000001
00001000
00010000
00000000
00100000
00000000
,
01000000
10000000
00010000
01000000
10000000
01000000
00001000
00010000
,
00000100
00000000
00000010
00000001
00000100
00000000
00001001
00000000
,
00001000
00000100
00000001
00001000
00000010
00000100
00010000
00100000
,
10000000
00000000
00010000
00001000
00000000
00010000
00100000
01000000
,
10000000
00010000
00001000
00000001
,
00001001
00000000
00000001
00000100
,
00001000
00000000
00010000
01000000
10000000
00000000
00100000
10000000
,
01000000
00000000
00000000
00100000
00010000
00000000
01000000
00000000
00100000
00000000
00000000
00000000
10000000
00000000
01000000
00000000
,
00010000
00000000
00001000
00000100
00000001
00000000
00000010
00000001
,
00000100
00000000
00000000
00001000
00000100
00000000
00000010
00000000
00000100
00000000
00000000
00000000
00000001
00000000
00000010
00000000
,
00001000
00000000
00010000
00100000
10000000
00000000
01000000
10000000
,
00100000
00000000
00000000
00010000
00100000
00000000
10000000
00000000
01000000
00000000
00000000
00000000
10000000
00000000
00100000
00000000
,
00010000
00000000
00001000
00000010
00000001
00000000
00000100
00000001
,
00000010
00000000
00000000
00000100
00001000
00000000
00000010
00000000
00000100
00000000
00000000
00000000
00001001
00000000
00000000
00000000
,
00000002
00000000
00000003
00000001
00000020
00000000
00000030
00000010
,
00002000
00000000
00003000
00001000
00010000
00100000
10000000
00100000
,
00010000
00001000
00000010
00000001
00000010
00001000
00100000
10000000
,
00100000
00001000
00000100
00000001
00000010
00000000
00000110
00000000
,
00002001
00000010
00000001
00000100
,
00013000
00100000
01000000
10000000
00100000
01000000
00010000
00001000
,
00000020
00000001
00000000
00000100
00000000
00001000
00000000
00010030
,
00001000
00000100
00000001
00000010
00000000
00000001
00000100
00001000
,
00010000
00000000
01000000
00010000
00001000
00000000
00000010
00001000
,
00010000
00100000
10000000
00010000
10000000
00000000
01000000
00010000
,
00001000
00000000
00000100
00001000
00010000
00000000
00100000
00010000
,
00001000
00000010
00000001
00001000
00000001
00000000
00000100
00000000
,
00001001
00000000
00000000
00000000
00000010
00000000
00000000
00000001
00000100
00000000
00000000
00000010
00001000
00000000
00010000
01000000
,
00100000
00000000
00000000
10000000
01000000
00000000
00000000
00100000
00010000
00000000
00001000
00000010
00000100
00000000
00000001
00000010
,
00000100
00000000
00010000
00001000
00000100
00000000
00001000
00010000
,
01000000
00000000
00000000
00000000
10000000
00000000
00100000
00000000
00010000
00000000
00000000
00001000
00010000
00000000
01000000
00000000
,
10000000
00000000
00100000
00010000
00001000
00000000
00000010
00001000
,
00010000
00000000
00000000
00000000
00001000
00000000
00000100
00000000
00000001
00000000
00000000
00000010
00000001
00000000
00000100
00000000
,
00001000
00000000
00010000
00100000
10000000
01000000
00010000
00000100
,
00000001
00000000
00000100
00000000
00001000
00000000
00010000
00000000
10000000
00000000
00000000
00100000
00010000
00000000
00001000
00000000
,
00010000
00000000
00001000
00000010
00000001
00000100
00001000
01000000
,
10000000
00000000
01000000
00000000
00010000
00000000
00001000
00000000
00000001
00000000
00000000
00000010
00001000
00000000
00010000
00000000
,
00001000
00000000
00000100
00000001
00001000
00000010
00001000
00010000
,
00100000
00000000
10000000
00000000
00010000
00000000
01000000
00000000
10000000
00000000
00000000
00100000
00010000
00000000
00001000
00000000
,
00010000
00000000
01000000
10000000
00010000
00100000
00010000
00001000
,
00000010
00000000
00000001
00000000
00001000
00000000
00000100
00000000
00000001
00000000
00000000
00000010
00001000
00000000
00010000
00000000
,
00001000
00000000
00011000
00000000
00100000
10000000
01000000
00010000
,
10000000
00100000
00010000
00001000
00000100
00000010
00000001
00000100
,
00001000
00000001
00000010
00001000
00010000
01000000
00100000
10000000
,
01000000
00010000
00001000
00000100
00000001
00000000
00000011
00000000
,
00001100
00000000
00001001
00000000
00000010
00000001
00000100
00001000
,
00000001
00000010
00001000
00010000
01000000
00100000
10000000
01000000
,
00010000
10000000
00100000
00010000
00001000
00000100
00000010
00000001
,
00000100
00001000
00010000
01000000
10000000
00100000
01000000
00000000
,
00001000
00000000
00010000
00000000
00001010
00000000
00000001
00000010
,
00000100
00001000
00010000
00100000
01000000
10000000
01000000
00100000
,
00010000
00000000
00000000
00000000
;

//---------------dance-single - ----------------
#NOTES:
     dance-single:
     :
     Medium:
     6:
     0.389456,0.463188,0.247033,0.114694,0.000000,309.000000,281.000000,28.000000,13.000000,0.000000,0.000000,0.389456,0.463188,0.247033,0.114694,0.000000,309.000000,281.000000,28.000000,13.000000,0.000000,0.000000:
0000
0000
0000
0000
,
0000
0000
0000
0000
,
0000
0000
0000
0000
,
0000
0000
0000
0000
,
0000
0000
0000
0000
,
0000
0000
0000
0000
,
1100
0010
0001
0100
,
1000
0000
0100
0001
0010
0000
0000
0000
,
0101
0010
1000
0100
,
0001
0000
0100
1000
0010
0000
1001
0000
,
0010
0000
0001
0100
0001
0000
1000
0000
,
0100
0000
0010
0100
1000
0000
0000
0000
,
0010
0000
1000
0100
1000
0000
0001
0000
,
0100
0000
0010
0100
0001
0000
1000
0000
,
0100
0000
0010
0001
0100
0000
0010
0000
,
1000
0100
0001
0100
1000
0000
0000
0000
,
0100
0000
0010
1000
0100
0000
0010
0000
,
0001
0000
0100
0010
2000
0000
0000
0000
,
3001
0100
1000
0010
,
0001
0000
0100
0010
0100
0000
0001
0000
,
1000
0100
0001
0010
,
1000
0000
0100
0010
0100
0000
0000
0000
,
2000
3200
0320
0032
,
2003
0000
3010
0010
0000
0000
0100
0000
,
0001
0000
0000
0010
0000
0000
0001
0000
,
1000
0001
0000
0000
,
0110
0000
1000
0100
0010
0000
0001
0100
,
0010
0000
1000
0000
1001
0000
0001
0010
,
0100
0000
1000
0010
0100
0000
0010
1000
,
0100
0000
0010
0000
0001
0000
1000
0001
,
0010
0000
0001
0100
0010
0000
1000
0100
,
0010
0000
0001
0000
1001
0000
1000
0010
,
0100
0000
0001
0010
0100
0000
0010
0001
,
0100
0010
1000
0001
,
0011
0000
1100
0000
,
0110
0000
0001
0001
,
1000
0100
0010
0001
,
0100
0010
0100
0100
,
0002
0100
2003
0100
,
3020
0000
0000
0000
,
0230
0000
0302
2003
,
3200
0000
0000
0310
,
0001
0000
1000
0100
1000
0000
0001
0010
,
0100
1000
1100
0101
,
1000
0000
0001
0100
0001
0000
1000
0010
,
0100
0001
0010
0100
,
1001
0000
0010
0000
1000
0000
0100
0010
,
0001
0000
0010
0000
0001
0000
0100
0010
,
1000
0000
0001
0001
,
1000
1000
0010
0010
,
0100
0000
1000
1000
,
0001
0001
0010
0010
,
0100
0000
0000
0000
1000
0000
0001
0100
,
0010
0000
1000
0100
0010
0000
0001
0000
,
1001
0000
1000
0010
0100
0000
0001
0010
,
0100
0000
0010
0001
0100
0000
0010
0000
,
1000
0000
0001
1000
0010
0000
1000
0100
,
0010
0000
0001
0100
0010
0000
1000
0000
,
1001
0000
0001
0010
0100
0000
1000
0010
,
0100
0000
0010
1000
0100
0000
0010
0000
,
0001
1000
1100
0010
,
0001
0100
0101
0010
,
0001
0100
1010
0001
,
0100
0010
1001
1010
,
0011
0110
0101
0010
,
1000
0100
1100
0010
,
0001
0100
0011
1000
,
0100
0010
1001
0011
,
1010
0000
0000
0000
1001
0000
1000
0100
,
0010
0000
0001
0100
0010
1000
0001
0010
,
0100
0000
0000
0000
;

//---------------dance-single - ----------------
#NOTES:
     dance-single:
     :
     Easy:
     4:
     0.278543,0.339671,0.044113,0.105871,0.000000,221.000000,216.000000,5.000000,12.000000,0.000000,0.000000,0.278543,0.339671,0.044113,0.105871,0.000000,221.000000,216.000000,5.000000,12.000000,0.000000,0.000000:
0000
0000
0000
0000
,
0000
0000
0000
0000
,
0000
0000
0000
0000
,
0000
0000
0000
0000
,
0000
0000
0000
0000
,
0000
0000
0000
0000
,
1000
0100
0010
0001
,
0100
0010
0100
0000
,
0001
0100
0010
1000
,
0100
0010
0100
0000
,
1000
1000
0001
0001
,
0010
0100
1000
0000
,
0001
0001
1000
1000
,
0010
0100
0001
0010
,
0001
0100
1000
0100
,
0001
1000
0001
0000
,
1000
0100
0001
0100
,
1000
0001
1000
0000
,
0020
0000
0230
0000
,
0301
0001
1000
1000
,
0020
0000
0230
0000
,
0301
0001
1000
0000
,
0001
0100
1000
0010
,
0001
0000
1000
0000
,
0010
0000
0100
0100
,
0010
0000
1001
0000
,
0010
1000
0100
0010
,
0001
0100
0010
0000
,
1000
0001
0010
0100
,
1000
0001
0100
0000
,
0010
1000
0100
0001
,
0100
1000
0010
0000
,
0100
0001
0010
0100
,
1000
0010
0100
0001
,
1000
0000
1000
0000
,
0001
0000
0001
0000
,
0010
0100
0010
0100
,
1000
0001
1000
0001
,
2000
0000
3002
0000
,
0023
0000
0000
0000
,
0032
0000
2003
3020
,
0230
0000
0000
0300
,
0010
1000
0010
1000
,
0001
0010
0100
0000
,
0010
0001
0010
0001
,
1000
0010
0100
0001
,
1000
0000
0010
0000
0100
0000
0001
0001
,
0001
0000
0010
0000
0100
0000
1000
1000
,
1000
0001
0010
0100
,
1000
0010
0100
0100
,
0010
1000
0010
0100
,
0001
0010
0100
0100
,
0020
0000
0031
1000
,
0100
0010
0001
0100
,
0010
0000
1000
0001
,
0010
0100
1000
0001
,
0100
0000
0010
1000
,
0100
0001
0100
1000
,
0010
0000
0100
0001
,
0010
0100
1000
0010
,
0100
0001
1000
0000
,
0010
0010
0100
0000
,
0001
0001
0010
0000
,
0100
1000
0001
0011
,
1000
1010
0001
0000
,
0010
0010
0100
0000
,
1000
1000
0010
0000
,
0100
0001
1000
0110
,
1001
0000
0010
0001
,
0100
1000
0010
0001
,
0100
0000
0000
0000
;

//---------------dance-double - ----------------
#NOTES:
     dance-double:
     :
     Medium:
     6:
     0.381893,0.463188,0.194098,0.070581,0.000000,303.000000,281.000000,22.000000,8.000000,0.000000,0.000000,0.381893,0.463188,0.194098,0.070581,0.000000,303.000000,281.000000,22.000000,8.000000,0.000000,0.000000:
00000000
00000000
00000000
00000000
,
00000000
00000000
00000000
00000000
,
00000000
00000000
00000000
00000000
,
00000000
00000000
00000000
00000000
,
00000000
00000000
00000000
00000000
,
00000000
00000000
00000000
00000000
,
00011000
00000000
00010000
00000000
01000000
00000000
10000000
00100000
,
01000000
00010000
00100000
00000000
,
00011000
00000000
00001000
00000000
00000100
00000000
00000001
00000010
,
00000100
00001000
00000010
00000000
,
00000100
00000000
00000001
00000010
00000001
00000000
00001000
00000000
,
00000010
00000000
00000100
00001000
00010000
00000000
00000000
00000000
,
01000000
00000000
10000000
00100000
10000000
00000000
00010000
00000000
,
00100000
00000000
01000000
00010000
00001000
00000000
00011000
00000000
,
01000000
00000000
10000000
00100000
10000000
00000000
00010000
00000000
,
00100000
00000000
01000000
00010000
00001000
00000000
00000000
00000000
,
00000100
00000000
00000001
00000010
00000001
00000000
00001000
00000000
,
00000010
00000000
00000100
00001000
00020000
00000000
00000000
00000000
,
00130000
10000000
01000000
00010000
,
00001000
00000000
00100000
00010000
00100000
00000000
00001000
00000000
,
00000010
00000001
00000100
00001000
,
00010000
00000000
00000010
00001000
00000010
00000000
00000000
00000000
,
00000100
00000001
00000010
00001000
,
00010000
00000000
00000100
00001000
00000000
00000100
00000000
00010000
,
00001000
00000000
01000000
01000000
,
00100000
00000000
10000000
00000000
,
10010000
00000000
00010000
01000000
00100000
00000000
10000000
01000000
,
00010000
00000000
00001000
00000000
00000010
00000000
00000001
00000010
,
00000100
00000000
00001000
00000010
00000100
00000000
00000001
00000010
,
00001000
00000000
00010000
00000000
01000000
00000000
10000000
00100000
,
01000000
00000000
00010000
00100000
01000000
00000000
10000000
00100000
,
00010000
00000000
00001000
00000000
00000100
00000000
00000001
00000100
,
00000010
00000000
00001000
00000100
00000010
00000000
00000001
00000100
,
00001000
00010000
00100000
10000000
,
10100000
00000000
01100000
00000000
,
01001000
00000000
00010000
00010000
,
00001000
00000100
00000001
00000010
,
00000100
00001000
00000100
00010000
,
00002000
00100000
02003000
00100000
,
03020000
00000000
00000000
00000000
,
20030000
00000000
30200000
00320000
,
00032000
00000000
00000000
00003100
,
00000001
00000000
00001000
00000010
00001000
00000000
00000001
00000100
,
00000010
00000000
00001000
00000000
00010000
00000000
00100000
01000000
,
10000000
00000000
00010000
00100000
00010000
00000000
10000000
01000000
,
00100000
00010000
01000000
00100000
,
10010000
00000000
00100000
00000000
00010000
00000000
00001000
00000100
,
00000001
00000000
00000010
00000000
00001000
00000000
00010000
01000000
,
10000000
00000000
00010000
00010000
,
10000000
10000000
00100000
00100000
,
00010000
00000000
00001000
00001000
,
00000100
00000100
00000001
00000001
,
00000010
00000000
00000000
00000000
00000001
00000000
00001000
00000100
,
00000010
00000000
00000001
00000100
00001000
00000000
00010000
00000000
,
00100000
00000000
10000000
00100000
01000000
00000000
00010000
00100000
,
01000000
00000000
10000000
00100000
00010000
00000000
00001000
00000000
,
00000100
00000000
00000001
00000010
00000100
00000000
00001000
00000010
,
00000100
00000000
00000001
00000010
00001000
00000000
00010000
00000000
,
01000000
00000000
10000000
01000000
00100000
00000000
00010000
01000000
,
00100000
00000000
10000000
01000000
00010000
00000000
00001000
00000000
,
00000010
00000001
00000101
00000010
,
00001000
00000100
00001100
00000010
,
00010000
00001000
00101000
00010000
,
01000000
10000000
10100000
01100000
,
01010000
10010000
11000000
00100000
,
00001000
00010000
00010010
00001000
,
00000100
00000001
00000011
00000110
,
00001100
00001001
00000010
00001000
,
00010000
00000000
00000000
00000000
00011000
00000000
00010000
00001000
,
00000100
00000000
00001000
00010000
01000000
00100000
00010000
10000000
,
00100000
00000000
00000000
00000000
;

//---------------dance-double - ----------------
#NOTES:
     dance-double:
     :
     Easy:
     4:
     0.272241,0.339671,0.008823,0.123517,0.000000,216.000000,215.000000,1.000000,14.000000,0.000000,0.000000,0.272241,0.339671,0.008823,0.123517,0.000000,216.000000,215.000000,1.000000,14.000000,0.000000,0.000000:
// measure 0
00000000
00000000
00000000
00000000
,  // measure 1
00000000
00000000
00000000
00000000
,  // measure 2
00000000
00000000
00000000
00000000
,  // measure 3
00000000
00000000
00000000
00000000
,  // measure 4
00000000
00000000
00000000
00000000
,  // measure 5
00000000
00000000
00000000
00000000
,  // measure 6
00010000
01000000
00100000
10000000
,  // measure 7
01000000
00100000
00010000
00000000
,  // measure 8
00001000
00000100
00000010
00000001
,  // measure 9
00000100
00000010
00001000
00000000
,  // measure 10
00000001
00000001
00001000
00001000
,  // measure 11
00000010
00010000
00001000
00000000
,  // measure 12
00100000
00100000
00010000
00010000
,  // measure 13
10000000
00100000
01000000
00010000
,  // measure 14
10000000
01000000
00010000
01000000
,  // measure 15
00010000
00001000
00010000
00000000
,  // measure 16
00001000
00000100
00000001
00000100
,  // measure 17
00001000
00010000
00000010
00000000
,  // measure 18
00002000
00000000
00003002
00000000
,  // measure 19
00000103
00001000
00010000
00100000
,  // measure 20
20000000
00000000
30020000
00000000
,  // measure 21
10030000
01000000
00100000
00000000
,  // measure 22
00020000
00000000
20030000
00000000
,  // measure 23
31000000
00010000
00001000
00000010
,  // measure 24
00000001
00000000
00000100
00000100
,  // measure 25
00000010
00000000
00001001
00000000
,  // measure 26
00000010
00000001
00000100
00000010
,  // measure 27
00001000
00000100
00000010
00000000
,  // measure 28
00001000
00010000
01000000
00100000
,  // measure 29
00001000
00010000
00100000
00000000
,  // measure 30
10000000
01000000
00100000
00010000
,  // measure 31
01000000
00100000
10000000
00000000
,  // measure 32
01000000
00010000
00001000
00100000
,  // measure 33
00001000
00010000
00000100
00000010
,  // measure 34
00000001
00000000
00000001
00000000
,  // measure 35
00001000
00000000
00001000
00000000
,  // measure 36
00000100
00010000
00000100
00010000
,  // measure 37
00001000
00100000
00001000
00100000
,  // measure 38
00020000
00000000
20030000
00000000
,  // measure 39
30200000
00000000
00000000
00000000
,  // measure 40
00320000
00000000
00032000
00003020
,  // measure 41
00000230
00000000
00000000
00000000
,  // measure 42
00000310
00000001
00000010
00000001
,  // measure 43
00001000
00000010
00000100
00000000
,  // measure 44
00000010
00001000
00000010
00001000
,  // measure 45
00000100
00010000
00001000
00100000
,  // measure 46
00010000
00000000
10000000
00000000
00100000
00000000
01000000
01000000
,  // measure 47
01000000
00000000
00001000
00000000
00010000
00000000
00000100
00000100
,  // measure 48
00000100
00001000
00000001
00000010
,  // measure 49
00000100
00001000
00000010
00010000
,  // measure 50
00001000
00100000
00010000
10000000
,  // measure 51
00100000
01000000
00010000
00001000
,  // measure 52
00000200
00000000
00000310
00000001
,  // measure 53
00000100
00000010
00001000
00000100
,  // measure 54
00000010
00000000
00001000
00010000
,  // measure 55
01000000
00100000
00001000
00010000
,  // measure 56
00100000
00000000
10000000
01000000
,  // measure 57
00100000
00010000
01000000
00100000
,  // measure 58
10000000
00000000
01000000
00010000
,  // measure 59
00001000
00100000
00001000
00010000
,  // measure 60
00000100
00000010
00000001
00000000
,  // measure 61
00000100
00000100
00000010
00000000
,  // measure 62
00001000
00001000
00000100
00000000
,  // measure 63
00010000
00001000
00100000
00100000
,  // measure 64
01000000
01000000
10000000
00000000
,  // measure 65
00100000
00100000
01000000
00000000
,  // measure 66
00010000
00000000
00010000
00100000
,  // measure 67
00000000
00001000
00010000
00000100
,  // measure 68
00000100
00000000
00000010
00000001
,  // measure 69
00000100
00001000
00010000
01000000
,  // measure 70
10000000
00000000
00000000
00000000
;
